Классический форум-трекер
canvas not supported
Нас вместе: 4 215 924

Схватка / Heat (1995) DVDRip [Extended Cut]


 
 
RSS
Начать новую тему   Ответить на тему    Торрент-трекер NNM-Club -> Зарубежное кино -> Зарубежные Фильмы (SD)
Автор Сообщение
ra3wa ®
Модератор Видео
RG Releasers
Uploader 500+
Стаж: 12 лет 7 мес.
Сообщений: 15917
Ratio: 14K
Раздал: 676.5 TB
Поблагодарили: 3207273
100%
Откуда: Воронеж
russia.gif
Схватка / Heat (1995) DVDRip
Год выпуска: 1995
Производство: США
Жанр: Боевик, триллер, драма, криминал

Режиссер: Майкл Манн
Актеры: Аль Пачино, Роберт Де Ниро, Вэл Килмер, Джон Войт, Натали Портман, Том Сайзмор, Дайан Венора, Эми Бреннеман, Эшли Джадд, Майкелти Уильямсон, Уэс Студи, Тед Левайн, Дэннис Хэйсберт, Уильям Фихтнер, Том Нунен, Кевин Гейдж, Хэнк Азария, Сьюзен Трейлор, Ким Стонтон, Дэнни Трехо, Генри Роллинз, Джерри Тримбл, Мартин Ферреро, Рики Харрис, Тоун Лок

Описание фильма:
Нил МакКоли - преступник. Один из лучших, если можно так сказать о преступнике, в Лос-Анджелесе, а быть может, и во всей Америке. И работать с ним вместе почитают за честь суперпрофессионалы криминального мира. Но против него выступает Винсент Ханна. Детектив. Один из лучших в Лос-Анджелесе, а быть может, и во всей Америке. У Винсента и Нила очень много общего. Вероятно, общего у них даже больше, чем отличий. Однако они все же стоят по разные стороны закона. Две сильнейшие команды сошлись друг против друга. Только речь идет не о спортивном состязании, а о схватке не на жизнь, а на смерть...

Перевод: Профессиональный многоголосый [Первый канал]
Субтитры: Отсутствуют



Продолжительность: 02:52:12
Качество видео: DVDRip

Видеокодек: XviD
Битрейт видео: ~1647Кбит/с
Размер кадра: 688x288
Аудиокодек: AC3 2 ch
Битрейт аудио: 160 Кбит/с

Общее
Полное имя : C:\NNM\Схватка\Shvatka 1995 DVDRip.avi
Формат : AVI
Формат/Информация : Audio Video Interleave
Размер файла : 2,19 Гбайт
Продолжительность : 2 ч. 52 м.
Общий поток : 1817 Кбит/сек
Программа кодирования : VirtualDubMod 1.5.10.2 (build 2542/release)
Библиотека кодирования : VirtualDubMod build 2542/release

Видео
Идентификатор : 0
Формат : MPEG-4 Visual
Профиль формата : Advanced Simple@L5
Параметр BVOP формата : 1
Параметр QPel формата : Нет
Параметр GMC формата : Без точки перехода
Параметр матрицы формата : Выборочная
Идентификатор кодека : XVID
Идентификатор кодека/Подсказка : XviD
Продолжительность : 2 ч. 52 м.
Битрейт : 1647 Кбит/сек
Ширина : 688 пикселей
Высота : 288 пикселей
Соотношение сторон : 2,40:1
Частота кадров : 25,000 кадров/сек
Цветовое пространство : YUV
Субдискретизация насыщенности : 4:2:0
Битовая глубина : 8 бит
Тип развёртки : Прогрессивная
Метод сжатия : С потерями
Бит/(Пиксели*Кадры) : 0.333
Размер потока : 1,98 Гбайт (91%)
Библиотека кодирования : XviD 65

Аудио
Идентификатор : 1
Формат : AC-3
Формат/Информация : Audio Coding 3
Расширение режима : CM (complete main)
Идентификатор кодека : 2000
Продолжительность : 2 ч. 52 м.
Вид битрейта : Постоянный
Битрейт : 160 Кбит/сек
Каналы : 2 канала
Расположение каналов : Front: L R
Частота : 48,0 КГц
Битовая глубина : 16 бит
Метод сжатия : С потерями
Размер потока : 197 Мбайт (9%)
Выравнивание : Разделение по промежуткам
Продолжительность промежутка : 40 мс. (1,00 видеокадр)
Время предзагрузки промежутка : 500 мс.
Скриншоты:
Время раздачи:Круглосуточно до 10 скачавших
[NNM-Club.me]_Shvatka 1995 DVDRip.avi.torrent
 Торрент: Платиновая раздача  Зарегистрирован
 
Скачать


Примагнититься
 Зарегистрирован:   05 Янв 2015 10:32:21
 Размер:   2.19 GB  (
 Рейтинг:   4.8 (Голосов: 111)
 Поблагодарили:   337
 Проверка:   Оформление проверено модератором 05 Янв 2015 10:35:57
Как cкачать  ·  Как раздать  ·  Правильно оформить  ·  Поднять ратио!  
jojobik
Стаж: 12 лет 7 мес.
Сообщений: 137
Ratio: 9.241
Поблагодарили: 86
100%
ussr.gif
суперфильм!
sergio1975
Стаж: 11 лет 7 мес.
Сообщений: 1591
Ratio: 6.487
100%
Откуда: Новосибирск
russia.gif
так точно!!!
boland771
Стаж: 9 лет 5 мес.
Сообщений: 23
Ratio: 7.506
100%
шедевр!
Kirilltroitsky
 
Стаж: 12 лет 2 мес.
Сообщений: 36
Ratio: 51.487
100%
spain.gif
нетленный
классика
фееричный
шедевр
я не знаю какие еще слова подобрать, честно
спасибо за релиз!
dimitrii36
Стаж: 10 лет 11 мес.
Сообщений: 264
Ratio: 40.338
100%
Откуда: от верблюда
witch.png
Разговоры излишне,смотрим в очередной раз.

_________________
Благодарю за труды. Когда мы едины,мы непобедимы!
VasiliyZadov
 
Стаж: 12 лет 6 мес.
Сообщений: 132
Ratio: 10.233
100%
ussr.gif
Блин, вот как ругать..? Добавленные кадры без перевода и субтитров, да и качество как у экранки. Низачёт.
#ramcram
Uploader 500+
Стаж: 16 лет
Сообщений: 935
Ratio: 431.796
Поблагодарили: 80
100%
ussr.gif
VasiliyZadov писал(а): Перейти к сообщению
Блин, вот как ругать..? Добавленные кадры без перевода и субтитров, да и качество как у экранки. Низачёт.

+
AlexGTI1977
Стаж: 11 лет 10 мес.
Сообщений: 29
Ratio: 7.436
15.55%
russia.gif
Перевод: Профессиональный многоголосый [Первый канал] - конечно испортит этот фильм. Раздающему плюсяра!
sergio1975
Стаж: 11 лет 7 мес.
Сообщений: 1591
Ratio: 6.487
100%
Откуда: Новосибирск
russia.gif
Kirilltroitsky писал(а): Перейти к сообщению
нетленный
классика
фееричный
шедевр
я не знаю какие еще слова подобрать, честно
спасибо за релиз!

у меня даже жена его любит,хоть и не поклонник данного жанра - пересматриваем вместе частенько
Волошенко
Стаж: 13 лет
Сообщений: 10
Ratio: 41.824
100%
Откуда: Воронеж
russia.gif
В начале фильма качество не соответствует DVD Rip, дальше и смотреть не стал.... Хоть и очень его хотел посмотреть.... (((
Kirilltroitsky
 
Стаж: 12 лет 2 мес.
Сообщений: 36
Ratio: 51.487
100%
spain.gif
sergio1975 писал(а): Перейти к сообщению
Kirilltroitsky писал(а): Перейти к сообщению
нетленный
классика
фееричный
шедевр
я не знаю какие еще слова подобрать, честно
спасибо за релиз!

у меня даже жена его любит,хоть и не поклонник данного жанра - пересматриваем вместе частенько


А потому что это настоящее кино) Кино не для дураков)
YUPG
Стаж: 8 лет 2 мес.
Сообщений: 21
Ratio: 0.244
1.72%
Сцена с перестрелкой на улице сногсшибательная. Коллизия напряженная и захватывающая. И только на вашем торретне нашел
Kirilltroitsky
 
Стаж: 12 лет 2 мес.
Сообщений: 36
Ratio: 51.487
100%
spain.gif
YUPG писал(а): Перейти к сообщению
Сцена с перестрелкой на улице сногсшибательная. Коллизия напряженная и захватывающая. И только на вашем торретне нашел

одна из лучших в истории кинематографа.
Показать сообщения:   
Начать новую тему   Ответить на тему    Торрент-трекер NNM-Club -> Зарубежное кино -> Зарубежные Фильмы (SD) Часовой пояс: GMT + 3
Страница 1 из 1