Классический форум-трекер
canvas not supported
Нас вместе: 4 094 731

Ничья земля / No Man's Land (2001) BDRip [H.264/720p-LQ]


 
 
RSS
Начать новую тему   Ответить на тему    Торрент-трекер NNM-Club -> Зарубежное кино -> Зарубежные Фильмы (HD*Rip/LQ, DVDRip, SATRip, VHSRip)
Автор Сообщение
Dreemmer ®
Стаж: 7 лет
Сообщений: 938
Ratio: 1429,269
Поблагодарили: 106045
100%
Ничья земля / No Man's Land (2001) BDRip [H.264/720p-LQ]
Производство: Босния-Герцеговина, Франция, Словения, Италия, Великобритания, Бельгия | British Screen Productions, Casablanca
Жанр: Драма, Военный

Режиссер: Данис Танович
Актеры: Бранко Джурич, Рене Битораяц, Филип Шовагович, Жорж Сиатидис, Серж-Анри Вальке, Саша Кремер, Ален Элуа, Мустафа Надаревич, Богдан Диклич, Саймон Кэллоу

Описание:
Взвод боснийских солдат заблудился в ночном тумане и к утру, к ужасу своему, обнаружил, что оказался прямо перед сербской передовой, под огнем противника.
После завязавшегося скорого, но жестокого боя, в траншее на нейтральной полосе оказались три раненых — серб и два боснийца. Один из боснийцев лежит на мине: если попытаться снять его с этой адской машины — она сработает.
Что делать заклятым врагам, оказавшимся в такой абсурдной и жуткой ситуации?


Возраст: 16+ (зрителям, достигшим 16 лет)
Рейтинг MPAA: R (лицам до 17 лет обязательно присутствие взрослого)

Продолжительность: 01:37:47
Качество видео: BDRip [profile LQ]
Перевод: Профессиональный двухголосый (Cinema Prestige), Профессиональный многоголосый (Карусель)
Субтитры: Русские

Видео: AVC/H.264, 1280x544 (2.35:1), 23,976 fps, ~3749 kbps
Аудио №1: AC3, 6 ch, 640 kbps - Русский (Cinema Prestige)
Аудио №2: AC3, 6 ch, 640 kbps - Русский (Карусель)
Аудио №3: AC3, 6 ch, 640 kbps - Боснийский

General
Unique ID : 176421372955219904419786557828660957252 (0x84B9853F8440F368A67C9247D54F9044)
Complete name : D:\фильмы\Nichja.zemlja.2001.BDRip.720p.mkv
Format : Matroska
Format version : Version 2
File size : 3.87 GiB
Duration : 1h 37mn
Overall bit rate : 5 665 Kbps
Movie name : Ничья земля / No Man's Land (2001)
Encoded date : UTC 2015-01-05 11:36:10
Writing application : mkvmerge v5.8.0 ('No Sleep / Pillow') built on Sep 2 2012 15:37:04
Writing library : libebml v1.2.3 + libmatroska v1.3.0

Video
ID : 1
Format : AVC
Format/Info : Advanced Video Codec
Format profile : High@L4.1
Format settings, CABAC : Yes
Format settings, ReFrames : 8 frames
Codec ID : V_MPEG4/ISO/AVC
Duration : 1h 37mn
Bit rate : 3 749 Kbps
Width : 1 280 pixels
Height : 544 pixels
Display aspect ratio : 2.35:1
Frame rate mode : Constant
Frame rate : 23.976 fps
Color space : YUV
Chroma subsampling : 4:2:0
Bit depth : 8 bits
Scan type : Progressive
Bits/(Pixel*Frame) : 0.225
Stream size : 2.48 GiB (64%)
Title : Release by AlexKa
Writing library : x264 core 144 r2525 40bb568
Encoding settings : cabac=1 / ref=8 / deblock=1:-3:-3 / analyse=0x3:0x133 / me=umh / subme=11 / psy=1 / psy_rd=1.00:0.20 / mixed_ref=1 / me_range=32 / chroma_me=1 / trellis=2 / 8x8dct=1 / cqm=0 / deadzone=21,11 / fast_pskip=0 / chroma_qp_offset=-3 / threads=12 / lookahead_threads=3 / sliced_threads=0 / nr=0 / decimate=0 / interlaced=0 / bluray_compat=0 / constrained_intra=0 / bframes=14 / b_pyramid=2 / b_adapt=2 / b_bias=0 / direct=3 / weightb=1 / open_gop=0 / weightp=2 / keyint=240 / keyint_min=23 / scenecut=40 / intra_refresh=0 / rc=2pass / mbtree=0 / bitrate=3749 / ratetol=1.0 / qcomp=0.60 / qpmin=0 / qpmax=69 / qpstep=4 / cplxblur=20.0 / qblur=0.5 / ip_ratio=1.40 / pb_ratio=1.30 / aq=1:0.80
Language : Bosnian
Default : Yes
Forced : No

Audio #1
ID : 2
Format : AC-3
Format/Info : Audio Coding 3
Mode extension : CM (complete main)
Format settings, Endianness : Big
Codec ID : A_AC3
Duration : 1h 37mn
Bit rate mode : Constant
Bit rate : 640 Kbps
Channel(s) : 6 channels
Channel positions : Front: L C R, Side: L R, LFE
Sampling rate : 48.0 KHz
Bit depth : 16 bits
Compression mode : Lossy
Stream size : 448 MiB (11%)
Title : Многоголосый закадровый, Cinema Prestige
Language : Russian
Default : Yes
Forced : No

Audio #2
ID : 3
Format : AC-3
Format/Info : Audio Coding 3
Mode extension : CM (complete main)
Format settings, Endianness : Big
Codec ID : A_AC3
Duration : 1h 37mn
Bit rate mode : Constant
Bit rate : 640 Kbps
Channel(s) : 6 channels
Channel positions : Front: L C R, Side: L R, LFE
Sampling rate : 48.0 KHz
Bit depth : 16 bits
Compression mode : Lossy
Stream size : 448 MiB (11%)
Title : Многоголосый закадровый, Карусель
Language : Russian
Default : No
Forced : No

Audio #3
ID : 4
Format : AC-3
Format/Info : Audio Coding 3
Mode extension : CM (complete main)
Format settings, Endianness : Big
Codec ID : A_AC3
Duration : 1h 37mn
Bit rate mode : Constant
Bit rate : 640 Kbps
Channel(s) : 6 channels
Channel positions : Front: L C R, Side: L R, LFE
Sampling rate : 48.0 KHz
Bit depth : 16 bits
Compression mode : Lossy
Stream size : 448 MiB (11%)
Title : Original
Language : Bosnian
Default : No
Forced : No

Text
ID : 5
Format : UTF-8
Codec ID : S_TEXT/UTF8
Codec ID/Info : UTF-8 Plain Text
Title : Rus
Language : Russian
Default : No
Forced : No

Menu
00:00:00.000 : :Chapter 01
00:10:27.417 : :Chapter 02
00:22:41.777 : :Chapter 03
00:29:58.671 : :Chapter 04
00:40:45.693 : :Chapter 05
00:49:44.773 : :Chapter 06
01:00:47.268 : :Chapter 07
01:13:20.978 : :Chapter 08
01:28:03.443 : :Chapter 09
01:37:45.774 : :Chapter 10
Скриншоты:

Все одноименные релизы в Клубе
[NNM-Club.me]_Nichja.zemlja.2001.BDRip.720p.mkv.torrent
 Торрент: Платиновая раздача  Зарегистрирован
 
Скачать


Примагнититься
 Зарегистрирован:   06 Янв 2015 07:56:06
 Размер:   3,87 GB  (
 Рейтинг:   4,8 (Голосов: 46)
 Поблагодарили:   204
 Проверка:   Оформление проверено модератором 18 Янв 2020 20:50:51
Как cкачать  ·  Как раздать  ·  Правильно оформить  ·  Поднять ратио!  
Василий Тимошкин
Uploader 300+
Стаж: 9 лет 8 мес.
Сообщений: 440
Ratio: 125,913
Раздал: 501,8 TB
Поблагодарили: 59
100%
ussr.gif
Отличное кино. Очень смысловое. Школоте проходить мимо.
sersil2008
Стаж: 8 лет 6 мес.
Сообщений: 52
Ratio: 34,172
100%
Давненько смотрел, хороший фильм. Релизеру спасибо.
Georgiiy
Реставратор Клуба
Стаж: 6 лет 3 мес.
Сообщений: 309
Ratio: 403,598
Раздал: 43,19 TB
Поблагодарили: 7436
100%
Откуда: Киев
ukraine.gif

_________________
Мы прорвёмся сквозь бури наших дней.
Показать сообщения:   
Начать новую тему   Ответить на тему    Торрент-трекер NNM-Club -> Зарубежное кино -> Зарубежные Фильмы (HD*Rip/LQ, DVDRip, SATRip, VHSRip) Часовой пояс: GMT + 3
Страница 1 из 1