Классический форум-трекер
canvas not supported
Нас вместе: 4 233 722

Адвокат дьявола / The Devil's Advocate (1997) BDRip [1080p] [Unrated Director's Cut]


 
 
RSS
Начать новую тему   Ответить на тему    Торрент-трекер NNM-Club -> Зарубежное кино -> Зарубежные Фильмы (HD, FHD)
Автор Сообщение
rworkx ®
Стаж: 9 лет 5 мес.
Сообщений: 95
Ratio: 9.958
Раздал: 4.976 TB
Поблагодарили: 8107
100%
Адвокат дьявола / The Devil's Advocate (1997) BDRip
«У зла свой путь к победе»
Год выпуска: 1997
Производство: США, Германия
Жанр: Триллер, Драма, Детектив

Режиссер: Тейлор Хэкфорд
Актеры: Аль Пачино, Киану Ривз, Шарлиз Терон, Джеффри Джонс, Джудит Айви, Конни Нильсен, Крэйг Т. Нельсон, Тамара Тюни, Рубен Сантьяго-Хадсон, Дебра Монк

Описание фильма:
В Нью-Йорк по приглашению главы крупного юридического концерна прибывает Кевин Ломакс, молодой адвокат. До этого он был известен тем, что защищал исключительно негодяев и притом не проиграл ни одного процесса. На новом месте работы он вполне счастлив, он живет в роскошной квартире с любящей женой, его окружают интересные люди…

Дата мировой премьеры: 17 октября 1997

Продолжительность: 02:23:55
Качество видео: BDRip
Рип:

Перевод: Профессиональный (полное дублирование)
Субтитры: Русские, английские

Видеокодек: MPEG-4 AVC/H.264
Битрейт видео: ~9000 kbps
Размер кадра: 1920x800

Аудио#1: Русский 48 kHz, AC3, 6 ch, 3/2 (L,C,R,l,r) + LFE ch, ~384 kbps avg. [Профессиональный (полное дублирование)][R5]
Аудио#2: Русский 48 kHz, DTS, 6 ch, 3/2 (L,C,R,l,r) + LFE ch, ~1509 kbps avg. [Профессиональный (многоголосый, закадровый)][Телеканал Карусель]
Аудио#3: Русский 48 kHz, AC3, 2 (L,R) ch, ~192 kbps avg. [Профессиональный (многоголосый, закадровый)][Телеканал НТВ]
Аудио#4: Русский 48 kHz, AC3, 2 (L,R) ch, ~192 kbps avg. [Профессиональный (многоголосый, закадровый)][Телеканал Россия]
Аудио#5: Русский 48 kHz, AC3, 2 (L,R) ch, ~192 kbps avg. [Профессиональный (двухголосый)][Телеканал ТВ1000]
Аудио#6: Русский 48 kHz, DTS, 6 ch, 3/2 (L,C,R,l,r) + LFE ch, ~1509 kbps avg. [Профессиональный (одноголосый)][Ю.Живов]
Аудио#7: Русский 48 kHz, DTS, 6 ch, 3/2 (L,C,R,l,r) + LFE ch, ~1509 kbps avg. [Профессиональный (одноголосый)][А.Гаврилов]
Аудио#8: Русский 48 kHz, AC3, 2 (L,R) ch, ~192 kbps avg. [Профессиональный (одноголосый)][С.Визгунов]
Аудио#9: Русский 48 kHz, AC3, 6 ch, 3/2 (L,C,R,l,r) + LFE ch, ~384 kbps avg. [Профессиональный (одноголосый)][В.Завгородний]
Аудио#10: Русский 48 kHz, AC3, 2 (L,R) ch, ~192 kbps avg. [Профессиональный (одноголосый)][М.Латышев]
Аудио#11: Украинский 48 kHz, AC3, 2 (L,R) ch, ~192 kbps avg. [Профессиональный (многоголосый, закадровый)][Телеканал 1+1]
Аудио#12: Английский 48 kHz, DTS, 6 ch, 3/2 (L,C,R,l,r) + LFE ch, ~1509 kbps avg. [Оригинал]

- Исходник Blu-Ray
- Перекодировано с максимальным сохранением качества для FULL HD экранов
- Добавлены альтернативные русские переводы
- Сохранены оригинальные чаптеры как на Blu-Ray
- Дорожка №2,6,7 получены наложением чистого голоса на центр декодированного DTS-HD MA
* Рекомендую при просмотре включать вторую дорожку многолосый, Карусель или выбрать одноголосый перевод Живова, Гаврилова, потому что дублированный перевод шумит и качество звука в несколько раз хуже...
· Фильм снят по мотивам романа Эндрю Нейдермана «Адвокат дьявола» (Devil’s Advocate, 1990).

· Эпизоды в офисе Джона Милтона с видом на наружную террасу и панораму Нью-Йорка с высоты птичьего полета действительно снимались на вершине небоскреба: съемочная площадка была оборудована на 50-м этаже здания «Континентал Тауэр», расположенном в Манхэттене на Уолл-стрит, в 8 футах от края. Таким образом, за окном мы видим совершенно реальную панораму Нью-Йорка, а не компьютерную дорисовку.

· Персонаж Конни Нильсен разговаривает на итальянском языке во всех версиях фильма, кроме итальянской. Там она говорит по-испански. Занятно, что родной язык актрисы — датский.

· Герой Джон Милтон был назван в честь автора классического произведения «Потерянный рай», в котором рассказана история падшего человека.

· После выхода фильма скульптор Фредерик Харт предъявил иск компании «Warner Brothers» на основании того, что большое скульптурное панно на стене пентхауса Джона Милтона является точной копией его работы «Ex Nihilo», находящейся у входа в Вашингтонский кафедральный собор Епископальной церкви США. В феврале 1998 года, в рамках судебного урегулирования конфликта, компания обязалась выплатить скульптору авторский гонорар за уже выпущенные 475 000 копий картины, а в остальных копиях эта скульптура должна быть удалена из фильма (несмотря на то, что это ожившее в финале панно, видимое за весь фильм в течение почти 20 минут, очень гармонично вписывается в структуру картины).

· Боксерский поединок, который посещают Милтон и Ломакс, на самом деле не отрежиссированная сцена, а матч мирового чемпионата по боксу. Встреча происходила 4 октября 1996 года в Нью-Йорке. На ринге сражались Рой Джонс младший, чемпион в суперсреднем весе по версии IBF, против Брайанта Брэннона. Чемпион одержал победу уже во втором раунде.

· В сцене, когда Ломакс и Милтон идут через рынок, можно заметить человека, несущего коробку сзади них. На коробке написано: «Освещенные ореолом».

· Первоначально фильм должен был снять Джоэл Шумахер. А роль Кевина Ломакса должен был исполнить Брэд Питт.

· Для того чтобы глубже погрузиться в свой персонаж, Шарлиз Терон тратила час в день в течение трех месяцев на посещение психотерапевта. Таким образом, она «практиковала шизофрению».

· Место Киану Ривза могло достаться Эдварду Нортону или Джону Кьюсаку.

· Изначально в фильме планировалось уместить куда больше спецэффектов, сделав его блокбастером. Но от такого проекта Аль Пачино успел отказаться пять раз. После того как Тейлор Хэкфорд при помощи нескольких людей переписал сценарий, он предложил его Пачино снова. Актеру понравилась новая версия сценария, но он подумал, что у него не получится изобразить Милтона достойно и предложил отдать эту роль Роберту Редфорду или Шону Коннери.

· Это был дебют датчанки Конни Нильсен в американском кино.

· Тэйлор Хэкфорд сначала не хотел утверждать на роль Мэри Шарлиз Терон, потому что по его мнению, она была слишком красива для этой роли.

· Песня, играющая во время титров (Rolling Stones — Paint It Black), не вошла в официальный саундтрек.

· Киану Ривз отказался от части гонорара за фильм, чтобы обеспечить участие в нем Аль Пачино.

· Адвокат дьявола (лат. advocatus diaboli) — это неофициальное название должности института канонизации и беатификации в католической церкви. Официально эта должность называлась «укрепитель веры» (лат. promotor fidei). Она была введена в 1587 году папой Сикстом V и официально отменена в 1983 году папой Иоанном Павлом II. Функция адвоката дьявола заключалась в том, чтобы собрать все возможные аргументы, которые могли бы помешать канонизации или беатификации праведника, которая могла состояться только в том случае, если укрепитель веры не находил аргументов достаточной важности, для того чтобы отменить процедуру. До 1983 года ни один акт канонизации или беатификации не мог быть признан законным, если при этом акте не присутствовал адвокат дьявола.

· Когда в конце фильма Ломакс находится в офисе Милтона, он произносит: «Лучше править в аду, чем служить в раю». Фраза взята из эпической поэмы Джона Милтона «Потерянный рай».
Код: выделить все
Общее
Полное имя                               : G:\Рипы\The Devil's Advocate.mkv
Формат                                   : Matroska
Версия формата                           : Version 4 / Version 2
Размер файла                             : 17,1 Гбайт
Продолжительность                        : 2 ч. 23 м.
Общий поток                              : 17,0 Мбит/сек
Дата кодирования                         : UTC 2015-01-06 12:46:17
Программа кодирования                    : mkvmerge v7.4.0 ('Circles') 64bit built on Dec 12 2014 12:19:56
Библиотека кодирования                   : libebml v1.3.0 + libmatroska v1.4.1
_STATISTICS_WRITING_APP                  : mkvmerge v7.4.0 ('Circles') 64bit built on Dec 12 2014 12:19:56
_STATISTICS_WRITING_DATE_UTC             : 2015-01-06 12:46:17
_STATISTICS_TAGS                         : BPS DURATION NUMBER_OF_FRAMES NUMBER_OF_BYTES
DURATION                                 : 00:00:31.698000000
NUMBER_OF_FRAMES                         : 20
NUMBER_OF_BYTES                          : 43599

Видео
Идентификатор                            : 1
Формат                                   : AVC
Формат/Информация                        : Advanced Video Codec
Профиль формата                          : High@L4.1
Параметр CABAC формата                   : Да
Параметр ReFrames формата                : 4 кадра
Идентификатор кодека                     : V_MPEG4/ISO/AVC
Продолжительность                        : 2 ч. 23 м.
Битрейт                                  : 9000 Кбит/сек
Ширина                                   : 1920 пикселей
Высота                                   : 800 пикселей
Соотношение сторон                       : 2,40:1
Режим частоты кадров                     : Постоянный
Частота кадров                           : 23,976 кадра/сек
Цветовое пространство                    : YUV
Субдискретизация насыщенности            : 4:2:0
Битовая глубина                          : 8 бит
Тип развёртки                            : Прогрессивная
Бит/(Пиксели*Кадры)                      : 0.244
Размер потока                            : 8,74 Гбайт (51%)
Заголовок                                : The Devil's Advocate (1997) - Encoded by rwork
Библиотека кодирования                   : x264 core 142 r2431 ac76440
Настройки программы                      : cabac=1 / ref=5 / deblock=1:-1:-1 / analyse=0x3:0x113 / me=umh / subme=10 / psy=1 / psy_rd=1.00:0.00 / mixed_ref=1 / me_range=24 / chroma_me=1 / trellis=2 / 8x8dct=1 / cqm=0 / deadzone=21,11 / fast_pskip=0 / chroma_qp_offset=-2 / threads=6 / lookahead_threads=1 / sliced_threads=0 / nr=0 / decimate=1 / interlaced=0 / bluray_compat=0 / constrained_intra=0 / bframes=11 / b_pyramid=1 / b_adapt=2 / b_bias=0 / direct=3 / weightb=1 / open_gop=0 / weightp=2 / keyint=230 / keyint_min=3 / scenecut=40 / intra_refresh=0 / rc_lookahead=60 / rc=2pass / mbtree=1 / bitrate=9000 / ratetol=1.0 / qcomp=0.60 / qpmin=0 / qpmax=69 / qpstep=4 / cplxblur=20.0 / qblur=0.5 / vbv_maxrate=40000 / vbv_bufsize=30000 / nal_hrd=none / filler=0 / ip_ratio=1.10 / aq=1:1.00
Язык                                     : English
Default                                  : Да
Forced                                   : Нет

Аудио #1
Идентификатор                            : 2
Формат                                   : AC-3
Формат/Информация                        : Audio Coding 3
Расширение режима                        : CM (complete main)
Параметр Endianness формата              : Big
Идентификатор кодека                     : A_AC3
Продолжительность                        : 2 ч. 23 м.
Вид битрейта                             : Постоянный
Битрейт                                  : 384 Кбит/сек
Каналы                                   : 6 каналов
Расположение каналов                     : Front: L C R, Side: L R, LFE
Частота                                  : 48,0 КГц
Битовая глубина                          : 16 бит
Метод сжатия                             : С потерями
Размер потока                            : 395 Мбайт (2%)
Заголовок                                : Дубляж
Язык                                     : Russian
Default                                  : Да
Forced                                   : Нет

Аудио #2
Идентификатор                            : 3
Формат                                   : DTS
Формат/Информация                        : Digital Theater Systems
Режим                                    : 16
Параметр Endianness формата              : Big
Идентификатор кодека                     : A_DTS
Продолжительность                        : 2 ч. 23 м.
Вид битрейта                             : Постоянный
Битрейт                                  : 1509 Кбит/сек
Каналы                                   : 6 каналов
Расположение каналов                     : Front: L C R, Side: L R, LFE
Частота                                  : 48,0 КГц
Битовая глубина                          : 24 бит
Метод сжатия                             : С потерями
Размер потока                            : 1,52 Гбайт (9%)
Заголовок                                : Многоголосый [Телеканал Карусель]
Язык                                     : Russian
Default                                  : Нет
Forced                                   : Нет

Аудио #3
Идентификатор                            : 4
Формат                                   : AC-3
Формат/Информация                        : Audio Coding 3
Расширение режима                        : CM (complete main)
Параметр Endianness формата              : Big
Идентификатор кодека                     : A_AC3
Продолжительность                        : 2 ч. 23 м.
Вид битрейта                             : Постоянный
Битрейт                                  : 192 Кбит/сек
Каналы                                   : 2 канала
Расположение каналов                     : Front: L R
Частота                                  : 48,0 КГц
Битовая глубина                          : 16 бит
Метод сжатия                             : С потерями
Размер потока                            : 198 Мбайт (1%)
Заголовок                                : Многоголосый [Телеканал НТВ]
Язык                                     : Russian
Default                                  : Нет
Forced                                   : Нет

Аудио #4
Идентификатор                            : 5
Формат                                   : AC-3
Формат/Информация                        : Audio Coding 3
Расширение режима                        : CM (complete main)
Параметр Endianness формата              : Big
Идентификатор кодека                     : A_AC3
Продолжительность                        : 2 ч. 23 м.
Вид битрейта                             : Постоянный
Битрейт                                  : 192 Кбит/сек
Каналы                                   : 2 канала
Расположение каналов                     : Front: L R
Частота                                  : 48,0 КГц
Битовая глубина                          : 16 бит
Метод сжатия                             : С потерями
Размер потока                            : 198 Мбайт (1%)
Заголовок                                : Многоголосый [Телеканал Россия]
Язык                                     : Russian
Default                                  : Нет
Forced                                   : Нет

Аудио #5
Идентификатор                            : 6
Формат                                   : AC-3
Формат/Информация                        : Audio Coding 3
Расширение режима                        : CM (complete main)
Параметр Endianness формата              : Big
Идентификатор кодека                     : A_AC3
Продолжительность                        : 2 ч. 23 м.
Вид битрейта                             : Постоянный
Битрейт                                  : 192 Кбит/сек
Каналы                                   : 2 канала
Расположение каналов                     : Front: L R
Частота                                  : 48,0 КГц
Битовая глубина                          : 16 бит
Метод сжатия                             : С потерями
Размер потока                            : 198 Мбайт (1%)
Заголовок                                : Двухголосый [Телеканал ТВ1000]
Язык                                     : Russian
Default                                  : Нет
Forced                                   : Нет

Аудио #6
Идентификатор                            : 7
Формат                                   : DTS
Формат/Информация                        : Digital Theater Systems
Режим                                    : 16
Параметр Endianness формата              : Big
Идентификатор кодека                     : A_DTS
Продолжительность                        : 2 ч. 23 м.
Вид битрейта                             : Постоянный
Битрейт                                  : 1509 Кбит/сек
Каналы                                   : 6 каналов
Расположение каналов                     : Front: L C R, Side: L R, LFE
Частота                                  : 48,0 КГц
Битовая глубина                          : 24 бит
Метод сжатия                             : С потерями
Размер потока                            : 1,52 Гбайт (9%)
Заголовок                                : Одноголосый [Ю.Живов]
Язык                                     : Russian
Default                                  : Нет
Forced                                   : Нет

Аудио #7
Идентификатор                            : 8
Формат                                   : DTS
Формат/Информация                        : Digital Theater Systems
Режим                                    : 16
Параметр Endianness формата              : Big
Идентификатор кодека                     : A_DTS
Продолжительность                        : 2 ч. 23 м.
Вид битрейта                             : Постоянный
Битрейт                                  : 1509 Кбит/сек
Каналы                                   : 6 каналов
Расположение каналов                     : Front: L C R, Side: L R, LFE
Частота                                  : 48,0 КГц
Битовая глубина                          : 24 бит
Метод сжатия                             : С потерями
Размер потока                            : 1,52 Гбайт (9%)
Заголовок                                : Одноголосый [А.Гаврилов]
Язык                                     : Russian
Default                                  : Нет
Forced                                   : Нет

Аудио #8
Идентификатор                            : 9
Формат                                   : AC-3
Формат/Информация                        : Audio Coding 3
Расширение режима                        : CM (complete main)
Параметр Endianness формата              : Big
Идентификатор кодека                     : A_AC3
Продолжительность                        : 2 ч. 23 м.
Вид битрейта                             : Постоянный
Битрейт                                  : 192 Кбит/сек
Каналы                                   : 2 канала
Расположение каналов                     : Front: L R
Частота                                  : 48,0 КГц
Битовая глубина                          : 16 бит
Метод сжатия                             : С потерями
Размер потока                            : 198 Мбайт (1%)
Заголовок                                : Одноголосый [С.Визгунов]
Язык                                     : Russian
Default                                  : Нет
Forced                                   : Нет

Аудио #9
Идентификатор                            : 10
Формат                                   : AC-3
Формат/Информация                        : Audio Coding 3
Расширение режима                        : CM (complete main)
Параметр Endianness формата              : Big
Идентификатор кодека                     : A_AC3
Продолжительность                        : 2 ч. 23 м.
Вид битрейта                             : Постоянный
Битрейт                                  : 384 Кбит/сек
Каналы                                   : 6 каналов
Расположение каналов                     : Front: L C R, Side: L R, LFE
Частота                                  : 48,0 КГц
Битовая глубина                          : 16 бит
Метод сжатия                             : С потерями
Размер потока                            : 395 Мбайт (2%)
Заголовок                                : Одноголосый [В.Завгородний]
Язык                                     : Russian
Default                                  : Нет
Forced                                   : Нет

Аудио #10
Идентификатор                            : 11
Формат                                   : AC-3
Формат/Информация                        : Audio Coding 3
Расширение режима                        : CM (complete main)
Параметр Endianness формата              : Big
Идентификатор кодека                     : A_AC3
Продолжительность                        : 2 ч. 23 м.
Вид битрейта                             : Постоянный
Битрейт                                  : 192 Кбит/сек
Каналы                                   : 2 канала
Расположение каналов                     : Front: L R
Частота                                  : 48,0 КГц
Битовая глубина                          : 16 бит
Метод сжатия                             : С потерями
Размер потока                            : 198 Мбайт (1%)
Заголовок                                : Одноголосый [М.Латышев]
Язык                                     : Russian
Default                                  : Нет
Forced                                   : Нет

Аудио #11
Идентификатор                            : 12
Формат                                   : AC-3
Формат/Информация                        : Audio Coding 3
Расширение режима                        : CM (complete main)
Параметр Endianness формата              : Big
Идентификатор кодека                     : A_AC3
Продолжительность                        : 2 ч. 23 м.
Вид битрейта                             : Постоянный
Битрейт                                  : 192 Кбит/сек
Каналы                                   : 2 канала
Расположение каналов                     : Front: L R
Частота                                  : 48,0 КГц
Битовая глубина                          : 16 бит
Метод сжатия                             : С потерями
Размер потока                            : 198 Мбайт (1%)
Заголовок                                : Многоголосый [Телеканал 1+1]
Язык                                     : Ukrainian
Default                                  : Нет
Forced                                   : Нет

Аудио #12
Идентификатор                            : 13
Формат                                   : DTS
Формат/Информация                        : Digital Theater Systems
Режим                                    : 16
Параметр Endianness формата              : Big
Идентификатор кодека                     : A_DTS
Продолжительность                        : 2 ч. 23 м.
Вид битрейта                             : Постоянный
Битрейт                                  : 1509 Кбит/сек
Каналы                                   : 6 каналов
Расположение каналов                     : Front: L C R, Side: L R, LFE
Частота                                  : 48,0 КГц
Битовая глубина                          : 24 бит
Метод сжатия                             : С потерями
Размер потока                            : 1,52 Гбайт (9%)
Заголовок                                : Оригинал
Язык                                     : English
Default                                  : Нет
Forced                                   : Нет

Текст #1
Идентификатор                            : 14
Формат                                   : PGS
Режим смешивания                         : zlib
Идентификатор кодека                     : S_HDMV/PGS
Идентификатор кодека/Информация          : The same subtitle format used on BDs/HD-DVDs
Язык                                     : English
Default                                  : Нет
Forced                                   : Нет

Текст #2
Идентификатор                            : 15
Формат                                   : PGS
Режим смешивания                         : zlib
Идентификатор кодека                     : S_HDMV/PGS
Идентификатор кодека/Информация          : The same subtitle format used on BDs/HD-DVDs
Язык                                     : Russian
Default                                  : Нет
Forced                                   : Нет

Текст #3
Идентификатор                            : 16
Формат                                   : PGS
Режим смешивания                         : zlib
Идентификатор кодека                     : S_HDMV/PGS
Идентификатор кодека/Информация          : The same subtitle format used on BDs/HD-DVDs
Язык                                     : Russian
Default                                  : Нет
Forced                                   : Нет

Текст #4
Идентификатор                            : 17
Формат                                   : PGS
Режим смешивания                         : zlib
Идентификатор кодека                     : S_HDMV/PGS
Идентификатор кодека/Информация          : The same subtitle format used on BDs/HD-DVDs
Язык                                     : Russian
Default                                  : Нет
Forced                                   : Нет

Меню
00:00:00.000                             : en:Under the Table
00:03:25.205                             : en:Nobody Wins All
00:04:57.505                             : en:Game-Playing
00:09:07.213                             : en:Unrefusable Offer
00:12:06.225                             : en:Babylon-Bound
00:14:58.856                             : en:Jury Selection
00:18:13.592                             : en:Too Good
00:20:52.584                             : en:Roof Negotiation
00:26:20.620                             : en:An Impression
00:30:09.015                             : en:Help from Moyer
00:33:45.481                             : en:Choices
00:36:10.960                             : en:Tongue-Tied
00:38:31.851                             : en:Underestimation
00:41:35.784                             : en:Mary Ann Makeover
00:46:58.857                             : en:View from Free
00:49:17.120                             : en:A New Assignment
00:53:22.657                             : en:Client's Jitters
00:56:24.339                             : en:Sights Don't Fit
00:58:35.970                             : en:Love Triangle
01:03:40.316                             : en:Kevin's Job
01:06:08.589                             : en:Way to Temptation
01:10:25.012                             : en:Housekeeping
01:12:54.286                             : en:What Wife's Up To
01:14:30.674                             : en:Out on the Town
01:17:15.297                             : en:Mary Ann Nightmare
01:19:17.377                             : en:Nonspecific Failure
01:22:14.387                             : en:What Comes First
01:25:59.988                             : en:Spontaneous Hatred
01:28:50.033                             : en:God's Creature
01:33:36.152                             : en:Whiff of Pressure
01:38:52.635                             : en:He Did This to Me
01:43:14.354                             : en:A Familiar Face
01:45:40.959                             : en:Bubbling Truth
01:48:28.376                             : en:Amidst Wolves
01:53:21.252                             : en:Always Been There
01:55:40.350                             : en:Waiting for You
01:56:59.137                             : en:So Many Names
02:01:48.134                             : en:Our Time Now
02:05:55.798                             : en:Freedom on Table
02:09:59.792                             : en:Exercise Free Will
02:12:23.852                             : en:Flame-Broiled
02:13:40.095                             : en:The Right Thing
02:16:36.646                             : en:My Favorite Sin
Скриншоты:


Время раздачи: 7:00 до 23:00
[NNM-Club.me]_The_Devil's_Advocate_1080.torrent
 Торрент: Платиновая раздача  Зарегистрирован
 
Скачать


Примагнититься
 Зарегистрирован:   06 Янв 2015 18:28:04
 Размер:   17.1 GB  (
 Рейтинг:   4.9 (Голосов: 132)
 Поблагодарили:   394
 Проверка:   Оформление проверено модератором 07 Янв 2015 17:53:28
Как cкачать  ·  Как раздать  ·  Правильно оформить  ·  Поднять ратио!  
da771
Uploader 300+
Стаж: 12 лет 6 мес.
Сообщений: 866
Ratio: 1354.437
Раздал: 703.1 TB
100%
ussr.gif
Дайте докачать пожалуйста ?
rworkx ®
Стаж: 9 лет 5 мес.
Сообщений: 95
Ratio: 9.958
Раздал: 4.976 TB
Поблагодарили: 8107
100%
da771, я на раздаче, уже более 30Гб отдано
da771
Uploader 300+
Стаж: 12 лет 6 мес.
Сообщений: 866
Ratio: 1354.437
Раздал: 703.1 TB
100%
ussr.gif
Докачал, спасибо ))
Vikachka
Стаж: 16 лет 4 мес.
Сообщений: 303
Ratio: 13.417
1.87%
1+1 это украинский канал, дорожка украинская должна быть
rworkx ®
Стаж: 9 лет 5 мес.
Сообщений: 95
Ratio: 9.958
Раздал: 4.976 TB
Поблагодарили: 8107
100%
Vikachka, все верно, поправил
Alien Lighto
Uploader 300+
 
Стаж: 11 лет 5 мес.
Сообщений: 315
Ratio: 2707.464
Раздал: 442.4 TB
100%
russia.gif
Vikachka писал(а): Перейти к сообщению
1+1 это украинский канал, дорожка украинская должна быть

украинская, но на русском языке, ибо тогда этот канал ещё являлся СМИ
rworkx ®
Стаж: 9 лет 5 мес.
Сообщений: 95
Ratio: 9.958
Раздал: 4.976 TB
Поблагодарили: 8107
100%
Alien Lighto писал(а): Перейти к сообщению
украинская, но на русском языке, ибо тогда этот канал ещё являлся СМИ

Нет, нет. Дорожка именно на украинском языке, просто я в оформлении ошибся :ангел:
Alien Lighto
Uploader 300+
 
Стаж: 11 лет 5 мес.
Сообщений: 315
Ratio: 2707.464
Раздал: 442.4 TB
100%
russia.gif
а жаль :) было бы веселее
FRANK SADAS
Стаж: 11 лет 6 мес.
Сообщений: 195
Ratio: 0.589
Поблагодарили: 166
100%
ussr.gif
=) Отличное кино! Спасибо, то что нужно для вечернего отдыха на диванчике :ангел:
hppl
Стаж: 10 лет 6 мес.
Сообщений: 533
Ratio: 2.787
Раздал: 1.102 TB
100%
north_korea.gif
а это который в матрице играл
как фильм то? старье поди

_________________
house people
6 сентября 2к17 года бросил курить
Павел1984007
Стаж: 10 лет 2 мес.
Сообщений: 431
Ratio: 0.296
100%
Откуда: SARATOV REGION 64RUS+4GMT
pirates.png
чуткий фильм.

_________________
СВОБОДА ПРИНИМАТЬ СВОИ РЕШЕНИЯ-ЭТО И ЕСТЬ ИСТИННАЯ СВОБОДА!!! Windows 10 Enterprise LTSB 2016 v1607 64-bit/ASUS Socket-AM3+M5A97 R 2.0/AMD FX-6300 3.8GHz Six-Core Processor/Kingston DIMM 8.0 RAM DDR3 1333MHz/NVIDIA Ge Force GTX 660. 2048MB 192bit(GDDR5 2Gb)/WD Blue HDD SATA-3 1Tb 7200rpm
superock
Стаж: 12 лет 1 мес.
Сообщений: 397
Ratio: 3.289
100%
Откуда: Из чёрной дыры
pirates.png
Благодарю! Очень талантливо и профессионально снят фильм. Можно (и нужно) пересматривать много раз, по моему мнению, этот фильм - один из лучших за всю историю современного кинематографа :супер!:

_________________
Сталин стырил сто рублей (СССР)

Sandro1596
Стаж: 12 лет 5 мес.
Сообщений: 60
Ratio: 4.924
100%
russia.gif
Пасибки!
deemoon2009
Стаж: 13 лет 4 мес.
Сообщений: 373
Ratio: 7.13
Поблагодарили: 26
100%
pirates.png
Ух ты!!! Такое не пропущу! Такое качество и куча аудио дорог! СПАСИБО!
P.S. ЭТО ШЕДЕВР!!!

_________________
i7-6700K, ASUS MAXIMUS VIII Ranger, KINGSTON HyperX 32Gb DDR4, Gigabyte RTX 4060 Eagle, SSD 860 EVO 1Tb, Apacer SSD AS350 PANTHER 512GB, WD2003FZEX, WD20EFRX, Hitachi HDS723020BLA642, LEPA B1000M, Maelstrom 240T RED, Thermaltake V9. (Win 10 off)
Показать сообщения:   
Начать новую тему   Ответить на тему    Торрент-трекер NNM-Club -> Зарубежное кино -> Зарубежные Фильмы (HD, FHD) Часовой пояс: GMT + 3
Страница 1 из 1