Классический форум-трекер
canvas not supported
Нас вместе: 4 231 956

Нераскрытые тайны. За что расстреляли создателей "Катюши" (2014) SATRip


 
 
RSS
Начать новую тему   Ответить на тему    Торрент-трекер NNM-Club -> Документалистика и Телепередачи -> Отечественная история
Автор Сообщение
kruglii ®
Стаж: 14 лет 2 мес.
Сообщений: 3194
Ratio: 5654.31
Раздал: 48.73 TB
Поблагодарили: 117499
100%
Откуда: Одесса-МАМА
ussr.gif
Нераскрытые тайны. За что расстреляли создателей "Катюши" (2014) SATRip
Режиссер / Телекомпания: Москва Медиа
Жанр: Документальный

Описание:
В 1937 году руководители Реактивного научного института Георгий Лангемак и Иван Клейменов, без которых бы не существовало легендарной "Катюши", были расстелены. Прошло более полувека прежде, чем их официально признали ее создателями. Долгие годы автором грозного оружия считался только Герой социалистического труда, лауреат Сталинской премии I степени, член-корреспондент Академии наук СССР Андрей Костиков. По странному совпадению возглавивший институт после ареста своих коллег. Подробности запутанной истории - в "Нераскрытых тайнах

Продолжительность: 00:44:03
Качество видео: SATRip

Видео: MPEG4, 720x400 (16:9), 25.000 fps, 1 685 Kbps (0.234 bit/pixel)
Аудио: MP3, 48.0 KHz, 2 ch, 128 Kbps, CBR
Общее
Полное имя : E:\Doc.filmi\Нераскрытые тайны\За что расстреляли создателей Катюши.[nnmclub.to].avi
Формат : AVI
Формат/Информация : Audio Video Interleave
Размер файла : 575 Мбайт
Продолжительность : 44 м.
Общий поток : 1826 Кбит/сек
Библиотека кодирования : Lavf53.24.2

Видео
Идентификатор : 0
Формат : MPEG-4 Visual
Профиль формата : Simple@L1
Параметр BVOP формата : Нет
Параметр QPel формата : Нет
Параметр GMC формата : Без точки перехода
Параметр матрицы формата : Default (H.263)
Идентификатор кодека : FMP4
Продолжительность : 44 м.
Битрейт : 1685 Кбит/сек
Ширина : 720 пикселей
Высота : 400 пикселей
Соотношение сторон : 16:9
Частота кадров : 25,000 кадров/сек
Цветовое пространство : YUV
Субдискретизация насыщенности : 4:2:0
Битовая глубина : 8 бит
Тип развёртки : Прогрессивная
Метод сжатия : С потерями
Бит/(Пиксели*Кадры) : 0.234
Размер потока : 531 Мбайт (92%)
Библиотека кодирования : Lavc53.42.4

Аудио
Идентификатор : 1
Формат : MPEG Audio
Версия формата : Version 1
Профиль формата : Layer 3
Режим : Joint stereo
Расширение режима : MS Stereo
Идентификатор кодека : 55
Идентификатор кодека/Подсказка : MP3
Продолжительность : 44 м.
Вид битрейта : Постоянный
Битрейт : 128 Кбит/сек
Каналы : 2 канала
Частота : 48,0 КГц
Метод сжатия : С потерями
Размер потока : 40,3 Мбайт (7%)
Выравнивание : Соединение по промежуткам
Продолжительность промежутка : 24 мс. (0,60 видеокадр)
Библиотека кодирования : LAME3.98.4
Скриншоты:


Время раздачи: с 08:00 до 22:30

Нераскрытые тайны. на nnmclub.to
Za chto rasstrelyali sozdateley Katyushi.[nnm-club.me].avi.torrent
 Торрент: Платиновая раздача  Зарегистрирован
 
Скачать


Примагнититься
 Зарегистрирован:   16 Янв 2015 08:33:46
 Размер:   575 MB  (
 Рейтинг:   4.1 (Голосов: 35)
 Поблагодарили:   136
 Проверка:   Оформление проверено модератором 16 Янв 2015 20:50:49
Как cкачать  ·  Как раздать  ·  Правильно оформить  ·  Поднять ратио!  
Показать сообщения:   
Начать новую тему   Ответить на тему    Торрент-трекер NNM-Club -> Документалистика и Телепередачи -> Отечественная история Часовой пояс: GMT + 3
Страница 1 из 1