Классический форум-трекер
canvas not supported
Нас вместе: 4 231 962

Нераскрытые тайны. Куда пропали домашние насекомые (2014) SATRip


 
 
RSS
Начать новую тему   Ответить на тему    Торрент-трекер NNM-Club -> Документалистика и Телепередачи -> Отечественная история
Автор Сообщение
kruglii ®
Стаж: 14 лет 2 мес.
Сообщений: 3194
Ratio: 5654.31
Раздал: 48.73 TB
Поблагодарили: 117499
100%
Откуда: Одесса-МАМА
ussr.gif
Нераскрытые тайны. Куда пропали домашние насекомые (2014) SATRip
Режиссер / Телекомпания: Москва Медиа
Жанр: Документальный

Описание:
Вот уже несколько лет многие россияне испытывают легкое чувство беспокойства, когда, включая ночью свет на кухне, не видят разбегающихся по углам прусаков. Их не стало. Вроде бы радоваться надо: исчезли, наконец, разносчики заразы. Но сомнение гложет: что-то тут не так. Не могут насекомые, пережившие самих динозавров, просто так исчезнуть в начале ХХI века — времени теплом, комфортном, сытом. Поэтому сегодня и стали закрадываться пугающие мысли: может, тараканы предчувствуют какую-то надвигающуюся катастрофу и потому покидают дома человека так же, как крысы, бегущие с тонущего корабля? Подробности - в "Нераскрытых тайнах".

Продолжительность: 00:44:16
Качество видео: SATRip

Видео: MPEG4, 720x398 (16:9), 25.000 fps, 1 418 Kbps (0.198 bit/pixel)
Аудио: MP3, 48.0 KHz, 2 ch, 128 Kbps, CBR
Общее
Полное имя : E:\Doc.filmi\Нераскрытые тайны\Куда пропали домашние насекомые.[nnmclub.to].avi
Формат : AVI
Формат/Информация : Audio Video Interleave
Размер файла : 494 Мбайт
Продолжительность : 44 м.
Общий поток : 1558 Кбит/сек
Библиотека кодирования : Lavf53.24.2

Видео
Идентификатор : 0
Формат : MPEG-4 Visual
Профиль формата : Simple@L1
Параметр BVOP формата : Нет
Параметр QPel формата : Нет
Параметр GMC формата : Без точки перехода
Параметр матрицы формата : Default (H.263)
Идентификатор кодека : FMP4
Продолжительность : 44 м.
Битрейт : 1418 Кбит/сек
Ширина : 720 пикселей
Высота : 398 пикселей
Соотношение сторон : 16:9
Частота кадров : 25,000 кадров/сек
Цветовое пространство : YUV
Субдискретизация насыщенности : 4:2:0
Битовая глубина : 8 бит
Тип развёртки : Прогрессивная
Метод сжатия : С потерями
Бит/(Пиксели*Кадры) : 0.198
Размер потока : 449 Мбайт (91%)
Библиотека кодирования : Lavc53.42.4

Аудио
Идентификатор : 1
Формат : MPEG Audio
Версия формата : Version 1
Профиль формата : Layer 3
Режим : Joint stereo
Расширение режима : MS Stereo
Идентификатор кодека : 55
Идентификатор кодека/Подсказка : MP3
Продолжительность : 44 м.
Вид битрейта : Постоянный
Битрейт : 128 Кбит/сек
Каналы : 2 канала
Частота : 48,0 КГц
Метод сжатия : С потерями
Размер потока : 40,5 Мбайт (8%)
Выравнивание : Соединение по промежуткам
Продолжительность промежутка : 24 мс. (0,60 видеокадр)
Библиотека кодирования : LAME3.98.4
Скриншоты:


Время раздачи: с 08:00 до 22:30

Нераскрытые тайны. на nnmclub.to
Kuda propali domashnie nasekomyie.[nnm-club.me].avi.torrent
 Торрент: Платиновая раздача  Зарегистрирован
 
Скачать


Примагнититься
 Зарегистрирован:   16 Янв 2015 09:01:27
 Размер:   494 MB  (
 Рейтинг:   4.6 (Голосов: 47)
 Поблагодарили:   208
 Проверка:   Оформление проверено модератором 16 Янв 2015 20:51:56
Как cкачать  ·  Как раздать  ·  Правильно оформить  ·  Поднять ратио!  
satellite-1
Стаж: 13 лет 3 мес.
Сообщений: 37
Ratio: 9.668
100%
russia.gif
ничего подобного прусаки никуда не исчезли, есть еще полно домов , где они присутствуют.
tramp55
Стаж: 14 лет 2 мес.
Сообщений: 1311
Ratio: 5.317
100%
Откуда: Из Ленинграда
ussr.gif
Если в доме поселились, таджики, узбеки, киргизы.... короче чурки, тараканов будет млн. Но это все мелочи. Хорошие, фирменные ловушки, установленные в одной квартире, избавят от тараканов весь дом. Гораздо страшнее клопы от тех же авторов, вот их изничтожить действительно сложно.
cerbernarus
Стаж: 10 лет 1 мес.
Сообщений: 148
Ratio: 7.65
100%
Большинство прусаков стало жертвами своих американских сородичей, отличающихся бОльшим размером и прожорливостью. От них избавиться так же тяжело, как и от прусаков, которые не вымерли, а изменили ареал своего обитания, спасаясь от западной "чумы". Людям тоже стоило бы задуматься о тлетворном влиянии Запада...)((
Roman_86
Стаж: 9 лет 10 мес.
Сообщений: 469
Ratio: 8.971
Раздал: 441 GB
Поблагодарили: 8
100%
krevedko.png
cerbernarus писал(а): Перейти к сообщению
Большинство прусаков стало жертвами своих американских сородичей, отличающихся бОльшим размером и прожорливостью. От них избавиться так же тяжело, как и от прусаков, которые не вымерли, а изменили ареал своего обитания, спасаясь от западной "чумы". Людям тоже стоило бы задуматься о тлетворном влиянии Запада...)((


оффтоп Фигею в последнее время от документальных фильмов. Проще включить РЕН-ТВ - там подобная ерундень круглосуточно. Оценка - 1.
Впрочем, почему автору раздачи сильно понравился этот фильм, что он даже его зарелизить решил, я понял.

_________________
Такой то
Стаж: 9 лет 7 мес.
Сообщений: 227
Ratio: 4437.539
100%
Roman_86
иди вилы поточи

_________________
ZX Spectrum (48)
Показать сообщения:   
Начать новую тему   Ответить на тему    Торрент-трекер NNM-Club -> Документалистика и Телепередачи -> Отечественная история Часовой пояс: GMT + 3
Страница 1 из 1