Классический форум-трекер
canvas not supported
Нас вместе: 4 231 962

Нераскрытые тайны. Целительница Джуна (2014) SATRip


 
 
RSS
Начать новую тему   Ответить на тему    Торрент-трекер NNM-Club -> Документалистика и Телепередачи -> Отечественная история
Автор Сообщение
kruglii ®
Стаж: 14 лет 2 мес.
Сообщений: 3194
Ratio: 5654.31
Раздал: 48.73 TB
Поблагодарили: 117499
100%
Откуда: Одесса-МАМА
ussr.gif
Нераскрытые тайны. Целительница Джуна (2014) SATRip
Режиссер / Телекомпания: Москва Медиа
Жанр: Документальный

Описание:
О ее способностях ходят легенды. Она вылечивает смертельные болезни прикосновением рук и рисует исцеляющие картины. Если она злится, в помещениях вырубается свет и ломается техника. Кто-то считает ее богиней, кто-то инопланетянкой. Сама себя она называет просто - Джуна. Долгое время Джуна не может обрести покой и радость после смерти единственного любимого человека в жизни - сына Вахо. За что судьба наказала ту, которая избавила сотни тысяч человек от недугов и до сих пор помогает людям? Неужели дар оказался проклятием?

Продолжительность: 00:44:00
Качество видео: SATRip

Видео: MPEG4, 720x394 (16:9), 25.000 fps, 1 816 Kbps (0.256 bit/pixel)
Аудио: MP3, 48.0 KHz, 2 ch, 128 Kbps, CBR
Общее
Полное имя : E:\Doc.filmi\Нераскрытые тайны\Целительница Джуна.[nnmclub.to].avi
Формат : AVI
Формат/Информация : Audio Video Interleave
Размер файла : 616 Мбайт
Продолжительность : 44 м.
Общий поток : 1957 Кбит/сек
Библиотека кодирования : Lavf53.24.2

Видео
Идентификатор : 0
Формат : MPEG-4 Visual
Профиль формата : Simple@L1
Параметр BVOP формата : Нет
Параметр QPel формата : Нет
Параметр GMC формата : Без точки перехода
Параметр матрицы формата : Default (H.263)
Идентификатор кодека : FMP4
Продолжительность : 44 м.
Битрейт : 1816 Кбит/сек
Ширина : 720 пикселей
Высота : 394 пикселя
Соотношение сторон : 1,85:1
Частота кадров : 25,000 кадров/сек
Цветовое пространство : YUV
Субдискретизация насыщенности : 4:2:0
Битовая глубина : 8 бит
Тип развёртки : Прогрессивная
Метод сжатия : С потерями
Бит/(Пиксели*Кадры) : 0.256
Размер потока : 571 Мбайт (93%)
Библиотека кодирования : Lavc53.42.4

Аудио
Идентификатор : 1
Формат : MPEG Audio
Версия формата : Version 1
Профиль формата : Layer 3
Режим : Joint stereo
Расширение режима : MS Stereo
Идентификатор кодека : 55
Идентификатор кодека/Подсказка : MP3
Продолжительность : 44 м.
Вид битрейта : Постоянный
Битрейт : 128 Кбит/сек
Каналы : 2 канала
Частота : 48,0 КГц
Метод сжатия : С потерями
Размер потока : 40,3 Мбайт (7%)
Выравнивание : Соединение по промежуткам
Продолжительность промежутка : 24 мс. (0,60 видеокадр)
Библиотека кодирования : LAME3.98.4
Скриншоты:


Время раздачи: с 08:00 до 22:30

Нераскрытые тайны. на nnmclub.to
TSelitel'nitsa Dzhuna.[nnm-club.me].avi.torrent
 Торрент: Платиновая раздача  Зарегистрирован
 
Скачать


Примагнититься
 Зарегистрирован:   16 Янв 2015 09:08:43
 Размер:   616 MB  (
 Рейтинг:   4 (Голосов: 29)
 Поблагодарили:   94
 Проверка:   Оформление проверено модератором 16 Янв 2015 20:52:03
Как cкачать  ·  Как раздать  ·  Правильно оформить  ·  Поднять ратио!  
mab09
Стаж: 13 лет 1 мес.
Сообщений: 58
Ratio: 25.104
Раздал: 3.074 TB
Поблагодарили: 22
100%
Откуда: Башкирия
russia.gif
Неужели дар оказался проклятием?
Это тот случай, когда нельзя работать (раскрыться) на 100%, для экстрасексов, что они сами и подтверждают...
www1414
Стаж: 12 лет 11 мес.
Сообщений: 625
Ratio: 51.161
100%
russia.gif
mab09 писал(а): Перейти к сообщению
Неужели дар оказался проклятием?
Это тот случай, когда нельзя работать (раскрыться) на 100%, для экстрасексов, что они сами и подтверждают...


ее просто задолбали, это руководство сами знаите с ума сведут,так акучут что и знать не будешь откуда ветер дует,лишь бы по их было, и для них
Показать сообщения:   
Начать новую тему   Ответить на тему    Торрент-трекер NNM-Club -> Документалистика и Телепередачи -> Отечественная история Часовой пояс: GMT + 3
Страница 1 из 1