Классический форум-трекер
canvas not supported
Нас вместе: 4 231 956

Нераскрытые тайны. Божедомка (2014) SATRip


 
 
RSS
Начать новую тему   Ответить на тему    Торрент-трекер NNM-Club -> Документалистика и Телепередачи -> Отечественная история
Автор Сообщение
kruglii ®
Стаж: 14 лет 2 мес.
Сообщений: 3194
Ratio: 5654.31
Раздал: 48.73 TB
Поблагодарили: 117499
100%
Откуда: Одесса-МАМА
ussr.gif
Нераскрытые тайны. Божедомка (2014) SATRip
Режиссер / Телекомпания: Москва Медиа
Жанр: Документальный

Описание:
Названия Божедомка давно уже нет на карте Москвы. Улицы и переулки теперь носят имена Достоевского, Образцова, Дурова - людей, которые составили славу района, простирающегося от Самотечной площади до Марьиной рощи. Впрочем, в этих местах, где еще столетие назад с легкостью уживались блеск и нищета, обитали самые разные персонажи, в том числе и Яшка Кошельков - знаменитый московский налетчик. Вор и бандит, который чуть было не изменил ход мировой истории. В 1919 году он, сам того не подозревая, ограбил, угрожая пистолетом, Владимира Ильича Ленина. Какие еще тайны хранит этот удивительный район столицы?

Качество видео: SATRip
Продолжительность: 00:44:08

Видео: MPEG4, 658x370 (16:9), 25.000 fps, 1 594 Kbps (0.262 bit/pixel)
Аудио: MP3, 48.0 KHz, 2 ch, 128 Kbps, CBR
Общее
Полное имя : E:\Doc.filmi\Нераскрытые тайны\Божедомка.[nnmclub.to].avi
Формат : AVI
Формат/Информация : Audio Video Interleave
Размер файла : 548 Мбайт
Продолжительность : 44 м.
Общий поток : 1735 Кбит/сек
Библиотека кодирования : Lavf53.24.2

Видео
Идентификатор : 0
Формат : MPEG-4 Visual
Профиль формата : Simple@L1
Параметр BVOP формата : Нет
Параметр QPel формата : Нет
Параметр GMC формата : Без точки перехода
Параметр матрицы формата : Default (H.263)
Идентификатор кодека : FMP4
Продолжительность : 44 м.
Битрейт : 1594 Кбит/сек
Ширина : 658 пикселей
Высота : 370 пикселей
Соотношение сторон : 16:9
Частота кадров : 25,000 кадров/сек
Цветовое пространство : YUV
Субдискретизация насыщенности : 4:2:0
Битовая глубина : 8 бит
Тип развёртки : Прогрессивная
Метод сжатия : С потерями
Бит/(Пиксели*Кадры) : 0.262
Размер потока : 503 Мбайт (92%)
Библиотека кодирования : Lavc53.42.4

Аудио
Идентификатор : 1
Формат : MPEG Audio
Версия формата : Version 1
Профиль формата : Layer 3
Режим : Joint stereo
Расширение режима : MS Stereo
Идентификатор кодека : 55
Идентификатор кодека/Подсказка : MP3
Продолжительность : 44 м.
Вид битрейта : Постоянный
Битрейт : 128 Кбит/сек
Каналы : 2 канала
Частота : 48,0 КГц
Метод сжатия : С потерями
Размер потока : 40,4 Мбайт (7%)
Выравнивание : Соединение по промежуткам
Продолжительность промежутка : 24 мс. (0,60 видеокадр)
Библиотека кодирования : LAME3.98.4
Скриншоты:


Время раздачи: с 08:00 до 22:30

Нераскрытые тайны. на nnmclub.to
Bozhedomka.[nnm-club.me].avi.torrent
 Торрент: Платиновая раздача  Зарегистрирован
 
Скачать


Примагнититься
 Зарегистрирован:   17 Янв 2015 16:37:44
 Размер:   548 MB  (
 Рейтинг:   4.4 (Голосов: 19)
 Поблагодарили:   73
 Проверка:   Оформление проверено модератором 18 Янв 2015 12:18:48
Как cкачать  ·  Как раздать  ·  Правильно оформить  ·  Поднять ратио!  
Показать сообщения:   
Начать новую тему   Ответить на тему    Торрент-трекер NNM-Club -> Документалистика и Телепередачи -> Отечественная история Часовой пояс: GMT + 3
Страница 1 из 1