Классический форум-трекер
canvas not supported
Нас вместе: 4 231 956

Нераскрытые тайны. Сталинские высотки (2014) SATRip


 
 
RSS
Начать новую тему   Ответить на тему    Торрент-трекер NNM-Club -> Документалистика и Телепередачи -> Отечественная история
Автор Сообщение
kruglii ®
Стаж: 14 лет 2 мес.
Сообщений: 3194
Ratio: 5654.31
Раздал: 48.73 TB
Поблагодарили: 117499
100%
Откуда: Одесса-МАМА
ussr.gif
Нераскрытые тайны. Сталинские высотки (2014) SATRip
Режиссер / Телекомпания: Москва Медиа
Жанр: Документальный

Описание:
7 сентября 1947 года ровно в 13.00 в разных районах столицы были торжественно заложены 8 камней. Именно в этих местах должны были появиться высотные здания, призванные навсегда изменить облик столицы. Точки строительства не обсуждались - Сталин просто указал их на карте и впоследствии требовал неукоснительного выполнения своего распоряжения. Сегодня семь сталинских высоток стали вполне привычными доминантами архитектурного ландшафта Москвы. Но споры о том, почему для их строительства были избраны именно эти места, и что символизирует форма этих советских небоскребов, не утихают и по сей день. Версии выдвигаются самые разные. Кто-то сравнивает эти строения с пирамидами, кто-то - с зиккуратами, культовыми сооружениями древних шумеров. Писатель Андрей Синельников предложил еще более радикальную теорию и объяснил, что случилось бы, если бы рядом с Кремлем, как и планировалось, взмыла в небеса восьмая высотка, строительство которой в свое время не было завершено.

Качество видео: SATRip
Продолжительность: 00:44:08

Видео: MPEG4, 720x384 (1.875), 25.000 fps, 1 785 Kbps (0.258 bit/pixel)
Аудио: MP3, 48.0 KHz, 2 ch, 128 Kbps, CBR
Общее
Полное имя : E:\Doc.filmi\Нераскрытые тайны\Сталинские высотки.[nnmclub.to].avi
Формат : AVI
Формат/Информация : Audio Video Interleave
Размер файла : 608 Мбайт
Продолжительность : 44 м.
Общий поток : 1925 Кбит/сек
Библиотека кодирования : Lavf53.24.2

Видео
Идентификатор : 0
Формат : MPEG-4 Visual
Профиль формата : Simple@L1
Параметр BVOP формата : Нет
Параметр QPel формата : Нет
Параметр GMC формата : Без точки перехода
Параметр матрицы формата : Default (H.263)
Идентификатор кодека : FMP4
Продолжительность : 44 м.
Битрейт : 1785 Кбит/сек
Ширина : 720 пикселей
Высота : 384 пикселя
Соотношение сторон : 1,85:1
Частота кадров : 25,000 кадров/сек
Цветовое пространство : YUV
Субдискретизация насыщенности : 4:2:0
Битовая глубина : 8 бит
Тип развёртки : Прогрессивная
Метод сжатия : С потерями
Бит/(Пиксели*Кадры) : 0.258
Размер потока : 563 Мбайт (93%)
Библиотека кодирования : Lavc53.42.4

Аудио
Идентификатор : 1
Формат : MPEG Audio
Версия формата : Version 1
Профиль формата : Layer 3
Режим : Joint stereo
Расширение режима : MS Stereo
Идентификатор кодека : 55
Идентификатор кодека/Подсказка : MP3
Продолжительность : 44 м.
Вид битрейта : Постоянный
Битрейт : 128 Кбит/сек
Каналы : 2 канала
Частота : 48,0 КГц
Метод сжатия : С потерями
Размер потока : 40,4 Мбайт (7%)
Выравнивание : Соединение по промежуткам
Продолжительность промежутка : 24 мс. (0,60 видеокадр)
Библиотека кодирования : LAME3.98.4
Скриншоты:


Время раздачи: с 08:00 до 22:30

Нераскрытые тайны. на nnmclub.to
Stalinskie vyisotki.[nnm-club.me].avi.torrent
 Торрент: Платиновая раздача  Зарегистрирован
 
Скачать


Примагнититься
 Зарегистрирован:   17 Янв 2015 18:03:30
 Размер:   608 MB  (
 Рейтинг:   4.4 (Голосов: 31)
 Поблагодарили:   130
 Проверка:   Оформление проверено модератором 18 Янв 2015 12:19:10
Как cкачать  ·  Как раздать  ·  Правильно оформить  ·  Поднять ратио!  
JaneRoe
Стаж: 13 лет 5 мес.
Сообщений: 9
Ratio: 6.717
0.76%
Не рен-тв?
Показать сообщения:   
Начать новую тему   Ответить на тему    Торрент-трекер NNM-Club -> Документалистика и Телепередачи -> Отечественная история Часовой пояс: GMT + 3
Страница 1 из 1