Классический форум-трекер
canvas not supported
Нас вместе: 4 231 956

Нераскрытые тайны. Кто такие гении (2014) SATRip


 
 
RSS
Начать новую тему   Ответить на тему    Торрент-трекер NNM-Club -> Документалистика и Телепередачи -> Отечественная история
Автор Сообщение
kruglii ®
Стаж: 14 лет 2 мес.
Сообщений: 3194
Ratio: 5654.31
Раздал: 48.73 TB
Поблагодарили: 117499
100%
Откуда: Одесса-МАМА
ussr.gif
Нераскрытые тайны. Кто такие гении (2014) SATRip
Режиссер / Телекомпания: Москва Медиа
Жанр: Документальный

Описание:
Гениями рождаются - так считают многие генетики, просто не все одаренные люди реализуют свои таланты и способности. Может ли у совершенно заурядных родителей появиться гениальный ребенок, или яблоко всегда падет недалеко от яблони? И кто такие гении - избранные или проклятые? Об этом смотрите в программе "Нераскрытые тайны"

Качество видео: SATRip
Продолжительность: 00:44:00

Видео: MPEG4, 658x480 (1.371), 25.000 fps, 1 363 Kbps (0.173 bit/pixel)
Аудио: MP3, 48.0 KHz, 2 ch, 128 Kbps, CBR
Общее
Полное имя : E:\Doc.filmi\Нераскрытые тайны\Кто такие гении.[nnmclub.to].avi
Формат : AVI
Формат/Информация : Audio Video Interleave
Размер файла : 473 Мбайт
Продолжительность : 44 м.
Общий поток : 1504 Кбит/сек
Программа кодирования : Lavf52.84.0

Видео
Идентификатор : 0
Формат : MPEG-4 Visual
Профиль формата : Simple@L1
Параметр BVOP формата : Нет
Параметр QPel формата : Нет
Параметр GMC формата : Без точки перехода
Параметр матрицы формата : Default (H.263)
Идентификатор кодека : FMP4
Продолжительность : 44 м.
Битрейт : 1363 Кбит/сек
Ширина : 658 пикселей
Высота : 480 пикселей
Соотношение сторон : 1,371
Частота кадров : 25,000 кадров/сек
Цветовое пространство : YUV
Субдискретизация насыщенности : 4:2:0
Битовая глубина : 8 бит
Тип развёртки : Прогрессивная
Метод сжатия : С потерями
Бит/(Пиксели*Кадры) : 0.173
Размер потока : 429 Мбайт (91%)
Библиотека кодирования : Lavc52.97.0

Аудио
Идентификатор : 1
Формат : MPEG Audio
Версия формата : Version 1
Профиль формата : Layer 3
Режим : Joint stereo
Расширение режима : MS Stereo
Идентификатор кодека : 55
Идентификатор кодека/Подсказка : MP3
Продолжительность : 43 м.
Вид битрейта : Постоянный
Битрейт : 128 Кбит/сек
Каналы : 2 канала
Частота : 48,0 КГц
Метод сжатия : С потерями
Размер потока : 40,3 Мбайт (9%)
Выравнивание : Соединение по промежуткам
Продолжительность промежутка : 24 мс. (0,60 видеокадр)
Библиотека кодирования : LAME3.98.4
Скриншоты:


Время раздачи: с 08:00 до 22:30

Нераскрытые тайны. на nnmclub.to
Kto takie genii.[nnm-club.me].avi.torrent
 Торрент:   Зарегистрирован
 
Зарегистрируйтесь и скачайте торрент!
19 KB

Примагнититься
 Зарегистрирован:   23 Янв 2015 17:45:43
 Размер:   473 MB  (
 Рейтинг:   4.6 (Голосов: 20)
 Поблагодарили:   73
 Проверка:   Оформление проверено модератором 23 Янв 2015 22:13:14
Как cкачать  ·  Как раздать  ·  Правильно оформить  ·  Поднять ратио!  
Показать сообщения:   
Начать новую тему   Ответить на тему    Торрент-трекер NNM-Club -> Документалистика и Телепередачи -> Отечественная история Часовой пояс: GMT + 3
Страница 1 из 1