Классический форум-трекер
canvas not supported
Нас вместе: 4 172 753

Улицы разбитых фонарей-14 (2015) SATRip (сезон 14, серия 1-36 из 36)


 
 
RSS
Начать новую тему   Ответить на тему    Торрент-трекер NNM-Club -> Отечественные сериалы -> Менты
Автор Сообщение
aleksan66 ®
Uploader 100+
Стаж: 10 лет 5 мес.
Сообщений: 3407
Ratio: 2091.908
Поблагодарили: 227121
100%
russia.gif
Улицы разбитых фонарей-14 (2015) SATRip (сезон 14, серия 1-36 из 36)
Производство: Производство ООО «Прогресс-Студия»,«Форвард-Фильм»
Жанр: детектив, криминал

Режиссер: Виктор Шкуратов, Павел Мальков
Актеры: Александр Половцев (Олег Соловец), Михаил Трухин (Вячеслав Волков), Олег Андреев (Андрей Рыданов), Борис Чердынцев (Борис Чердынцев), Михаил Лучко (Игорь Крымов), Оскар Кучера (Порохня), Борис Клюев (Мерзлякин), Андрей Зибров (Градовиков), Елена Купрашевич (Потапенко) и другие.

Описание фильма:
Стандартный метод кнута и пряника, к которому привык Градовиков (Андрей Зибров), не работает с этой честной и прямолинейной командой под предводительством Соловца (Александр Половцев). Новому руководителю приходится проявлять должное уважение к операм и он вынужден соглашаться с их решениями, поскольку сплоченной команде успешно удается бороться с преступностью. Будни отдела все также наполнены суетой, каждодневными допросами, выездами, осведомителями, документальной отчетностью. Все это составляет жизнь межрайонного отдела полиции, без которой наши опера – Волков (Михаил Трухин), Рыданов (Олег Андреев), Крымов (Михаил Лучко), Порохня (Оскар Кучера) - уже себя не представляют.
Но не бывает худа без добра – в отделе появляется новая сотрудница - старший лейтенант полиции Маргарита Потапенко (Елена Купрашевич). Опера с радостью встретят девушку, которая когда-то помогла им с раскрытием непростого дела. Яркая, решительная, самобытная южанка Маргарита имеет свой опыт в работе с преступниками, и станет для отдела не только ценным сотрудником, но и по-настоящему верным товарищем.


Дата российской премьеры: 26 января на канале НТВ

Продолжительность: ~00:45:00 серия
Качество видео: SATRip
СЭМПЛ

Видеокодек: Xvid
Битрейт видео: ~1650 Кбит/сек
Размер кадра: 720х400 (16:9)
Аудиокодек: AC3
Битрейт аудио: 192 Кбит/сек,2 ch
Код: выделить все

Общее
Полное имя                               : E:\Улицы разбитых фонарей\01 серия.avi
Формат                                   : AVI
Формат/Информация                        : Audio Video Interleave
Размер файла                             : 614 Мбайт
Продолжительность                        : 46 м.
Общий поток                              : 1852 Кбит/сек
Программа кодирования                    : VirtualDubMod 1.5.10.3 | www.virtualdub-fr.org || (build 2550/release)
Библиотека кодирования                   : VirtualDubMod build 2550/release

Видео
Идентификатор                            : 0
Формат                                   : MPEG-4 Visual
Профиль формата                          : Advanced Simple@L5
Параметр BVOP формата                    : 2
Параметр QPel формата                    : Нет
Параметр GMC формата                     : Без точки перехода
Параметр матрицы формата                 : Выборочная
Идентификатор кодека                     : XVID
Идентификатор кодека/Подсказка           : XviD
Продолжительность                        : 46 м.
Битрейт                                  : 1650 Кбит/сек
Ширина                                   : 720 пикселей
Высота                                   : 400 пикселей
Соотношение сторон                       : 16:9
Частота кадров                           : 25,000 кадров/сек
Цветовое пространство                    : YUV
Субдискретизация насыщенности            : 4:2:0
Битовая глубина                          : 8 бит
Тип развёртки                            : Прогрессивная
Метод сжатия                             : С потерями
Бит/(Пиксели*Кадры)                      : 0.229
Размер потока                            : 547 Мбайт (89%)
Библиотека кодирования                   : XviD 73

Аудио
Идентификатор                            : 1
Формат                                   : AC-3
Формат/Информация                        : Audio Coding 3
Расширение режима                        : CM (complete main)
Параметр Endianness формата              : Big
Идентификатор кодека                     : 2000
Продолжительность                        : 46 м.
Вид битрейта                             : Постоянный
Битрейт                                  : 192 Кбит/сек
Каналы                                   : 2 канала
Расположение каналов                     : Front: L R
Частота                                  : 48,0 КГц
Битовая глубина                          : 16 бит
Метод сжатия                             : С потерями
Размер потока                            : 63,6 Мбайт (10%)
Выравнивание                             : Разделение по промежуткам
Продолжительность промежутка             : 40  мс. (1,00 видеокадр)
Время предзагрузки промежутка            : 500  мс.
Скриншоты:


Все раздачи сериала «Улицы разбитых фонарей» на NNM-Club

Время раздачи: По возможности
[NNM-Club.me]_Ulitsyi razbityih fonarey.torrent
 Торрент: Платиновая раздача  Зарегистрирован
 
Скачать


Примагнититься
 Зарегистрирован:   12 Фев 2015 18:48:15
 Размер:   21.4 GB  (
 Рейтинг:   4 (Голосов: 118)
 Поблагодарили:   359
 Проверка:   Оформление проверено модератором 12 Фев 2015 20:41:02
Как cкачать  ·  Как раздать  ·  Правильно оформить  ·  Поднять ратио!  
IDVsbruck
Стаж: 12 лет
Сообщений: 45
Ratio: 4.447
100%
ukraine.gif
Ох ты ж ёпта! - 2015-ый год! Они еще живы? И еще снимаются? Я думал, уже лет 10 их нет.
Н-да, весьма заезженная пластинка ... по-прежнему с преступностью борятся?
Maximiljano
Стаж: 11 лет
Сообщений: 46
Ratio: 22.889
Раздал: 24.03 TB
100%
ussr.gif
WEB-DL 720p ждать? Спасибо.
aleksan66 ®
Uploader 100+
Стаж: 10 лет 5 мес.
Сообщений: 3407
Ratio: 2091.908
Поблагодарили: 227121
100%
russia.gif
Maximiljano писал(а): Перейти к сообщению
WEB-DL 720p ждать? Спасибо.


Если появиться,но не от меня.
dedmoroz59
Стаж: 10 лет 3 мес.
Сообщений: 726
Ratio: 6.786
Поблагодарили: 1358
100%
russia.gif
давно сдулся сериал
Пухлый62
Стаж: 9 лет 9 мес.
Сообщений: 31
Ratio: 49.493
100%
Откуда: ryazan
russia.gif
нормальный сериал, про обычных ментов, а не крутых шерифов-рембо, которым никто не указ

и этот сезон не хуже 2-3 последних конечно от первых "улиц", когда плакались про зарплату и скидывались на бутылку практически ничего нет, но и в реальной жизни зарплата полицейских уже совсем неплохая
zhurilov
Стаж: 9 лет 2 мес.
Сообщений: 4
Ratio: 56.865
100%
Откуда: Нижний Новгород
russia.gif
Ну что же Вы уважаемый, если уж начали делать раздачу, так не останавливайтесь! Люди ждут!
zhurilov
Стаж: 9 лет 2 мес.
Сообщений: 4
Ratio: 56.865
100%
Откуда: Нижний Новгород
russia.gif
Благодарю Вас, Вы очень любезны!
cannabis_uk
Стаж: 10 лет 6 мес.
Сообщений: 68
Ratio: 6.03
100%
Откуда: Брянка-Сити
ussr.gif
спасибо!
aleksan66 ®
Uploader 100+
Стаж: 10 лет 5 мес.
Сообщений: 3407
Ratio: 2091.908
Поблагодарили: 227121
100%
russia.gif
Добавлена 33-36 серия.Сезон закончен,всем спасибо.
DenverWolff
 
Стаж: 10 лет 4 мес.
Сообщений: 40
Ratio: 53.271
100%
russia.gif
Вас спасибо за работу! Друзья

_________________
Если вы долго всматриваетесь в бездну,
бездна начинает всматриваться в вас.
©Фридрих Ницше.
Koshmarov
Uploader 300+

Online
Стаж: 8 лет 7 мес.
Сообщений: 303
Ratio: 590.768
Раздал: 487.9 TB
100%
Фонари же вроде починили?
Показать сообщения:   
Начать новую тему   Ответить на тему    Торрент-трекер NNM-Club -> Отечественные сериалы -> Менты Часовой пояс: GMT + 3
Страница 1 из 1