Классический форум-трекер
canvas not supported
Нас вместе: 4 233 722

Донни Браско / Donnie Brasco (1997) BDRip [1080p] [Extended Cut]


 
 
RSS
Начать новую тему   Ответить на тему    Торрент-трекер NNM-Club -> Зарубежное кино -> Зарубежные Фильмы (HD, FHD)
Автор Сообщение
FILVOVAN ®
Релизер. Uploader 200+
 
Стаж: 16 лет 10 мес.
Сообщений: 4409
Ratio: 715.772
Раздал: 255.4 TB
Поблагодарили: 400619
100%
nnm-club.gif
Донни Браско / Donnie Brasco (1997) BDRip
«Основано на реальной истории»
Производство: США / Baltimore Pictures
Жанр: Триллер, Драма, Криминал, Биография

Режиссер: Майк Ньюэлл
Актеры: Аль Пачино, Джонни Депп, Майкл Мэдсен, Бруно Кёрби, Джеймс Руссо, Энн Хеч, Желько Иванек, Джерри Бекер, Роберт Миано, Брайан Тарантина

Описание фильма:
Нью-Йорк, 1978 год. Агент ФБР Джо Пистоне получает новое задание: внедриться в одну из преступных группировок Бруклина с целью получения полноценной информации о деятельности гангстерских банд. Он должен забыть свое настоящее имя, порвать со всеми друзьями и родными, так как теперь он — Донни Браско.
Его лучшим другом становится стареющий мафиози, нуждающийся в молодом напарнике. Он верит в Донни и поручает ему самые ответственные дела. Чувствуя свою безнаказанность, Донни понимает: как ни затянула его новая жизнь, дающая практически неограниченную свободу, вернуться обратно еще не поздно.
Нужно лишь сделать решающий шаг и предать того, кто стал для него настоящим другом…



Продолжительность: 02:27:07
Качество видео: BDRip
Перевод: Многоголосый закадровый, Двуголосый закадровый, Одноголосый закадровый
Язык субтитров: Русский, Украинский, Английский
Вид субтитров: Вшитые отключаемые

Видео: MPEG-4 AVC/H.264, ~15.5 Mbps, 1916 х 800
Аудио 1: Русский, AC3 5.1, 384 kbps, 48 kHz (MVO)
Аудио 2: Русский, DTS 5.1, 1509 kbps, 48 kHz (DVO, П.Гланц и И.Королева)
Аудио 3: Русский, AC3 5.1, 384 kbps, 48 kHz (AVO, Ю.Немахов)
Аудио 4: Украинский, AC3 5.1, 384 kbps, 48 kHz (MVO, K1)
Аудио 5: Английский, AC3 5.1, 640 kbps, 48 kHz (Original)
Сэмпл: Ссылка
Оскар, 1998 год
Номинации (1):
Лучший адаптированный сценарий

Европейская киноакадемия, 1997 год
Номинации (1):
Приз Screen International Award
• Фильм основан на реальных событиях, пережитых тайным агентом ФБР Джозефом Д. Пистоне.
• Все события, произошедшие с ним, он впоследствии описал в книге «Донни Браско: моя подпольная жизнь в мафии».
• Реальный Джо Пистоне прожил в «роли» мафиози 6 лет.
• Джо Пистоне много времени провел на съемочной площадке фильма, помогая актерам воссоздать события, описываемые в фильме.
• Для более реалистичного исполнения роли Браско Джонни Деппу пришлось заниматься бодибилдингом.
• За проявленный героизм Джо Пистоне получает от ФБР медаль и 500$ премии. Мафия объявила, что готова дать награду в 500 000 $ за его убийство.
• Изначально, на роль Ники претендовал Джо Пеши.
• На разных стадиях разработки фильма, роли предварительно были отданы Тому Крузу, Джону Траволте и Энди Гарсиа.
• Сейчас Джо и его семья по-прежнему живут под покровительством Программы защиты свидетелей, место их проживания не разглашается.
• В фильме подразумевается, что Лефти, уходя на встречу, заранее знал что его убьют. В действительности, его прототип Бенджамин Руджеро умер в 1995 году от рака.
General
Unique ID : 208223559167261423520025194677078423176 (0x9CA66615F7EAE7CBA3186483FBFD7688)
Complete name : D:\Films\Donnie.Brasco.1997.BDRip.Ex.C.1080p.mkv
Format : Matroska
Format version : Version 2
File size : 19.3 GiB
Duration : 2h 27mn
Overall bit rate : 18.8 Mbps
Encoded date : UTC 2015-01-14 15:49:45
Writing application : mkvmerge v5.2.0 ('I can't explain') built on Dec 18 2011 18:12:03
Writing library : libebml v1.2.3 + libmatroska v1.3.0

Video
ID : 1
Format : AVC
Format/Info : Advanced Video Codec
Format profile : High@L4.1
Format settings, CABAC : Yes
Format settings, ReFrames : 5 frames
Codec ID : V_MPEG4/ISO/AVC
Duration : 2h 27mn
Bit rate : 15.5 Mbps
Width : 1 916 pixels
Height : 800 pixels
Display aspect ratio : 2.40:1
Frame rate mode : Constant
Frame rate : 23.976 fps
Color space : YUV
Chroma subsampling : 4:2:0
Bit depth : 8 bits
Scan type : Progressive
Bits/(Pixel*Frame) : 0.422
Stream size : 15.5 GiB (80%)
Writing library : x264 core 98 r1629 2e81ce1
Encoding settings : cabac=1 / ref=5 / deblock=1:-3:-3 / analyse=0x3:0x133 / me=umh / subme=10 / psy=1 / psy_rd=0.80:0.00 / mixed_ref=1 / me_range=48 / chroma_me=1 / trellis=2 / 8x8dct=1 / cqm=0 / deadzone=21,11 / fast_pskip=0 / chroma_qp_offset=-2 / threads=12 / sliced_threads=0 / nr=0 / decimate=0 / interlaced=0 / constrained_intra=0 / bframes=8 / b_pyramid=2 / b_adapt=2 / b_bias=0 / direct=3 / weightb=1 / weightp=2 / keyint=250 / keyint_min=25 / scenecut=40 / intra_refresh=0 / rc_lookahead=40 / rc=2pass / mbtree=1 / bitrate=15500 / ratetol=1.0 / qcomp=0.60 / qpmin=10 / qpmax=51 / qpstep=4 / cplxblur=20.0 / qblur=0.5 / ip_ratio=1.40 / aq=1:0.80
Language : English
Default : Yes
Forced : No

Audio #1
ID : 2
Format : AC-3
Format/Info : Audio Coding 3
Mode extension : CM (complete main)
Format settings, Endianness : Big
Codec ID : A_AC3
Duration : 2h 27mn
Bit rate mode : Constant
Bit rate : 384 Kbps
Channel(s) : 6 channels
Channel positions : Front: L C R, Side: L R, LFE
Sampling rate : 48.0 KHz
Bit depth : 16 bits
Compression mode : Lossy
Stream size : 404 MiB (2%)
Title : MVO
Language : Russian
Default : Yes
Forced : No

Audio #2
ID : 3
Format : DTS
Format/Info : Digital Theater Systems
Mode : 16
Format settings, Endianness : Big
Codec ID : A_DTS
Duration : 2h 27mn
Bit rate mode : Constant
Bit rate : 1 509 Kbps
Channel(s) : 6 channels
Channel positions : Front: L C R, Side: L R, LFE
Sampling rate : 48.0 KHz
Bit depth : 16 bits
Compression mode : Lossy
Stream size : 1.55 GiB (8%)
Title : DVO, П.Гланц и И.Королева
Language : Russian
Default : No
Forced : No

Audio #3
ID : 4
Format : AC-3
Format/Info : Audio Coding 3
Mode extension : CM (complete main)
Format settings, Endianness : Big
Codec ID : A_AC3
Duration : 2h 27mn
Bit rate mode : Constant
Bit rate : 384 Kbps
Channel(s) : 6 channels
Channel positions : Front: L C R, Side: L R, LFE
Sampling rate : 48.0 KHz
Bit depth : 16 bits
Compression mode : Lossy
Stream size : 404 MiB (2%)
Title : AVO, Ю.Немахов
Language : Russian
Default : No
Forced : No

Audio #4
ID : 5
Format : AC-3
Format/Info : Audio Coding 3
Mode extension : CM (complete main)
Format settings, Endianness : Big
Codec ID : A_AC3
Duration : 2h 27mn
Bit rate mode : Constant
Bit rate : 384 Kbps
Channel(s) : 6 channels
Channel positions : Front: L C R, Side: L R, LFE
Sampling rate : 48.0 KHz
Bit depth : 16 bits
Compression mode : Lossy
Stream size : 404 MiB (2%)
Title : MVO, K1
Language : Ukrainian
Default : No
Forced : No

Audio #5
ID : 6
Format : AC-3
Format/Info : Audio Coding 3
Mode extension : CM (complete main)
Format settings, Endianness : Big
Codec ID : A_AC3
Duration : 2h 27mn
Bit rate mode : Constant
Bit rate : 640 Kbps
Channel(s) : 6 channels
Channel positions : Front: L C R, Side: L R, LFE
Sampling rate : 48.0 KHz
Bit depth : 16 bits
Compression mode : Lossy
Stream size : 674 MiB (3%)
Title : Original
Language : English
Default : No
Forced : No

Text #1
ID : 7
Format : UTF-8
Codec ID : S_TEXT/UTF8
Codec ID/Info : UTF-8 Plain Text
Language : Russian
Default : No
Forced : No

Text #2
ID : 8
Format : UTF-8
Codec ID : S_TEXT/UTF8
Codec ID/Info : UTF-8 Plain Text
Language : Ukrainian
Default : No
Forced : No

Text #3
ID : 9
Format : UTF-8
Codec ID : S_TEXT/UTF8
Codec ID/Info : UTF-8 Plain Text
Language : English
Default : No
Forced : No

Menu
00:00:00.000 : :00:00:00.000
00:11:03.412 : :00:11:03.412
00:20:36.276 : :00:20:36.276
00:31:25.133 : :00:31:25.133
00:42:13.155 : :00:42:13.155
00:52:52.711 : :00:52:52.711
01:01:35.274 : :01:01:35.274
01:12:28.969 : :01:12:28.969
01:20:14.476 : :01:20:14.476
01:29:14.974 : :01:29:14.974
01:39:27.211 : :01:39:27.211
01:47:53.383 : :01:47:53.383
01:53:53.535 : :01:53:53.535
01:58:56.754 : :01:58:56.754
02:09:42.524 : :02:09:42.524
02:16:40.609 : :02:16:40.609

Скриншоты:

Время раздачи: С 8:00 до 22:00 до 5 скачавших
[NNM-Club.me]_Donnie.Brasco.1997.BDRip.Ex.C.1080p.mkv.torrent
 Торрент: Платиновая раздача  Зарегистрирован
 
Скачать


Примагнититься
 Зарегистрирован:   03 Фев 2015 12:45:05
 Размер:   19.3 GB  (
 Рейтинг:   4.8 (Голосов: 56)
 Поблагодарили:   205
 Проверка:   Оформление проверено модератором 03 Фев 2015 14:20:06
Как cкачать  ·  Как раздать  ·  Правильно оформить  ·  Поднять ратио!  
berta1973
Стаж: 12 лет 6 мес.
Сообщений: 59
Ratio: 5.862
92.31%
Непонятно почему не качается torrent файл, ошибка 404?
Serjj.nv
Стаж: 13 лет 10 мес.
Сообщений: 201
Ratio: 66.503
100%
Откуда: Нижневартовск
russia.gif
Добавлено спустя 49 секунд:

berta1973 писал(а): Перейти к сообщению
Непонятно почему не качается torrent файл, ошибка 404?

Да, и у меня тоже ошибка такая!

_________________
Быть или казаться, легко казаться, очень трудно быть!!! Гамлет
FILVOVAN ®
Релизер. Uploader 200+
 
Стаж: 16 лет 10 мес.
Сообщений: 4409
Ratio: 715.772
Раздал: 255.4 TB
Поблагодарили: 400619
100%
nnm-club.gif
Serjj.nv
И у меня тоже также было. Скачал другим браузером (Хромом)
maxuslexus
Стаж: 15 лет 10 мес.
Сообщений: 415
Ratio: 25.998
2.7%
russia.gif
404 - это санкции!!!
dep_k
Стаж: 10 лет 3 мес.
Сообщений: 307
Ratio: 6.132
39.75%
russia.gif
Цитата:
Аудио 2: Русский, DTS 5.1, 1509 kbps, 48 kHz (DVO, П.Гланц и И.Королева)

это они из
Цитата:
Аудио 5: Английский, AC3 5.1, 640 kbps, 48 kHz (Original)
сделали? мастера... :)
FILVOVAN ®
Релизер. Uploader 200+
 
Стаж: 16 лет 10 мес.
Сообщений: 4409
Ratio: 715.772
Раздал: 255.4 TB
Поблагодарили: 400619
100%
nnm-club.gif
dep_k
Оригинал True-HD.
skunz77
Стаж: 13 лет
Сообщений: 472
Ratio: 12.357
3.57%
И снова рип с ХДКлаба...

berta1973 писал(а): Перейти к сообщению
Непонятно почему не качается torrent файл, ошибка 404?

Старая Opera v.12.17.1863 качает без проблем torrent-файл. :да:

Показать сообщения:   
Начать новую тему   Ответить на тему    Торрент-трекер NNM-Club -> Зарубежное кино -> Зарубежные Фильмы (HD, FHD) Часовой пояс: GMT + 3
Страница 1 из 1