Классический форум-трекер
canvas not supported
Нас вместе: 4 231 963

Нераскрытые тайны. "Зеркальный двойник" Рихарда Зорге (2014) SATRip


 
 
RSS
Начать новую тему   Ответить на тему    Торрент-трекер NNM-Club -> Документалистика и Телепередачи -> Отечественная история
Автор Сообщение
kruglii ®
Стаж: 14 лет 2 мес.
Сообщений: 3194
Ratio: 5654.31
Раздал: 48.73 TB
Поблагодарили: 117499
100%
Откуда: Одесса-МАМА
ussr.gif
Нераскрытые тайны. "Зеркальный двойник" Рихарда Зорге (2014) SATRip
Режиссер / Телекомпания: Москва Медиа
Жанр: Документальный

Описание:
Что послужило истинной причиной провала Рихарда Зорге - "разведчика номер один"? Дать на этот вопрос точный ответ могут немногие. То, как именно японцы вышли на Зорге, осталось тайной контрразведки. По новой версии этого грандиозного провала, возможно, в аресте Зорге был виноват его "зеркальный двойник", тайный оппонент, агент германского Абвера Ивар Лисснер.

Качество видео: SATRip
Продолжительность: 00:44:02

Видео: MPEG4, 720x526 (4:3), 25.000 fps, 1 574 Kbps (0.166 bit/pixel)
Аудио: MP3, 48.0 KHz, 2 ch, 128 Kbps, CBR
Общее
Полное имя : E:\Doc.filmi\Нераскрытые тайны\Зеркальный двойник Рихарда Зорге.[nnmclub.to].avi
Формат : AVI
Формат/Информация : Audio Video Interleave
Размер файла : 540 Мбайт
Продолжительность : 44 м.
Общий поток : 1715 Кбит/сек
Программа кодирования : Lavf52.84.0

Видео
Идентификатор : 0
Формат : MPEG-4 Visual
Профиль формата : Simple@L1
Параметр BVOP формата : Нет
Параметр QPel формата : Нет
Параметр GMC формата : Без точки перехода
Параметр матрицы формата : Default (H.263)
Идентификатор кодека : FMP4
Продолжительность : 44 м.
Битрейт : 1574 Кбит/сек
Ширина : 720 пикселей
Высота : 526 пикселей
Соотношение сторон : 4:3
Частота кадров : 25,000 кадров/сек
Цветовое пространство : YUV
Субдискретизация насыщенности : 4:2:0
Битовая глубина : 8 бит
Тип развёртки : Прогрессивная
Метод сжатия : С потерями
Бит/(Пиксели*Кадры) : 0.166
Размер потока : 496 Мбайт (92%)
Библиотека кодирования : Lavc52.97.0

Аудио
Идентификатор : 1
Формат : MPEG Audio
Версия формата : Version 1
Профиль формата : Layer 3
Режим : Joint stereo
Расширение режима : MS Stereo
Идентификатор кодека : 55
Идентификатор кодека/Подсказка : MP3
Продолжительность : 44 м.
Вид битрейта : Постоянный
Битрейт : 128 Кбит/сек
Каналы : 2 канала
Частота : 48,0 КГц
Метод сжатия : С потерями
Размер потока : 40,3 Мбайт (7%)
Выравнивание : Соединение по промежуткам
Продолжительность промежутка : 24 мс. (0,60 видеокадр)
Библиотека кодирования : LAME3.98.4
Скриншоты:


Время раздачи: с 08:00 до 22:30

Нераскрытые тайны. на nnmclub.to
Zerkal'nyiy dvoynik Riharda Zorge.[nnm-club.me].avi.torrent
 Торрент: Платиновая раздача  Зарегистрирован
 
Скачать


Примагнититься
 Зарегистрирован:   03 Фев 2015 16:54:29
 Размер:   540 MB  (
 Рейтинг:   4.1 (Голосов: 19)
 Поблагодарили:   63
 Проверка:   Оформление проверено модератором 03 Фев 2015 20:33:35
Как cкачать  ·  Как раздать  ·  Правильно оформить  ·  Поднять ратио!  
Показать сообщения:   
Начать новую тему   Ответить на тему    Торрент-трекер NNM-Club -> Документалистика и Телепередачи -> Отечественная история Часовой пояс: GMT + 3
Страница 1 из 1