Классический форум-трекер
canvas not supported
Нас вместе: 4 232 301

Матрица / The Matrix (1999-2003) BDRip [1080p] [Трилогия]


Страницы:  1, 2  След. 
 
RSS
Начать новую тему   Ответить на тему    Торрент-трекер NNM-Club -> Коллекции / *логии -> Зарубежное кино (коллекции / *логии)
Автор Сообщение
Doktor ®
 
Стаж: 9 лет 5 мес.
Сообщений: 962
Ratio: 304.327
Раздал: 123.8 TB
Поблагодарили: 182650
100%
ussr.gif
Матрица. Трилогия / The Matrix. Trilogy (1999-2003) BDRip [1080р]

"...Матрица — это система. Система — есть наш враг.
Но когда ты в ней — оглянись, кого ты видишь? Бизнесменов, учителей, адвокатов, работяг, обычных людей, чей разум мы и спасаем. Однако, до тех пор, пока эти люди часть системы, они все наши враги. Ты должен помнить, что большинство не готовы принять реальность, а многие настолько отравлены и так безнадежно зависимы от Системы, что будут драться за нее..."


Матрица / The Matrix «Добро пожаловать в реальный мир»
Производство: USA, Australia / Warner Bros., Village Roadshow Pictures, Groucho II Film Partnership
Жанр: фантастика, боевик

Режиссер: Энди Вачовски, Лана Вачовски
Актеры: Киану Ривз, Лоренс Фишбёрн, Кэрри-Энн Мосс, Хьюго Уивинг, Джо Пантольяно, Глория Фостер, Маркус Чонг, Джулиан Араханга, Мэтт Доран, Белинда МакКлори

Описание фильма: Жизнь Томаса Андерсона разделена на две части: днём он самый обычный офисный работник, получающий нагоняи от начальства, а ночью превращается в хакера по имени Нео, и нет места в сети, куда он не смог бы дотянуться. Но однажды всё меняется — герой, сам того не желая, узнаёт страшную правду: всё, что его окружает — не более, чем иллюзия, Матрица, а люди — всего лишь источник питания для искусственного интеллекта, поработившего человечество. И только Нео под силу изменить расстановку сил в этом ставшем вдруг чужим и страшным мире...

Рейтинг MPAA:
R - Детям до 17 лет обязательно присутствие родителей
Продолжительность: 02:17:05
Качество: BDRip (1080p)

Перевод: профессиональный (полное дублирование), профессиональный (многоголосый закадровый), профессиональный (двуголосый закадровый), авторский (одноголосый закадровый)
Вид субтитров: вшитые отключаемые
Язык субтитров: русские, английские (Full, SDH)

Видео: MPEG-4 AVC/H.264, 1920 x 798 (2,40:1), 12 000 kbps, 23.976 fps, 0.327 b/px
Аудио # 1: AC3, 6 ch, 640 kbps, 48 000 Hz [дублированный (Blu-Ray CEE)]
Аудио # 2: DTS, 6 ch, 1509 kbps, 48 000 Hz [многоголосый закадровый]
Аудио # 3: DTS, 6 ch, 1509 kbps, 48 000 Hz [двуголосый закадровый (П.Гланц и И.Королёва)]
Аудио # 4: DTS, 6 ch, 1509 kbps, 48 000 Hz [одноголосый закадровый (А.Гаврилов)]
Аудио # 5: DTS, 6 ch, 1509 kbps, 48 000 Hz [одноголосый закадровый (Ю.Живов)]
Аудио # 6: DTS, 6 ch, 1509 kbps, 48 000 Hz [одноголосый закадровый (Д.Пучков)]
Аудио # 7: АС3, 6 ch, 448 kbps, 48 000 Hz [одноголосый закадровый (Д.Пучков 'Божья искра')]
Аудио # 8: DTS, 6 ch, 1509 kbps, 48 000 Hz [оригинальный]
Код: выделить все
Общее
Уникальный идентификатор                 : 206669361708789209409292531765719753434 (0x9B7B123C250B8026BDC2B3D191A262DA)
Полное имя                               : E:\Матрица. Трилогия [BDRip] [1080p]\[1999] Матрица [BDRip] [1080p].mkv
Формат                                   : Matroska
Версия формата                           : Version 4 / Version 2
Размер файла                             : 21,1 Гбайт
Продолжительность                        : 2 ч. 17 м.
Общий поток                              : 22,0 Мбит/сек
Название фильма                          : Матрица / The Matrix (1999) BDRip [1080p]
Дата кодирования                         : UTC 2015-02-12 19:32:55
Программа кодирования                    : mkvmerge v7.6.0 ('Garden of Dreams') 32bit built on Feb  8 2015 12:51:39
Библиотека кодирования                   : libebml v1.3.1 + libmatroska v1.4.2
DURATION                                 : 02:15:33.208000000
NUMBER_OF_FRAMES                         : 1372
NUMBER_OF_BYTES                          : 40998
_STATISTICS_WRITING_APP                  : mkvmerge v7.6.0 ('Garden of Dreams') 32bit built on Feb  8 2015 12:51:39
_STATISTICS_WRITING_DATE_UTC             : 2015-02-12 19:32:55
_STATISTICS_TAGS                         : BPS DURATION NUMBER_OF_FRAMES NUMBER_OF_BYTES

Видео
Идентификатор                            : 1
Формат                                   : AVC
Формат/Информация                        : Advanced Video Codec
Профиль формата                          : High@L4.1
Параметр CABAC формата                   : Да
Параметр ReFrames формата                : 5 кадров
Идентификатор кодека                     : V_MPEG4/ISO/AVC
Продолжительность                        : 2 ч. 17 м.
Битрейт                                  : 12,0 Мбит/сек
Ширина                                   : 1920 пикселей
Высота                                   : 798 пикселей
Соотношение сторон                       : 2,40:1
Режим частоты кадров                     : Постоянный
Частота кадров                           : 23,976 кадра/сек
Цветовое пространство                    : YUV
Субдискретизация насыщенности            : 4:2:0
Битовая глубина                          : 8 бит
Тип развёртки                            : Прогрессивная
Бит/(Пиксели*Кадры)                      : 0.327
Размер потока                            : 11,0 Гбайт (52%)
Заголовок                                : [1999] Матрица / The Matrix [BDRip] [1080p]
Библиотека кодирования                   : x264 core 122 r2184kMod 5c85e0a
Настройки программы                      : cabac=1 / ref=5 / deblock=1:-3:-3 / analyse=0x3:0x133 / me=umh / subme=11 / psy=1 / fade_compensate=0.00 / psy_rd=1.20:0.00 / mixed_ref=1 / me_range=32 / chroma_me=0 / trellis=2 / 8x8dct=1 / cqm=0 / deadzone=21,11 / fast_pskip=0 / chroma_qp_offset=-2 / threads=6 / sliced_threads=0 / nr=0 / decimate=0 / interlaced=0 / bluray_compat=0 / constrained_intra=0 / bframes=0 / weightp=2 / keyint=250 / keyint_min=23 / scenecut=40 / intra_refresh=0 / rc=2pass / mbtree=0 / bitrate=12000 / ratetol=1.0 / qcomp=0.70 / qpmin=10 / qpmax=51 / qpstep=4 / cplxblur=20.0 / qblur=0.5 / ip_ratio=1.30 / aq=3:0.50
Язык                                     : English
Default                                  : Да
Forced                                   : Нет

Аудио #1
Идентификатор                            : 2
Формат                                   : AC-3
Формат/Информация                        : Audio Coding 3
Расширение режима                        : CM (complete main)
Параметр Endianness формата              : Big
Идентификатор кодека                     : A_AC3
Продолжительность                        : 2 ч. 17 м.
Вид битрейта                             : Постоянный
Битрейт                                  : 640 Кбит/сек
Каналы                                   : 6 каналов
Расположение каналов                     : Front: L C R, Side: L R, LFE
Частота                                  : 48,0 КГц
Битовая глубина                          : 16 бит
Метод сжатия                             : С потерями
Размер потока                            : 628 Мбайт (3%)
Заголовок                                : Дублированный (Blu-Ray CEE)
Язык                                     : Russian
Default                                  : Да
Forced                                   : Нет

Аудио #2
Идентификатор                            : 3
Формат                                   : DTS
Формат/Информация                        : Digital Theater Systems
Режим                                    : 16
Параметр Endianness формата              : Big
Идентификатор кодека                     : A_DTS
Продолжительность                        : 2 ч. 17 м.
Вид битрейта                             : Постоянный
Битрейт                                  : 1509 Кбит/сек
Каналы                                   : 6 каналов
Расположение каналов                     : Front: L C R, Side: L R, LFE
Частота                                  : 48,0 КГц
Битовая глубина                          : 16 бит
Метод сжатия                             : С потерями
Размер потока                            : 1,45 Гбайт (7%)
Заголовок                                : Многоголосый закадровый
Язык                                     : Russian
Default                                  : Нет
Forced                                   : Нет

Аудио #3
Идентификатор                            : 4
Формат                                   : DTS
Формат/Информация                        : Digital Theater Systems
Режим                                    : 16
Параметр Endianness формата              : Big
Идентификатор кодека                     : A_DTS
Продолжительность                        : 2 ч. 17 м.
Вид битрейта                             : Постоянный
Битрейт                                  : 1509 Кбит/сек
Каналы                                   : 6 каналов
Расположение каналов                     : Front: L C R, Side: L R, LFE
Частота                                  : 48,0 КГц
Битовая глубина                          : 16 бит
Метод сжатия                             : С потерями
Размер потока                            : 1,45 Гбайт (7%)
Заголовок                                : Двуголосый закадровый (П.Гланц и И.Королёва)
Язык                                     : Russian
Default                                  : Нет
Forced                                   : Нет

Аудио #4
Идентификатор                            : 5
Формат                                   : DTS
Формат/Информация                        : Digital Theater Systems
Режим                                    : 16
Параметр Endianness формата              : Big
Идентификатор кодека                     : A_DTS
Продолжительность                        : 2 ч. 17 м.
Вид битрейта                             : Постоянный
Битрейт                                  : 1509 Кбит/сек
Каналы                                   : 6 каналов
Расположение каналов                     : Front: L C R, Side: L R, LFE
Частота                                  : 48,0 КГц
Битовая глубина                          : 16 бит
Метод сжатия                             : С потерями
Размер потока                            : 1,45 Гбайт (7%)
Заголовок                                : Одноголосый закадровый (А.Гаврилов)
Язык                                     : Russian
Default                                  : Нет
Forced                                   : Нет

Аудио #5
Идентификатор                            : 6
Формат                                   : DTS
Формат/Информация                        : Digital Theater Systems
Режим                                    : 16
Параметр Endianness формата              : Big
Идентификатор кодека                     : A_DTS
Продолжительность                        : 2 ч. 17 м.
Вид битрейта                             : Постоянный
Битрейт                                  : 1509 Кбит/сек
Каналы                                   : 6 каналов
Расположение каналов                     : Front: L C R, Side: L R, LFE
Частота                                  : 48,0 КГц
Битовая глубина                          : 16 бит
Метод сжатия                             : С потерями
Размер потока                            : 1,45 Гбайт (7%)
Заголовок                                : Одноголосый закадровый (Ю.Живов)
Язык                                     : Russian
Default                                  : Нет
Forced                                   : Нет

Аудио #6
Идентификатор                            : 7
Формат                                   : DTS
Формат/Информация                        : Digital Theater Systems
Режим                                    : 16
Параметр Endianness формата              : Big
Идентификатор кодека                     : A_DTS
Продолжительность                        : 2 ч. 17 м.
Вид битрейта                             : Постоянный
Битрейт                                  : 1509 Кбит/сек
Каналы                                   : 6 каналов
Расположение каналов                     : Front: L C R, Side: L R, LFE
Частота                                  : 48,0 КГц
Битовая глубина                          : 16 бит
Метод сжатия                             : С потерями
Размер потока                            : 1,45 Гбайт (7%)
Заголовок                                : Одноголосый закадровый (Д.Пучков)
Язык                                     : Russian
Default                                  : Нет
Forced                                   : Нет

Аудио #7
Идентификатор                            : 8
Формат                                   : AC-3
Формат/Информация                        : Audio Coding 3
Расширение режима                        : CM (complete main)
Параметр Endianness формата              : Big
Идентификатор кодека                     : A_AC3
Продолжительность                        : 2 ч. 17 м.
Вид битрейта                             : Постоянный
Битрейт                                  : 448 Кбит/сек
Каналы                                   : 6 каналов
Расположение каналов                     : Front: L C R, Side: L R, LFE
Частота                                  : 48,0 КГц
Битовая глубина                          : 16 бит
Метод сжатия                             : С потерями
Размер потока                            : 439 Мбайт (2%)
Заголовок                                : Одноголосый закадровый (Д.Пучков 'Божья искра')
Язык                                     : Russian
Default                                  : Нет
Forced                                   : Нет

Аудио #8
Идентификатор                            : 9
Формат                                   : DTS
Формат/Информация                        : Digital Theater Systems
Режим                                    : 16
Параметр Endianness формата              : Big
Идентификатор кодека                     : A_DTS
Продолжительность                        : 2 ч. 17 м.
Вид битрейта                             : Постоянный
Битрейт                                  : 1509 Кбит/сек
Каналы                                   : 6 каналов
Расположение каналов                     : Front: L C R, Side: L R, LFE
Частота                                  : 48,0 КГц
Битовая глубина                          : 16 бит
Метод сжатия                             : С потерями
Размер потока                            : 1,45 Гбайт (7%)
Заголовок                                : Оригинальный
Язык                                     : English
Default                                  : Нет
Forced                                   : Нет

Текст #1
Идентификатор                            : 10
Формат                                   : UTF-8
Идентификатор кодека                     : S_TEXT/UTF8
Идентификатор кодека/Информация          : UTF-8 Plain Text
Заголовок                                : Russian (Full)
Язык                                     : Russian
Default                                  : Нет
Forced                                   : Нет

Текст #2
Идентификатор                            : 11
Формат                                   : UTF-8
Идентификатор кодека                     : S_TEXT/UTF8
Идентификатор кодека/Информация          : UTF-8 Plain Text
Заголовок                                : English (Full)
Язык                                     : English
Default                                  : Нет
Forced                                   : Нет

Текст #3
Идентификатор                            : 12
Формат                                   : UTF-8
Идентификатор кодека                     : S_TEXT/UTF8
Идентификатор кодека/Информация          : UTF-8 Plain Text
Заголовок                                : English (SDH)
Язык                                     : English
Default                                  : Нет
Forced                                   : Нет

Меню
00:00:00.000                             : en:Chapter 1
00:03:25.789                             : en:Chapter 2
00:06:35.645                             : en:Chapter 3
00:09:42.665                             : en:Chapter 4
00:11:58.301                             : en:Chapter 5
00:16:47.423                             : en:Chapter 6
00:21:33.542                             : en:Chapter 7
00:25:08.590                             : en:Chapter 8
00:28:51.146                             : en:Chapter 9
00:32:25.193                             : en:Chapter 10
00:35:21.870                             : en:Chapter 11
00:38:40.902                             : en:Chapter 12
00:44:22.577                             : en:Chapter 13
00:46:33.541                             : en:Chapter 14
00:48:57.852                             : en:Chapter 15
00:53:31.291                             : en:Chapter 16
00:56:32.139                             : en:Chapter 17
00:59:01.288                             : en:Chapter 18
01:01:08.582                             : en:Chapter 19
01:05:16.496                             : en:Chapter 20
01:07:46.813                             : en:Chapter 21
01:12:33.432                             : en:Chapter 22
01:17:49.582                             : en:Chapter 23
01:21:03.108                             : en:Chapter 24
01:25:05.350                             : en:Chapter 25
01:29:45.130                             : en:Chapter 26
01:31:27.565                             : en:Chapter 27
01:37:25.256                             : en:Chapter 28
01:41:04.976                             : en:Chapter 29
01:44:20.337                             : en:Chapter 30
01:47:00.497                             : en:Chapter 31
01:50:18.529                             : en:Chapter 32
01:52:56.687                             : en:Chapter 33
01:56:36.907                             : en:Chapter 34
01:58:49.372                             : en:Chapter 35
02:02:27.423                             : en:Chapter 36
02:05:41.784                             : en:Chapter 37
02:08:46.802                             : en:Chapter 38
02:09:30.262                             : en:Chapter 39
02:11:20.164                             : en:Chapter 40
Оскар, 2000 год

Победитель (4):

*** Лучший звук
*** Лучший монтаж
*** Лучший монтаж звука
*** Лучшие визуальные эффекты

Премия канала «MTV», 2000 год

Победитель (3):

*** Лучший фильм
*** Лучшая мужская роль (Киану Ривз)
*** Лучшая драка

Номинации (3):

*** Женский прорыв года (Кэрри-Энн Мосс)
*** Лучший экранный дуэт (Киану Ривз, Лоренс Фишбёрн)
*** Лучшая экшн-сцена

Британская академия, 2000 год

Победитель (2):

*** Лучший звук
*** Лучшие визуальные эффекты

Номинации (3):

*** Лучшая работа оператора
*** Лучший монтаж
*** Лучшая работа художника-постановщика

Сатурн, 2000 год

Победитель (2):

*** Лучший научно-фантастический фильм
*** Лучший режиссер (Энди Вачовски, Лана Вачовски)

Номинации (7):

*** Лучший актер (Киану Ривз)
*** Лучшая актриса (Кэрри-Энн Мосс)
*** Лучший актер второго плана (Лоренс Фишбёрн)
*** Лучшие костюмы
*** Лучшие спецэффекты
*** Лучший сценарий
*** Лучший грим
*** Студия настаивала, чтобы в фильме обязательно присутствовали диалоги, объясняющие концепцию Матрицы, т. к. по мнению студийных боссов, сценарий попадал под категорию «сценарий, который никто не поймет».

*** Пружинящие мобильные телефоны были предоставлены одним из лидеров рынка — компанией Nokia. В ходе съемок были использованы две модели — Nokia 8110 и Nokia Stilleto. Эти телефоны были выпущены в ограниченном количестве и поступили в продажу лишь в часть европейских стран и Австралию.

*** В картине немало обращений к сказкам Льюиса Кэрролла «Алиса в стране чудес» и «Алиса в зазеркалье». В фильме также содержится множество ссылок на Маркса, Кафку, дзэн-буддизм и «Одиссею» Гомера.

*** На роль Нео претендовали Юэн МакГрегор и Леонардо ДиКаприо и Том Круз. В свою очередь, Вэл Килмер претендовал на роль Морфиуса. Уилл Смит также вполне мог сыграть Нео, однако предпочел сняться в неудавшемся «Диком, диком Западе» (1999).

*** В первый день съёмок снималась сцена в офисе, в которой Нео пытается скрыться от преследующих его агентов.

*** Роль агента Смита по замыслу режиссёров Вачовски должен был исполнить француз Жан Рено. Однако последний предпочел поработать в другом голливудском блокбастере — «Годзилла».

*** Во время съемок одной из сцен актриса Керри-Энн Мосс сломала ногу, однако решила не ставить в известность съемочную группу, дабы не лишиться знаковой в её карьере роли.

*** Перед началом съемок ведущие актеры тренировались 4 месяца, изучая основы восточных единоборств. Длилось это обучение с октября 1997 года по март 1998 года. Актеры не ожидали таких нагрузок и были полностью уверены, что для получения практических навыков хватит и нескольких недель.

*** Как только картина вышла на экраны и поразила зрителей эффектом замирающей камеры, тут же возникло множество людей, утверждающих, что именно они первыми перенесли это изобретение на большой экран. Французский режиссер Мишель Гондри использовал этот эффект в рекламе страховой компании, а чуть позднее в клипе поп-звезды Бьорк. Архитектор Мэттью Банистер подробно описал данную проблему в своей научной работе. Он предположил, что движение и время в кадре могут идти как параллельно, так и отдельно друг от друга. Однако в то время аппаратура не позволяла провести данный эксперимент. И, наконец, художник Тим МакМиллан продемонстрировал эту технику на одном из британских каналов в 1993 году. Возможно, каждый из них изобрел этот эффект по отдельности, возможно кто-то воспользовался идеями других. Так или иначе, для большинства обывателей, революционерами все равно останутся Лана и Энди Вачовски.

*** Забавные анаграммы (переставив буквы во фразах можно получить новую фразу) замечены в саундтреке к фильму. Композиции, звучащие во время тренировочного поединка Нео и Морфеуса, под названиями «Bow Whisk Orchestra» и «Switch or Break Show» являются анаграммами к «Wachowski Brothers» (братья Вачовски - режиссеры картины). Также в картине звучат следующие композиции: «Exit Mr. Hat» и «Threat Mix». Оба этих трека являются анаграммами к названию фильма - «The Matrix». Кроме того, после того как Нео начинают называть избранным (The One), анаграмму можно заметить и здесь - Neo ~ One.

*** Номер комнаты ТРИнити — 303, а номер комнаты «избранного» (The One — «один») — 101.

*** Во второй раз в своей актерской карьере Лоренсу Фишбёрну довелось сыграть капитана корабля. В 1997 году в картине «Сквозь горизонт» он сыграл капитана Миллера.

*** Незадолго до начала съемок Киану Ривз серьезно повредил шейные позвонки. В течение 4 месяцев подготовительных тренировок он был вынужден носить на шее фиксирующий бандаж.

*** К середине 2002 года (спустя 3 года после выхода Матрицы) эффект «медленно летящей пули» был использован в 20 различных фильмах.

*** Первоначально сцену, в которой Нео уклоняется от пуль, выпускаемых в него агентами, хотели снимать по старинке, используя манекенов и различные технические устройства. Однако после того, как было потрачено несколько километров кинопленки и израсходовано множество манекенов, было принято решение прибегнуть к компьютерной графике. Для этого была специально разработана новая компьютерная программа, которая после выхода картины в прокат стала объектом мечтаний для многих режиссеров высокобюджетных картин.

*** Внимательный зритель сможет заметить дату на одном из мониторов в самом начале фильма — 18 февраля 98 года. Ближе к концу картины на экране высвечивается уже иная дата — 18 сентября 99 года. Таким образом, события, описанные в картине, проходят в течение 19 месяцев.

*** В конце картины герой Киану Ривза произносит финальный монолог. Примечателен тот факт, что ранее за всю свою актерскую карьеру Киану никогда не произносил более 5 предложений подряд.

*** Съемки картины полностью проходили в Австралии. Однако, как выяснилось уже в ходе съемочного процесса, в Австралии практически нет мест, походящих на американские гетто. В результате все декорации пришлось изготавливать на месте.

*** Съемки сцены драки между Нео и агентом Смитом в подземке несколько затянулись. Никто из участников группы не ожидал, что на этот эпизод будет затрачено такое количество времени. Сотни неудачных дублей, и в итоге съемки этой битвы заняли на 10 суток больше намеченного.

*** Харизматичные очки главных персонажей картины любезно предоставил лейбл Blinde. В тендере приняли участие 3 компании-производителя солнцезащитных очков. Удивительно, но тендер был проигран такими гигантами рынка как Ray-Ban и Arnette. Узнав результаты тендера, основатель компании Blinde Ричард Уолкер незамедлительно вылетел в Австралию, чтобы вместе с костюмерами подобрать очки на каждого актера.

*** Киану Ривз вложил собственные 38 миллионов долларов в производство спецэффектов для двух сиквелов.

*** Лана и Энди Вачовски уверяли, что их проект задумывался как трилогия ещё в 1993 году.

*** В тренировочной программе рукопашного боя, перед тем как Нео начинает нападать на Морфиуса, он потирает свой нос большим пальцем руки, что является воспроизведением известного движения Брюса Ли. Данный элемент отсутствовал в сценарии и является импровизацией Киану Ривза.

*** Пистолеты, которые использует Нео в вестибюле, являются точной копией MP5K. Однако в отличие от настоящего оружия, копии весили всего лишь 150-200 грамм.

*** Николас Кейдж отклонил предложение сыграть Нео.

*** В картине использовалось множество декораций из «Темного города» (1998).

*** Сцена, в которой Нео встречается с одаренными детьми в квартире Оракула, — дань уважения «Акире» (1988).

*** После встречи с Тринити в ночном клубе Нео просыпается в 9:18.

*** Нео останавливает лифт на 41 этаже в здании, где держат Морфиуса.

*** Тринити пилотирует вертолет B212.

*** Режиссёры предложили Хьюго Уивингу сыграть агента Смита после того, как увидели его актерскую игру в «Доказательстве» (1991).

*** По словам Дона Дэвиса, Джонни Депп был первоначальным выбором на роль Нео, однако студия хотела, чтобы Брэд Питт или Вэл Килмер сыграл главную роль.

*** Гари Олдман и Сэмюэл Л. Джексон рассматривались на роль Морфиуса.

*** Для съёмок сцены телефонного разговора между Нео и Морфиусом в здании «Meta Cortechs» Киану Ривз на самом деле вылез из окна без страховки, не пользуясь услугами каскадеров.

*** В сценарии о внешнем виде Тринити сказано достаточно просто – женщина в черной коже. Однако Ким Барретт (художник по костюмам) значительно расширила такую узкую характеристику.

*** Когда Нео находится в лифте на пути к Оракулу, на стене справа от него можно заметить буквы «KYM», что, скорее всего, является ссылкой на Ким Барретт (художника по костюмам).

*** Символы на экранах компьютеров состоят из перевернутых букв, чисел и японских иероглифов письма «катакана».

*** В фильме можно заметить немало различных вывесок и табличек с реально существующими улицами в Чикаго.

*** Съёмки сцен с вертолетом чуть не привели к закрытию всего проекта, т. к. съёмочная группа нарушила сразу несколько законов, пролетев на вертолетах через закрытое для полетов воздушное пространство. Однако впоследствии законы были изменены, чтобы продолжились съёмки фильма.

*** Пистолеты агентов — Desert Eagle. 50 AE.

*** В квартире Оракула на экране телевизора можно заметить белых кроликов из «Ночи Лепуса» (1972).

*** В сцене допроса Нео можно заметить некоторые детали личного дела Томаса Андерсона: дата рождения — 11 марта 1962 года; место рождения — Lower Downtown, Capitol City; девичья фамилия матери — Мишель МакКэйхи; имя отца — Джон Андерсон; Нео получил образование в «Central West Junior High» и «Owen Paterson High». В этой же сцене можно заметить некоторую информацию из паспорта Нео: место рождения — Capital City USA; дата рождения — 13 сентября 1971; паспорт выдан 12 сентября 1991; срок действия паспорта истекает 11 сентября 2001.

*** Мотоцикл Тринити — Triumph Speed Triple.

*** Автомобиль, на котором передвигаются главные герои внутри Матрицы, — 1965 Lincoln Continental.

*** Номер комнаты Нео 101. Точно такой же номер был у места в книге Джорджа Оруэлла «1984», где люди подвергались пыткам и, в конце концов, начинали верить в то, что не является правдой.

*** Съёмочный период составил 118 дней.

*** Книга, в которой Нео прячет компьютерные диски, называется «Симулякры и симуляция».

*** Для сцены «Женщина в красном», в которой Морфиус проводит Нео через компьютерную симуляцию Матрицы, было задействовано множество близнецов, чтобы создать иллюзию всё время повторяющейся программы.

*** В одной из сцен фильма можно заметить телефонный номер с почти полностью видимым кодом города (3?2) 555-0690. В США существует три города с похожими кодами: Чикаго (312), Делавэр (302) и северо-западный полуостров во Флориде (352). В сценарии данный телефонный номер указан как 312-555-0690.

*** Кэрри-Энн Мосс снималась в телесериале «Матрица» (1993).

*** Все карты города, показанные в фильме, — это карты Чикаго.

*** Метрополитен Матрицы называется «CityRail». Точно такое же название у сети пригородных железных дорог Сиднея.

*** По словам костюмера Глории Бавы, изначально плащ Нео должен был быть серебряно-серого цвета.

*** По словам Ланы и Энди Вачовски, все животные в Матрице – изображения, созданные с помощью компьютера.

*** Изначально сцену преследования Тринити агентами хотели снимать на настоящих крышах домов, а не в студийных павильонах.

*** Изначально предполагалось получить $80 миллионов на постановку фильма, однако студия выделила только десять. Получив деньги, Лана и Энди Вачовски решили полностью вложить их в первые десять минут фильма (сцена с Кэрри-Энн Мосс). Финальный результат настолько впечатлил студию, что оставшуюся часть денег они получили без всяких проблем.

*** Роль Морфиуса была предложена Шону Коннери, однако он отказался из-за того, что совершенно ничего не понял в сценарии.

*** Все сцены, действие которых происходит внутри Матрицы, имеют зеленоватый оттенок, в то время как сцены в реальном мире выполнены в нормальных цветах.

*** Режиссёры писали сценарий на протяжении пяти с половиной лет. Было написано четырнадцать версий сценария.

*** До начала съёмок все актеры, занятые в главных ролях, и основные члены съёмочной группы в обязательном порядке должны были прочитать книгу Жана Бодрийяра «Симулякры и симуляция».

*** Из фильма намеренно убрали голубой цвет, чтобы показать насколько мрачным является мир Матрицы.

*** Для съёмок начальной сцены фильма потребовалось шесть месяцев тренировок и только четыре дня съёмочного процесса.

*** «Матрица» стала первым фильмом, съёмки которого проходили на новой студии «Fox Studios» в Сиднее.

*** Когда Лана и Энди Вачовски продали сценарий «Наёмных убийц» (1995) продюсеру Джоэлю Силверу, они также рассказали ему о сюжете «Матрицы». Силверу понравилась общая идея, однако он ни за что бы не доверил постановку такого сложного проекта новичкам-режиссерам, не снявшим до этого ни одного фильма. Поэтому он посоветовал им снять для начала что-нибудь более простое в техническом плане. Вачовски сделали «Связь» (1996), получившую восторженные отзывы как от зрителей, так и от критиков. Успех дебютного фильма, доказавшего, что братья могут придумывать не только захватывающие истории, но и создавать запоминающийся визуальный ряд, убедил студию дать добро на постановку «Матрицы».

*** При съемках сцены «Полет пули» задействовали 120 специальных камер, для того, чтобы создать панорамный показ полета пули, выпущенной агентом, и движений уклоняющегося от неё Нео.

*** В начале фильма Нео достает компьютерный диск из книги Жана Бодрийяра «Симулякры и симуляция». Эта книга является популярной критической теорией, пытающейся объяснить, где «реальность», а где, собственно, «Симулякры и симуляция». Когда Нео достает из книжки спрятанный там диск, он открывает её на главе «О нигилизме». В интервью Le Nouvel Observateur 19 июня 2003 Бодрийяр утверждал, что «Матрица» неправильно понимает и искажает его работу «Симулякры и симуляции».
*** В эпизоде, где Тринити и Нео в поисках Морфиуса оказываются на крыше, один из пилотов вертолета трансформируется в агента Джонса. При этом левый висок Джонса приходится на затылок пилота. Однако после выстрела Тринити именно в этот висок, пулевое отверстие у пилота, покинутого «программой» агента, почему-то оказывается во лбу.

*** В сцене, когда Нео впервые встречается с Морфиусом, герой Лоренса Фишбёрна здоровается с Избранным. Морфиус протягивает правую руку, при этом левая рука у него за спиной. Далее сразу же следует вставка с другого ракурса, где левая рука уже почему-то опущена к полу. В следующем кадре левая рука Морфиуса снова за спиной.

Скриншоты:


Матрица: Перезагрузка / The Matrix Reloaded «Одни машины помогают нам жить, другие – пытаются нас убить»
Производство: USA, Australia / Warner Bros., Village Roadshow Pictures, Silver Pictures
Жанр: фантастика, боевик

Режиссер: Энди Вачовски, Лана Вачовски
Актеры: Киану Ривз, Хьюго Уивинг, Кэрри-Энн Мосс, Лоренс Фишбёрн, Хэролд Перрино, Джада Пинкетт Смит, Моника Беллуччи, Глория Фостер, Джина Торрес, Нэтаниэл Лис

Описание фильма: Борцы за свободу Нео, Тринити и Морфеус продолжают руководить восстанием людей против Армии Машин. Для уничтожения системы репрессий и эксплуатации они вынуждены прибегнуть не только к арсеналу превосходного оружия, но и к своим выдающимся навыкам.

Участие в миссии по спасению человеческой расы от ее полного истребления приносит им более глубокое понимание конструкции Матрицы и осознание центральной роли Нео в судьбе человечества...

Рейтинг MPAA:
R - Детям до 17 лет обязательно присутствие родителей
Продолжительность: 02:18:17
Качество: BDRip (1080p)

Перевод: профессиональный (полное дублирование), профессиональный (двуголосый закадровый), авторский (одноголосый закадровый)
Вид субтитров: вшитые отключаемые
Язык субтитров: русские, английские (Full, SDH)

Видео: MPEG-4 AVC/H.264, 1920 x 798 (2,40:1), 11 000 kbps, 23.976 fps, 0.299 b/px
Аудио # 1: AC3, 6 ch, 640 kbps, 48 000 Hz [дублированный (Blu-Ray CEE)]
Аудио # 2: DTS, 6 ch, 1509 kbps, 48 000 Hz [двуголосый закадровый (П.Гланц и И.Королёва 'ранний)]
Аудио # 3: DTS, 6 ch, 1509 kbps, 48 000 Hz [двуголосый закадровый (П.Гланц и И.Королёва 'поздний')]
Аудио # 4: DTS, 6 ch, 1509 kbps, 48 000 Hz [одноголосый закадровый (А.Гаврилов)]
Аудио # 5: DTS, 6 ch, 1509 kbps, 48 000 Hz [одноголосый закадровый (Ю.Живов)]
Аудио # 6: DTS, 6 ch, 1509 kbps, 48 000 Hz [одноголосый закадровый (Е.Рудой)]
Аудио # 7: DTS, 6 ch, 1509 kbps, 48 000 Hz [оригинальный]
Код: выделить все
Общее
Уникальный идентификатор                 : 243300216744012306688660466328979153199 (0xB709EAD389D4801689D4E1AA40E8A12F)
Полное имя                               : E:\Матрица. Трилогия [BDRip] [1080p]\[2003] Матрица. Перезагрузка [BDRip] [1080p].mkv
Формат                                   : Matroska
Версия формата                           : Version 4 / Version 2
Размер файла                             : 20,0 Гбайт
Продолжительность                        : 2 ч. 18 м.
Общий поток                              : 20,7 Мбит/сек
Название фильма                          : Матрица: Перезагрузка / The Matrix Reloaded (2003) BDRip [1080p]
Дата кодирования                         : UTC 2015-02-12 19:54:05
Программа кодирования                    : mkvmerge v7.6.0 ('Garden of Dreams') 32bit built on Feb  8 2015 12:51:39
Библиотека кодирования                   : libebml v1.3.1 + libmatroska v1.4.2
DURATION                                 : 02:16:45.905000000
NUMBER_OF_FRAMES                         : 1229
NUMBER_OF_BYTES                          : 47286
_STATISTICS_WRITING_APP                  : mkvmerge v7.6.0 ('Garden of Dreams') 32bit built on Feb  8 2015 12:51:39
_STATISTICS_WRITING_DATE_UTC             : 2015-02-12 19:54:05
_STATISTICS_TAGS                         : BPS DURATION NUMBER_OF_FRAMES NUMBER_OF_BYTES

Видео
Идентификатор                            : 1
Формат                                   : AVC
Формат/Информация                        : Advanced Video Codec
Профиль формата                          : High@L4.1
Параметр CABAC формата                   : Да
Параметр ReFrames формата                : 5 кадров
Идентификатор кодека                     : V_MPEG4/ISO/AVC
Продолжительность                        : 2 ч. 18 м.
Битрейт                                  : 11,0 Мбит/сек
Ширина                                   : 1920 пикселей
Высота                                   : 798 пикселей
Соотношение сторон                       : 2,40:1
Режим частоты кадров                     : Постоянный
Частота кадров                           : 23,976 кадра/сек
Цветовое пространство                    : YUV
Субдискретизация насыщенности            : 4:2:0
Битовая глубина                          : 8 бит
Тип развёртки                            : Прогрессивная
Бит/(Пиксели*Кадры)                      : 0.299
Размер потока                            : 10,2 Гбайт (51%)
Заголовок                                : [2003] Матрица: Перезагрузка / The Matrix Reloaded [BDRip] [1080p]
Библиотека кодирования                   : x264 core 122 r2184kMod 5c85e0a
Настройки программы                      : cabac=1 / ref=5 / deblock=1:-3:-3 / analyse=0x3:0x133 / me=umh / subme=11 / psy=1 / fade_compensate=0.00 / psy_rd=1.20:0.00 / mixed_ref=1 / me_range=32 / chroma_me=0 / trellis=2 / 8x8dct=1 / cqm=0 / deadzone=21,11 / fast_pskip=0 / chroma_qp_offset=-2 / threads=6 / sliced_threads=0 / nr=0 / decimate=0 / interlaced=0 / bluray_compat=0 / constrained_intra=0 / bframes=0 / weightp=2 / keyint=250 / keyint_min=23 / scenecut=40 / intra_refresh=0 / rc=2pass / mbtree=0 / bitrate=11000 / ratetol=1.0 / qcomp=0.70 / qpmin=10 / qpmax=51 / qpstep=4 / cplxblur=20.0 / qblur=0.5 / ip_ratio=1.30 / aq=3:0.50
Язык                                     : English
Default                                  : Да
Forced                                   : Нет

Аудио #1
Идентификатор                            : 2
Формат                                   : AC-3
Формат/Информация                        : Audio Coding 3
Расширение режима                        : CM (complete main)
Параметр Endianness формата              : Big
Идентификатор кодека                     : A_AC3
Продолжительность                        : 2 ч. 18 м.
Вид битрейта                             : Постоянный
Битрейт                                  : 640 Кбит/сек
Каналы                                   : 6 каналов
Расположение каналов                     : Front: L C R, Side: L R, LFE
Частота                                  : 48,0 КГц
Битовая глубина                          : 16 бит
Метод сжатия                             : С потерями
Размер потока                            : 633 Мбайт (3%)
Заголовок                                : Дублированный (Blu-Ray CEE)
Язык                                     : Russian
Default                                  : Да
Forced                                   : Нет

Аудио #2
Идентификатор                            : 3
Формат                                   : DTS
Формат/Информация                        : Digital Theater Systems
Режим                                    : 16
Параметр Endianness формата              : Big
Идентификатор кодека                     : A_DTS
Продолжительность                        : 2 ч. 18 м.
Вид битрейта                             : Постоянный
Битрейт                                  : 1509 Кбит/сек
Каналы                                   : 6 каналов
Расположение каналов                     : Front: L C R, Side: L R, LFE
Частота                                  : 48,0 КГц
Битовая глубина                          : 16 бит
Метод сжатия                             : С потерями
Размер потока                            : 1,46 Гбайт (7%)
Заголовок                                : Двуголосый закадровый (П.Гланц и И.Королёва 'ранний)
Язык                                     : Russian
Default                                  : Нет
Forced                                   : Нет

Аудио #3
Идентификатор                            : 4
Формат                                   : DTS
Формат/Информация                        : Digital Theater Systems
Режим                                    : 16
Параметр Endianness формата              : Big
Идентификатор кодека                     : A_DTS
Продолжительность                        : 2 ч. 18 м.
Вид битрейта                             : Постоянный
Битрейт                                  : 1509 Кбит/сек
Каналы                                   : 6 каналов
Расположение каналов                     : Front: L C R, Side: L R, LFE
Частота                                  : 48,0 КГц
Битовая глубина                          : 16 бит
Метод сжатия                             : С потерями
Размер потока                            : 1,46 Гбайт (7%)
Заголовок                                : Двуголосый закадровый (П.Гланц и И.Королёва 'поздний')
Язык                                     : Russian
Default                                  : Нет
Forced                                   : Нет

Аудио #4
Идентификатор                            : 5
Формат                                   : DTS
Формат/Информация                        : Digital Theater Systems
Режим                                    : 16
Параметр Endianness формата              : Big
Идентификатор кодека                     : A_DTS
Продолжительность                        : 2 ч. 18 м.
Вид битрейта                             : Постоянный
Битрейт                                  : 1509 Кбит/сек
Каналы                                   : 6 каналов
Расположение каналов                     : Front: L C R, Side: L R, LFE
Частота                                  : 48,0 КГц
Битовая глубина                          : 16 бит
Метод сжатия                             : С потерями
Размер потока                            : 1,46 Гбайт (7%)
Заголовок                                : Одноголосый закадровый (А.Гаврилов)
Язык                                     : Russian
Default                                  : Нет
Forced                                   : Нет

Аудио #5
Идентификатор                            : 6
Формат                                   : DTS
Формат/Информация                        : Digital Theater Systems
Режим                                    : 16
Параметр Endianness формата              : Big
Идентификатор кодека                     : A_DTS
Продолжительность                        : 2 ч. 18 м.
Вид битрейта                             : Постоянный
Битрейт                                  : 1509 Кбит/сек
Каналы                                   : 6 каналов
Расположение каналов                     : Front: L C R, Side: L R, LFE
Частота                                  : 48,0 КГц
Битовая глубина                          : 16 бит
Метод сжатия                             : С потерями
Размер потока                            : 1,46 Гбайт (7%)
Заголовок                                : Одноголосый закадровый (Ю.Живов)
Язык                                     : Russian
Default                                  : Нет
Forced                                   : Нет

Аудио #6
Идентификатор                            : 7
Формат                                   : DTS
Формат/Информация                        : Digital Theater Systems
Режим                                    : 16
Параметр Endianness формата              : Big
Идентификатор кодека                     : A_DTS
Продолжительность                        : 2 ч. 18 м.
Вид битрейта                             : Постоянный
Битрейт                                  : 1509 Кбит/сек
Каналы                                   : 6 каналов
Расположение каналов                     : Front: L C R, Side: L R, LFE
Частота                                  : 48,0 КГц
Битовая глубина                          : 16 бит
Метод сжатия                             : С потерями
Размер потока                            : 1,46 Гбайт (7%)
Заголовок                                : Одноголосый закадровый (Е.Рудой)
Язык                                     : Russian
Default                                  : Нет
Forced                                   : Нет

Аудио #7
Идентификатор                            : 8
Формат                                   : DTS
Формат/Информация                        : Digital Theater Systems
Режим                                    : 16
Параметр Endianness формата              : Big
Идентификатор кодека                     : A_DTS
Продолжительность                        : 2 ч. 18 м.
Вид битрейта                             : Постоянный
Битрейт                                  : 1509 Кбит/сек
Каналы                                   : 6 каналов
Расположение каналов                     : Front: L C R, Side: L R, LFE
Частота                                  : 48,0 КГц
Битовая глубина                          : 16 бит
Метод сжатия                             : С потерями
Размер потока                            : 1,46 Гбайт (7%)
Заголовок                                : Оригинальный
Язык                                     : English
Default                                  : Нет
Forced                                   : Нет

Текст #1
Идентификатор                            : 9
Формат                                   : UTF-8
Идентификатор кодека                     : S_TEXT/UTF8
Идентификатор кодека/Информация          : UTF-8 Plain Text
Заголовок                                : Russian (Full)
Язык                                     : Russian
Default                                  : Нет
Forced                                   : Нет

Текст #2
Идентификатор                            : 10
Формат                                   : UTF-8
Идентификатор кодека                     : S_TEXT/UTF8
Идентификатор кодека/Информация          : UTF-8 Plain Text
Заголовок                                : English (Full)
Язык                                     : English
Default                                  : Нет
Forced                                   : Нет

Текст #3
Идентификатор                            : 11
Формат                                   : UTF-8
Идентификатор кодека                     : S_TEXT/UTF8
Идентификатор кодека/Информация          : UTF-8 Plain Text
Заголовок                                : English (SDH)
Язык                                     : English
Default                                  : Нет
Forced                                   : Нет

Меню
00:00:00.000                             : en:Trinity's In
00:03:50.230                             : en:Trust Me
00:08:55.368                             : en:Upgrades
00:12:16.903                             : en:Zion
00:16:24.317                             : en:Matter of Time
00:19:43.182                             : en:Homecomings
00:23:29.408                             : en:We Are Still Here
00:27:26.812                             : en:Celebrating Humanity
00:32:01.253                             : en:Smith Will Suffice
00:33:43.188                             : en:What Is Control?
00:37:57.442                             : en:Summoned
00:40:55.620                             : en:Seraph
00:43:44.956                             : en:The Oracle
00:50:42.706                             : en:Swarm of Smiths
00:55:08.472                             : en:Sticking It to Them
01:00:03.099                             : en:The Volunteer
01:02:49.766                             : en:Taste of Merovingian
01:08:52.295                             : en:Persephone's Kiss
01:13:06.882                             : en:Unlocking the Keymaker
01:16:21.410                             : en:Blade Leapers
01:20:31.827                             : en:Twin Trouble
01:22:47.129                             : en:Freeway Entrance
01:26:12.501                             : en:Cross-Vehicular Traffic
01:29:52.887                             : en:Biker Girl
01:32:50.899                             : en:Trucks Amuck
01:37:10.825                             : en:The Reason We're Here
01:40:51.379                             : en:Sacrifice and Sabotage
01:44:57.791                             : en:So Many of Me
01:48:12.152                             : en:The Architect
01:52:25.572                             : en:The One's Function
01:55:42.936                             : en:Neo's Choice
01:57:37.550                             : en:Not Letting Go
02:01:51.471                             : en:Bomb's Target
02:04:18.451                             : en:Feeling the Enemy
02:07:04.116                             : en:End Credits (Calm Like a Bomb, Reload, Sleeping Awake, Session, When the World Ends (Oakenfold Remix))
02:16:29.681                             : en:The Matrix Revolutions Trailer
Премия канала «MTV», 2004 год

Номинации (2):

*** Лучшая драка
*** Лучший поцелуй (Киану Ривз, Моника Беллуччи)

Золотая малина, 2004 год

Номинации (1):

*** Худший режиссер (Энди Вачовски, Лана Вачовски)

Сатурн, 2004 год

Номинации (1):

*** Премия журнала Cinescape (Genre Face of the Future) за лучшую мужскую роль (Клэйтон Уотсон)

Сатурн, 2003 год

Номинации (1):

*** Премия журнала Cinescape (Genre Face of the Future) за лучшую женскую роль (Моника Беллуччи)
*** Фильм был запрещён в Египте, потому что «подстрекает верить в религии, на которых он основан».

*** «Смит» (Smith) буквально означает «кузнец». Регистрационный номер автомобиля, на котором Смит подъезжает к месту встречи повстанцев (cцена «Я ищу Нео») — IS5416, по-видимому, означает цитату из книги пророка Исаии, глава 54, стих 16: «Вот, Я сотворил кузнеца, который раздувает угли в огне и производит орудие для своего дела, — и Я творю губителя для истребления».

*** Фильм был занесен в «Книгу рекордов Гиннеса» как «самый растиражированный фильм», так как он был выпущен в прокат количеством в 8517 копий.

*** Обучение актёров боевым искусствам началось в ноябре 2000 года и продолжалось 8 месяцев.

*** Сцена боя Нео с многочисленными копиями агента Смита снималась в течение 27 дней. В ней участвовали как живые люди, так и компьютерные образы.

*** Имя Меровинджиан в действительности является названием правящей элиты Франции 7 века н. э. Это также — название одной из ветви церкви гностиков, а также имя предполагаемого потомства Иисуса и Марии Магдалины, данное рыцарями Тамплиеров.

*** Титры с указанием создателей картины и актеров составляют 1943 имени.

*** По условиям контракта братья Вачовски на время работы двух продолжений «Матрицы» не должны были давать никаких интервью средствам массовой информации.

*** Во время производства картины актриса Керри-Энн Мосс сломала ногу, Лоренс Фишберн — руку, а у Хьюго Уивинга повредился шейный позвонок.

*** Компания «General Motors» пожертвовала 300 автомобилей для использования в съемках картины, и к их финалу все 300 были разбиты.

*** 17-минутная сцена боя со свитой Меровингена и погони Близнецов стоила около 40 миллионов долларов. Сюда входит и постройка трехполосного шоссе длинной 1,4 мили для сцены погони (после съемок сцены погони, длившейся три месяца, шоссе было разрушено).

*** Флот Зиона составлял 12 судов, 10 из которых упоминаются в трех фильмах о Матрице, а также компьютерной игре «Вход в Матрицу», а ещё 2 — в концептуальных художественных работах.

*** Быстро текущие сверху вниз зеленые глифы (знаки) на компьютерных экранах являются измененными буквами и числами японского письма «катакана».

*** Глориа Фостер (Gloria Foster), актриса, исполнившая роль Оракула в первой «Матрице» скончалась от диабета 29 сентября 2001 года. К этому времени были сняты почти все сцены с ее участием для «Матрицы 2», однако для «Матрицы 3» материал снят не был, так что ее заменила Мэри Элис (Mary Alice).

*** После трагической гибели в авиационной катастрофе 25 августа 2001 года певицы Аалии (Aaliyah), которая должна была сыграть в фильме Зи (Zee), жену водителя корабля Морфеуса, на ее место была приглашена относительно неизвестная актриса Нона Гейе (Nona M. Gaye) — дочь актера Марвина Гейе (Marvin Gaye).

*** Во время съемок в Австралии по договоренности с местными властями на 4 часа было перекрыто все движение в Сиднее. Это было предпринято для обеспечения безопасности при съемках сцены с вертолетом, который пролетал над городом на предельно низкой высоте. На улицах не только перекрыли движение, но и эвакуировали людей из некоторых небоскребов.

*** За участие в двух продолжениях «Матрицы» Киану Ривз по контракту получает 30 миллионов долларов или 15% от сборов обеих серий.

*** В России фильм вышел на экраны 22 мая 2003 года сразу в 157 кинотеатрах.

*** Официально в России премьера фильма состоялась 22 мая 2003 года, но 21-го фильм был бесплатно показан на презентации в Москве и Санкт-Петербурге нового сервера «Microsoft Windows Server 2003».

*** Гонорар братьев Вачовски — режиссеров и сценаристов картины — 10 миллионов долларов и неназванная доля от проката двух фильмов.

*** «Матрица 2» и «Матрица 3» и параллельно с ними компьютерная игра «Вход в Матрицу» (Enter the Matrix) создавались сразу в период с марта 2001 года по 21 августа 2002-го.

*** Фильм снимался в городах Сидней и Редферн (Австралия), а также в городе Окленд (США, штат Калифорния).

*** Машина на которой едут Морфеус, Тринити и Мастер Ключей в сцене погони на шоссе имеет номер «DA 203». В Книге пророка Даниила (англ. Daniel, Dan. 2:3), глава 2, стих 3 читаем: «И сказал им царь: сон снился мне, и тревожится дух мой; желаю знать этот сон».

*** По слухам, Ева Мендес, Саманта Мамба, Брэнди Норвуд и Татьяна Али рассматривались на роль Зи, после смерти Алии.

*** Ларе Датте предлагали роль в двух сиквелах «Матрицы», но она отказалась, т. к. ей не понравился сценарий.

*** Киану Ривз отказался от причитающейся ему доли от продажи билетов, равной примерно $38 миллионам, после того как продюсеры засомневались, что картина никогда не окупит затраты на спецэффекты.

*** Стоимость спецэффектов $100 миллионов.

*** Съёмки автомобильной погони на шоссе продолжались около трех месяцев.

*** Когда Тринити взламывает компьютер на электростанции, она вводит пароль Z1ON0101. Взлом показан очень реалистично. Тринити использует реально существующую программу Nmap version 2,54BETA25, предназначенную для сканирования портов удаленного доступа. По адресу 10.2.22 утилита находит открытый порт, используемый сервисом SSH. Более того, Тринити использует для атаки реальную и довольно известную «дыру» сервиса SSH CRC32. Правда, Тринити атакует «дыру» эксплоитом sshnuke, а это уже плод фантазии режиссера.

*** Красное кресло, в котором сидит Морфеус, объясняя план по получению доступа к Источнику, — это то же самое кресло, в котором Морфеус объяснял Нео, что такое Матрица в первом фильме.

*** Два шоссе, упоминающихся в фильме, идут под номерами 101 и 303. Точно такие же номера были у квартиры Нео и комнаты отеля соответственно в «Матрице» (1999).

*** На грузовике, использованном в сцене автомобильной погони, написано «Big Endian Eggs», что является ссылкой на «Приключения Гулливера».

*** В фильме содержится множество ссылок на число 101.

*** Братьям Вачовски предлагали поставить «Бэтман: Начало» (2005), но они отказались, чтобы сделать сиквелы «Матрицы».

*** Так как Cadillac Escalade EXT ещё не был запущен в производство на момент съёмок фильма, компания General Motors была вынуждена добавить части корпуса Cadillac из стекловолокна на прототип Chevrolet Avalanche, чтобы создать автомобиль близнецов в фильме.

*** В подземном гараже, где герои фильма выбирают машину, можно заметить множество «Кадиллаков», включая 1950s El Dorado и прототип 2004 XLR.

*** Во время съёмок в центре Окленда должны были быть убраны все красные и синие цвета, поэтому были перекрашены все бордюры вдоль тротуаров. Также в кадр не должна была попасть зелень либо какая-либо другая растительность, поэтому съёмки проходили зимой, пока на деревьях не появилась листва.

*** Кэрри-Энн Мосс в некоторых сценах сама сидела за рулем мотоцикла во время погони по шоссе.

*** Роль Серафа была специально написана для Джета Ли. После того как он отклонил предложение, роль переписали под Мишель Йео, но и она отказалась.

*** Кэрри-Энн Мосс потребовалось шесть месяцев, чтобы добиться идеального исполнения удара скорпиона в начале фильма.

*** Французский акцент Ламбера Вильсона, сыгравшего Меровиджиана специально преувеличен. Уилсон прекрасно говорит по-английски, но по просьбе режиссеров в фильме он говорил с очень сильным французским акцентом.

*** Когда Нео дерется с клонами Смита, было использовано несколько нестандартных звуковых эффектов: в один из моментов слышен звук опрокидывающихся домино; в концовке драки, когда Нео бросает Смита в толпу его клонов, слышен звук шара для боулинга, сбивающего кегли.

*** Во время драки Нео с клонами Смита присутствуют четыре полностью компьютерные сцены, где не было задействовано ни одного живого актера. Создатели использовали камеры Sony HDR-900 High Definition, чтобы отсканировать изображения Нео и Смита для сцены драки.

*** Лоренс Фишбёрн, Джада Пинкетт Смит и Энтони Вонг согласились сниматься в фильме, не читая сценария.

*** Оружие близнецов — уже давно вышедшие из употребления опасные бритвы.

*** Мониторы в комнате Архитектора точно такие же, как и мониторы в комнате для допросов в «Матрице» (1999).

*** Лоренс Фишбёрн предложил, чтобы его персонаж снял очки для сцены драки между Морфеусом и агентом на крыше грузовика, чтобы, с одной стороны, напомнить зрителям о схватке Морфеуса с Агентом Смитом в первом фильме, а с другой — ярче подчеркнуть уязвимость своего героя.

*** Пистолет Персефоны — COP. 357. Точно такое же оружие использует Леон Ковалски (Брайон Джеймс) в «Бегущем по лезвию» (1982).

*** Изначально автомобильную погоню хотели снимать на шоссе в Акроне, Огайо. Однако впоследствии создателям фильма пришлось отказаться от данной идеи, т. к. требовалось, по меньшей мере, один час для остановки движения на шоссе.

*** Фильм, который идет по ТВ, в сцене, где Персефона стреляет в одного из парней Меровиджиана, — «Невесты Дракулы» (1960). Моника Беллуччи, исполнившая роль Персефоны, также сыграла невесту Дракулы в «Дракуле» (1992), где также снялся Киану Ривз.

*** Зритель не может расслышать монолога альтер эго Нео на экранах мониторов в комнате Архитектора, однако если включить субтитры на DVD, то можно услышать следующие выкрики: «Ты не можешь меня контролировать! Я размажу тебя на мелкие кусочки! Я убью тебя! Ты не можешь меня заставить, ты старый белый ублюдок!

*** Коммандер Лок — единственный из повстанцев, у кого есть имя в реальном мире.

*** Братья Вачовски предложили роль Персефоны Монике Беллуччи, после того как посмотрели «Малену» (2000).

*** В сцене драки между Нео и тремя агентами в начале фильма, Нео швыряет одного из агентов в фонарный столб, сделанный компанией «Darrow Industries», что является ссылкой на художника по эскизам для фильма Джефри Дэрроу.

*** Изначально создатели хотели выпустить в прокат «Перезагрузку» и «Революцию» с промежутком в несколько недель, а не месяцев.

*** Идея того, что все программы «рождаются» из Источника, сущности чистого света, и возвращаются в него, после того как они выполнили свое предназначение, создана на основе индийского бога Брахма.

*** На 1 января 2009 года «Перезагрузка» — самый кассовый фильм с рейтингом R (международные сборы — $735,000,000).

*** В комнате Архитектора, на многих мониторах идут сцены из «Бараки» (1992).

*** Компания «Samsung» сделала 10,000 мобильных телефонов, таких же как и в фильме (модель SPH-N270), которые были распроданы в кратчайшие сроки.

*** Изначально Шон Коннери должен был сыграть Архитектора, однако он отказался, т. к. не мог понять идею фильма.

Скриншоты:


Матрица: Революция / The Matrix Revolutions «Все, что имеет начало, имеет и конец»
Производство: Australia, USA / Warner Bros., Village Roadshow Pictures, NPV Entertainment
Жанр: фантастика, боевик

Режиссер: Энди Вачовски, Лана Вачовски
Актеры: Киану Ривз, Хьюго Уивинг, Кэрри-Энн Мосс, Лоренс Фишбёрн, Хэролд Перрино, Джина Торрес, Джада Пинкетт Смит, Моника Беллуччи, Гарри Дж. Ленникс, Мэри Элис

Описание фильма: Пока армия Машин пытается уничтожить Зион, его жители из последних сил держат оборону. Но удастся ли им предотвратить полное вторжение в город кишащей орды беспощадных машин до того, как Нео соберет все свои силы и положит конец войне?...

Рейтинг MPAA:
R - Детям до 17 лет обязательно присутствие родителей
Продолжительность: 02:09:15
Качество: BDRip (1080p)

Перевод: профессиональный (полное дублирование), профессиональный (многоголосый закадровый), профессиональный (двуголосый закадровый), авторский (одноголосый закадровый)
Вид субтитров: вшитые отключаемые
Язык субтитров: русские, английские (Full, SDH)

Видео: MPEG-4 AVC/H.264, 1920 x 798 (2,40:1), 11 000 kbps, 23.976 fps, 0.299 b/px
Аудио # 1: AC3, 6 ch, 640 kbps, 48 000 Hz [дублированный (Blu-Ray CEE)]
Аудио # 2: DTS, 6 ch, 1509 kbps, 48 000 Hz [многоголосый закадровый]
Аудио # 3: DTS, 6 ch, 1509 kbps, 48 000 Hz [двуголосый закадровый (П.Гланц и И.Королёва)]
Аудио # 4: DTS, 6 ch, 1509 kbps, 48 000 Hz [одноголосый закадровый (А.Гаврилов)]
Аудио # 5: DTS, 6 ch, 1509 kbps, 48 000 Hz [одноголосый закадровый (Ю.Живов)]
Аудио # 6: DTS, 6 ch, 1509 kbps, 48 000 Hz [оригинальный]
Код: выделить все
Общее
Уникальный идентификатор                 : 241825888182639325391295723747862202779 (0xB5EDF8D0EC0F92D89DB05E10A8D5499B)
Полное имя                               : E:\Матрица. Трилогия [BDRip] [1080p]\[2003] Матрица. Революция [BDRip] [1080p].mkv
Формат                                   : Matroska
Версия формата                           : Version 4 / Version 2
Размер файла                             : 17,3 Гбайт
Продолжительность                        : 2 ч. 9 м.
Общий поток                              : 19,2 Мбит/сек
Название фильма                          : Матрица: Революция / The Matrix Revolutions (2003) BDRip [1080p]
Дата кодирования                         : UTC 2015-02-12 20:19:29
Программа кодирования                    : mkvmerge v7.6.0 ('Garden of Dreams') 32bit built on Feb  8 2015 12:51:39
Библиотека кодирования                   : libebml v1.3.1 + libmatroska v1.4.2
DURATION                                 : 02:07:54.332000000
NUMBER_OF_FRAMES                         : 1110
NUMBER_OF_BYTES                          : 38362
_STATISTICS_WRITING_APP                  : mkvmerge v7.6.0 ('Garden of Dreams') 32bit built on Feb  8 2015 12:51:39
_STATISTICS_WRITING_DATE_UTC             : 2015-02-12 20:19:29
_STATISTICS_TAGS                         : BPS DURATION NUMBER_OF_FRAMES NUMBER_OF_BYTES

Видео
Идентификатор                            : 1
Формат                                   : AVC
Формат/Информация                        : Advanced Video Codec
Профиль формата                          : High@L4.1
Параметр CABAC формата                   : Да
Параметр ReFrames формата                : 5 кадров
Идентификатор кодека                     : V_MPEG4/ISO/AVC
Продолжительность                        : 2 ч. 9 м.
Битрейт                                  : 11,0 Мбит/сек
Ширина                                   : 1920 пикселей
Высота                                   : 798 пикселей
Соотношение сторон                       : 2,40:1
Режим частоты кадров                     : Постоянный
Частота кадров                           : 23,976 кадра/сек
Цветовое пространство                    : YUV
Субдискретизация насыщенности            : 4:2:0
Битовая глубина                          : 8 бит
Тип развёртки                            : Прогрессивная
Бит/(Пиксели*Кадры)                      : 0.299
Размер потока                            : 9,59 Гбайт (55%)
Заголовок                                : [2003] Матрица: Революция / The Matrix Revolutions [BDRip] [1080p]
Библиотека кодирования                   : x264 core 122 r2184kMod 5c85e0a
Настройки программы                      : cabac=1 / ref=5 / deblock=1:-3:-3 / analyse=0x3:0x133 / me=umh / subme=11 / psy=1 / fade_compensate=0.00 / psy_rd=1.20:0.00 / mixed_ref=1 / me_range=32 / chroma_me=0 / trellis=2 / 8x8dct=1 / cqm=0 / deadzone=21,11 / fast_pskip=0 / chroma_qp_offset=-2 / threads=6 / sliced_threads=0 / nr=0 / decimate=0 / interlaced=0 / bluray_compat=0 / constrained_intra=0 / bframes=0 / weightp=2 / keyint=250 / keyint_min=23 / scenecut=40 / intra_refresh=0 / rc=2pass / mbtree=0 / bitrate=11000 / ratetol=1.0 / qcomp=0.70 / qpmin=10 / qpmax=51 / qpstep=4 / cplxblur=20.0 / qblur=0.5 / ip_ratio=1.30 / aq=3:0.50
Язык                                     : English
Default                                  : Да
Forced                                   : Нет

Аудио #1
Идентификатор                            : 2
Формат                                   : AC-3
Формат/Информация                        : Audio Coding 3
Расширение режима                        : CM (complete main)
Параметр Endianness формата              : Big
Идентификатор кодека                     : A_AC3
Продолжительность                        : 2 ч. 9 м.
Вид битрейта                             : Постоянный
Битрейт                                  : 640 Кбит/сек
Каналы                                   : 6 каналов
Расположение каналов                     : Front: L C R, Side: L R, LFE
Частота                                  : 48,0 КГц
Битовая глубина                          : 16 бит
Метод сжатия                             : С потерями
Размер потока                            : 592 Мбайт (3%)
Заголовок                                : Дублированный (Blu-Ray CEE)
Язык                                     : Russian
Default                                  : Да
Forced                                   : Нет

Аудио #2
Идентификатор                            : 3
Формат                                   : DTS
Формат/Информация                        : Digital Theater Systems
Режим                                    : 16
Параметр Endianness формата              : Big
Идентификатор кодека                     : A_DTS
Продолжительность                        : 2 ч. 9 м.
Вид битрейта                             : Постоянный
Битрейт                                  : 1509 Кбит/сек
Каналы                                   : 6 каналов
Расположение каналов                     : Front: L C R, Side: L R, LFE
Частота                                  : 48,0 КГц
Битовая глубина                          : 16 бит
Метод сжатия                             : С потерями
Размер потока                            : 1,36 Гбайт (8%)
Заголовок                                : Многоголосый закадровый
Язык                                     : Russian
Default                                  : Нет
Forced                                   : Нет

Аудио #3
Идентификатор                            : 4
Формат                                   : DTS
Формат/Информация                        : Digital Theater Systems
Режим                                    : 16
Параметр Endianness формата              : Big
Идентификатор кодека                     : A_DTS
Продолжительность                        : 2 ч. 9 м.
Вид битрейта                             : Постоянный
Битрейт                                  : 1509 Кбит/сек
Каналы                                   : 6 каналов
Расположение каналов                     : Front: L C R, Side: L R, LFE
Частота                                  : 48,0 КГц
Битовая глубина                          : 16 бит
Метод сжатия                             : С потерями
Размер потока                            : 1,36 Гбайт (8%)
Заголовок                                : Двуголосый закадровый (П.Гланц и И.Королёва)
Язык                                     : Russian
Default                                  : Нет
Forced                                   : Нет

Аудио #4
Идентификатор                            : 5
Формат                                   : DTS
Формат/Информация                        : Digital Theater Systems
Режим                                    : 16
Параметр Endianness формата              : Big
Идентификатор кодека                     : A_DTS
Продолжительность                        : 2 ч. 9 м.
Вид битрейта                             : Постоянный
Битрейт                                  : 1509 Кбит/сек
Каналы                                   : 6 каналов
Расположение каналов                     : Front: L C R, Side: L R, LFE
Частота                                  : 48,0 КГц
Битовая глубина                          : 16 бит
Метод сжатия                             : С потерями
Размер потока                            : 1,36 Гбайт (8%)
Заголовок                                : Одноголосый закадровый (А.Гаврилов)
Язык                                     : Russian
Default                                  : Нет
Forced                                   : Нет

Аудио #5
Идентификатор                            : 6
Формат                                   : DTS
Формат/Информация                        : Digital Theater Systems
Режим                                    : 16
Параметр Endianness формата              : Big
Идентификатор кодека                     : A_DTS
Продолжительность                        : 2 ч. 9 м.
Вид битрейта                             : Постоянный
Битрейт                                  : 1509 Кбит/сек
Каналы                                   : 6 каналов
Расположение каналов                     : Front: L C R, Side: L R, LFE
Частота                                  : 48,0 КГц
Битовая глубина                          : 16 бит
Метод сжатия                             : С потерями
Размер потока                            : 1,36 Гбайт (8%)
Заголовок                                : Одноголосый закадровый (Ю.Живов)
Язык                                     : Russian
Default                                  : Нет
Forced                                   : Нет

Аудио #6
Идентификатор                            : 7
Формат                                   : DTS
Формат/Информация                        : Digital Theater Systems
Режим                                    : 16
Параметр Endianness формата              : Big
Идентификатор кодека                     : A_DTS
Продолжительность                        : 2 ч. 9 м.
Вид битрейта                             : Постоянный
Битрейт                                  : 1509 Кбит/сек
Каналы                                   : 6 каналов
Расположение каналов                     : Front: L C R, Side: L R, LFE
Частота                                  : 48,0 КГц
Битовая глубина                          : 16 бит
Метод сжатия                             : С потерями
Размер потока                            : 1,36 Гбайт (8%)
Заголовок                                : Оригинальный
Язык                                     : English
Default                                  : Нет
Forced                                   : Нет

Текст #1
Идентификатор                            : 8
Формат                                   : UTF-8
Идентификатор кодека                     : S_TEXT/UTF8
Идентификатор кодека/Информация          : UTF-8 Plain Text
Заголовок                                : Russian (Full)
Язык                                     : Russian
Default                                  : Нет
Forced                                   : Нет

Текст #2
Идентификатор                            : 9
Формат                                   : UTF-8
Идентификатор кодека                     : S_TEXT/UTF8
Идентификатор кодека/Информация          : UTF-8 Plain Text
Заголовок                                : English (Full)
Язык                                     : English
Default                                  : Нет
Forced                                   : Нет

Текст #3
Идентификатор                            : 10
Формат                                   : UTF-8
Идентификатор кодека                     : S_TEXT/UTF8
Идентификатор кодека/Информация          : UTF-8 Plain Text
Заголовок                                : English (SDH)
Язык                                     : English
Default                                  : Нет
Forced                                   : Нет

Меню
00:00:00.000                             : en:20 Hours to Go
00:03:55.402                             : en:Trapped
00:07:33.119                             : en:The Connection Matters
00:10:19.953                             : en:Down Here I'm God
00:14:44.383                             : en:Coat-Check Chaos
00:17:58.744                             : en:Interesting Deal
00:23:33.245                             : en:The End Is Coming
00:30:06.304                             : en:We Meet at Last
00:35:35.633                             : en:The Logos Found
00:39:34.205                             : en:Volunteers
00:42:58.910                             : en:I Believe in Him
00:46:43.300                             : en:Nothing's Changed
00:49:02.606                             : en:Stowaway
00:51:53.610                             : en:See Your Enemy
00:58:00.644                             : en:Give 'em Hell
01:00:19.115                             : en:Detected
01:02:29.746                             : en:Breaching the Dome
01:08:00.910                             : en:Storming Sentinels
01:10:29.225                             : en:Trying to Keep Up
01:14:33.803                             : en:Unfinished Business
01:18:23.365                             : en:Hell of a Pilot
01:23:08.984                             : en:Report to the Council
01:25:55.817                             : en:Believers
01:29:13.348                             : en:Glimpse of the Sky
01:31:51.673                             : en:Saying What Matters
01:36:51.472                             : en:A Truce
01:41:55.276                             : en:It Ends Tonight
01:44:53.120                             : en:Urban Splash
01:48:06.647                             : en:Neo's Choice
01:51:30.851                             : en:Inevitable and Over
01:55:05.899                             : en:Real Peace
01:57:31.211                             : en:Freedom and Sunlight
02:00:12.372                             : en:End Credits
Сатурн, 2004 год

Номинации (3):

*** Лучший научно-фантастический фильм
*** Лучшие костюмы
*** Лучшие спецэффекты
*** Актриса Глория Фостер, игравшая роль Пифии в первых двух частях, умерла до того, как успела сыграть свою роль в третьем фильме, и её заменила актриса Мэри Элис. Режиссёры добавили в сюжет оговорку по этому поводу, чтобы оправдать смену внешнего облика героини, также они признались, что по стечению обстоятельств в одном из вариантов сценария Пифия действительно должна была сменить облик.

*** Черный кот в концовке фильма — это тот же самый кот в дежа-вю сцене в «Матрице» (1999).

*** Вдохновением для финальной схватки между Смитом и Нео создателям послужил финальный бой в «Спрятаться негде» (1999).

*** Премьера фильма состоялась одновременно в крупнейших городах мира: 5 ноября в 6:00 в Лос-Анджелесе (по местному времени), 9:00 в Нью-Йорке, 14:00 в Лондоне, 17:00 в Москве, 23:00 в Токио, в 1:00 в Сиднее, а также еще в 50 странах по всему миру.

*** Команде по спецэффектам потребовалось два месяца, чтобы разработать машины для имитации идеально ровно падающих капель дождя.

*** Когда Нео идет к Оракулу на заднем фоне играет «I`m Beginning to See the Light», та же самая композиция в другой версии играет в схожей сцене в «Матрице» (1999).

*** Оракул курит сигареты «Double Destiny».

*** Когда Тринити преследует Проводника, то можно заметить рекламу «Powerade». Когда «Матрица: Перезагрузка» появилась на экранах, в США вышли рекламные ролики «Powerade» в стиле «Матрицы».

*** Корабль, который упоминается как «Молот», на самом деле называется «Мьёлльнир», по названию молота Тора (бога грома, бурь и плодородия в германско-скандинавской мифологии).

*** Йен Блисс получил роль в фильме частично из-за своего внешнего сходства с Хьюго Уивингом.

*** В фильме содержится 804 сцены со спецэффектами.

*** Название станции между Миром машин и Матрицей — Mobil Ave. Mobil — анаграмма от Limbo, что в переводе означает чистилище, место между раем и адом.

*** В финальной сцене фильма зритель впервые за всю трилогию видит зеленые цвета и голубое небо внутри Матрицы.

*** Название музыкальной темы финального боя между Нео и Смитом — «Neodmmerung» — происходит из немецкого слова «Gotterdmmerung» (дословно «сумерки богов»). Это также название части оперы Вагнера «Кольцо Нибелунгов». В «Gotterdmmerung» речь шла о финальной битве между богами, которая привела к их уничтожению. Зная, что произойдет, боги сражались за выживание человечества. Название музтемы не только подходит под сюжетную составляющую сцены, но и также подчеркивает влияние музыки Вагнера на запись саундтрека фильма.

*** Съемки фильмов «Матрица: Перезагрузка» (2003) и «Матрица: Революция» (2003) начались одновременно в Окленде и Сан-Франциско в конце марта 2001 года. Фактический график съемок составил 250 дней.

*** Улица, на которой Нео и Смит дерутся в концовке фильма, — это та же самая улица, с которой Нео звонил в концовке «Матрицы» (1999).

*** Во время финальной схватки между Нео и Смитом и во время финальных титров, повторяется санскритская слока в европейском стиле: «Asatoma Sat Gamaya, Tamasoma Jyotir Gamaya, Mrityorma Anritam Gamaya», — что при дословном переводе означает: «Веди меня из нереальности в реальность, веди меня из тьмы в свет, веди меня из временного в вечность».

*** Многие «дождевые капли» в финальном бое между Нео и Смитом — это на самом деле однолинейный матричный код, схожий с тем, что видят герои на экранах компьютеров, когда наблюдают за Матрицей. Данный эффект был специально добавлен, чтобы показать, что Матрица начала дестабилизироваться. Эффект очень хорошо заметен на крупных экранах кинотеатров, но его также можно увидеть и на экранах домашних телевизоров: во время крупных планов обратите внимание на капли, «прыгающие» словно элетростатистические помехи.

Скриншоты:


Скриншоты:

«Аниматрица»
Время раздачи: С 09:00 до 23:00 до 5 скачавших
[NNM-Club.me]_Matritsa. Trilogiya [BDRip] [1080p].torrent
 Торрент: Платиновая раздача  Зарегистрирован
 
Скачать


Примагнититься
 Зарегистрирован:   13 Фев 2015 00:29:50
 Размер:   58.4 GB  (
 Рейтинг:   4.9 (Голосов: 291)
 Поблагодарили:   871
 Проверка:   Оформление проверено модератором 14 Фев 2015 19:21:38
Как cкачать  ·  Как раздать  ·  Правильно оформить  ·  Поднять ратио!  

_________________
Лучше быть умным и иногда тупить,
чем быть тупым и постоянно умничать!...
Bullwes
Стаж: 12 лет 9 мес.
Сообщений: 268
Ratio: 9.591
Поблагодарили: 14
100%
russia.gif
Классика! спасибо :)

_________________
AMD Ryzen 7 5700х, GIGABYTE B450 AORUS M, G.Skill 2*16Gb 3600 Мгц, SSD M.2 A-DATA LEGEND 900 + WD 1Tb + WD 2Tb, GIGABYTE 4070 Super. MSI 321Q ; Philips 65OLED706/12 + PS5
Switch Lite чип
Doktor ®
 
Стаж: 9 лет 5 мес.
Сообщений: 962
Ratio: 304.327
Раздал: 123.8 TB
Поблагодарили: 182650
100%
ussr.gif
Bullwes писал(а): Перейти к сообщению
Классика! спасибо :)

Пожалуйста.
Самому нравится :стрельба:

_________________
Лучше быть умным и иногда тупить,
чем быть тупым и постоянно умничать!...
BlackShtil
 
Стаж: 12 лет 7 мес.
Сообщений: 79
Ratio: 34.388
Поблагодарили: 6
100%
russia.gif
Вот спасибо)))

_________________
GIGABYTE Radeon RX 6700 XT EAGLE 12GB.
AMD Ryzen 5 5600X.
ASUS TUF GAMING B550M-PLUS WIFI II
XPG Spectrix D41 16 ГБ.
Ну и там SSD, M2, вот это всё...
DvorakPlus
Стаж: 9 лет 3 мес.
Сообщений: 48
Ratio: 0.137
Раздал: 65.2 GB
100%
Как фильм? Стоит смотреть?
Deathguru
Стаж: 14 лет 2 мес.
Сообщений: 209
Ratio: 2.521
Поблагодарили: 256
22.77%
russia.gif
первую часть однозначно да. от последующих я юы воздержался.
Дерик
Стаж: 14 лет 2 мес.
Сообщений: 166
Ratio: 0.511
Раздал: 1.1 TB
Поблагодарили: 2402
1.79%
ukraine.gif
Любимый фильм. С удовольствием пересмотрю
Mr_Romizz
Только чтение
Стаж: 12 лет 11 мес.
Сообщений: 1817
Ratio: 1.569
52.14%
Откуда: Санкт-Петербург
russia.gif
первая часть - бомба, пересмотрю ) спс
Dedfar
Стаж: 13 лет 5 мес.
Сообщений: 41
Ratio: 21.433
Поблагодарили: 185
100%
Подскажите как скачать только первую часть?! :шок:
Alex0099
Стаж: 12 лет 10 мес.
Сообщений: 6
Ratio: 10.592
100%
В мюторренте на вкладке "Файлы" (в нижней части программы) на ненужных частях кликните правой кнопкой мыши и выберите "Не загружать".
Mechanikal Zombie
Стаж: 13 лет 4 мес.
Сообщений: 53
Ratio: 31.895
Поблагодарили: 115
100%
Смысла нет смотреть только 1 часть. Вся трилогия - шедевр.
da771
Uploader 300+
Стаж: 12 лет 5 мес.
Сообщений: 863
Ratio: 1354.368
Раздал: 703.1 TB
100%
ussr.gif
Один из любимых фильмов, просмотрен много раз.
Перекачаю пожалуй с DTS ))
Спасибо
valiksvp
Стаж: 16 лет 11 мес.
Сообщений: 71
Ratio: 7.982
Поблагодарили: 625
30.51%
Откуда: Lvov
ukraine.gif
Может кто подскажет, как изменить звуковую дорожку? Хочу в оригинале посмотреть, а не могу :(

_________________
"Есть многое на свете, друг Горацио,что человеку знать не положено."
Гамлет.
aceuqe
Стаж: 10 лет 9 мес.
Сообщений: 35
Ratio: 3.551
69.17%
я не пойму куча рипов на трекере и нет ни одного в достойном качестве и без черных полос (есть без них, но картинка обрезана)!! Как так? Благо я не удалил из-за нехватки места полнокадровые версии.
Вообще есть у кого 1080 полным кадром сборник?
Darktower
Стаж: 16 лет 9 мес.
Сообщений: 159
Ratio: 3.848
100%
ussr.gif
Ты будешь удивлён, но полоски потому что он снят вот в таком широкоэкранном формате. Чтобы сделать "полный" экран, надо обрезать картинку по бокам. Широкоэкранных форматов - масса, а без полосок на современные телевизоры вписывается только один. Если, конечно, телевизор не 4:3, туда вообще ни один без полосок не впишется)))

_________________
В жизни всегда место подвигу есть!
Показать сообщения:   
Начать новую тему   Ответить на тему    Торрент-трекер NNM-Club -> Коллекции / *логии -> Зарубежное кино (коллекции / *логии) Часовой пояс: GMT + 3
Страницы:  1, 2  След.
Страница 1 из 2