Классический форум-трекер
canvas not supported
Нас вместе: 4 233 674

Ликвидация (2007) DVDRip (серии 1-14 из 14)


 
 
RSS
Начать новую тему   Ответить на тему    Торрент-трекер NNM-Club -> Отечественные сериалы
Автор Сообщение
smpeal ®
Стаж: 11 лет 9 мес.
Сообщений: 62
Ratio: 100.011
Поблагодарили: 7340
100%
ussr.gif
Ликвидация (2007) DVDRip (серии 1-14 из 14)
Производство: Россия, студия "Дед Мороз"
Жанр: боевик, триллер

Режиссер: Сергей Урсуляк
Актеры: Владимир Машков, Михаил Пореченков, Владимир Меньшов, Сергей Маковецкий, Константин Лавроненко, Сергей Угрюмов, Светлана Крючкова, Юрий Лахин, Александр Сирин, Константин Желдин, Полина Агуреева, Лика Нифонтова, Ксения Раппопорт, Виктор Смирнов, Федор Добронравов, Борис Каморзин, Александр Семчев, Максим Дрозд, Коля Спиридонов, Олег Басилашвили, Сергей Рубеко

Описание:
Послевоенная Одесса, разгул преступности. В городе орудует банда бывших диверсантов во главе с загадочным Академиком, которого не знают даже свои. Бандиты грабят военные склады и пытаются переправить продовольствие, обмундирование и оружие бандеровцам. В это время недовольный Жуковым Сталин назначает его командующим Одесским округом. Маршал всеми силами пытается навести в городе порядок.


Возраст: 16+ (зрителям, достигшим 16 лет)

Продолжительность: ~00:45:00 серия
Качество видео: DVDRip

Видеокодек: Xvid
Битрейт видео: ~1532 Kbps
Размер кадра: 704x416
Аудиокодек: AC3 5.1
Битрейт аудио: 448 Kbps
Код: выделить все

Общее
Полное имя                               : Y:\Отечественные сериалы\Ликвидация  (14 серий из 14, 2007) DVDRip\Ликвидация (01 серия из 14, 2007) DVDRip.avi
Формат                                   : AVI
Формат/Информация                        : Audio Video Interleave
Размер файла                             : 656 Мбайт
Продолжительность                        : 46 м.
Общий поток                              : 1990 Кбит/сек
Программа кодирования                    : VirtualDubModRus 1.5.10.2 (build 2542/release)
Библиотека кодирования                   : VirtualDubMod build 2542/release

Видео
Идентификатор                            : 0
Формат                                   : MPEG-4 Visual
Профиль формата                          : Advanced Simple@L5
Параметр BVOP формата                    : 2
Параметр QPel формата                    : Нет
Параметр GMC формата                     : Без точки перехода
Параметр матрицы формата                 : Default (H.263)
Режим смешивания                         : Сжатый битовый поток
Идентификатор кодека                     : XVID
Идентификатор кодека/Подсказка           : XviD
Продолжительность                        : 46 м.
Битрейт                                  : 1532 Кбит/сек
Ширина                                   : 704 пикселя
Высота                                   : 416 пикселей
Соотношение сторон                       : 1,692
Частота кадров                           : 25,000 кадров/сек
Цветовое пространство                    : YUV
Субдискретизация насыщенности            : 4:2:0
Битовая глубина                          : 8 бит
Тип развёртки                            : Прогрессивная
Метод сжатия                             : С потерями
Бит/(Пиксели*Кадры)                      : 0.209
Размер потока                            : 505 Мбайт (77%)
Библиотека кодирования                   : XviD 64

Аудио
Идентификатор                            : 1
Формат                                   : AC-3
Формат/Информация                        : Audio Coding 3
Расширение режима                        : CM (complete main)
Параметр Endianness формата              : Big
Идентификатор кодека                     : 2000
Продолжительность                        : 46 м.
Вид битрейта                             : Постоянный
Битрейт                                  : 448 Кбит/сек
Каналы                                   : 6 каналов
Расположение каналов                     : Front: L C R, Side: L R, LFE
Частота                                  : 48,0 КГц
Битовая глубина                          : 16 бит
Метод сжатия                             : С потерями
Задержка видео                           : 750 мс.
Размер потока                            : 148 Мбайт (23%)
Выравнивание                             : Разделение по промежуткам
Продолжительность промежутка             : 40  мс. (1,00 видеокадр)
Время предзагрузки промежутка            : 500  мс.
  • Роль Фимы должен был сыграть Андрей Краско, но актер успел провести на съемках только три дня, после чего внезапно умер. Его место в фильме занял Сергей Маковецкий.
  • В конце 40-х годов УГРО находился по адресу: ул. Еврейская, 12. Сейчас там находится управление МВД Украины в Одесской области, поэтому для съемок пришлось искать другое здание. Его нашли на ул. Ланжероновской, рядом с киношной Ставкой Жукова, — жилой дом с крылечком, которое выходит на Ланжероновскую. Возле этого крылечка приделали официальную табличку УГРО.
  • Ставку Жукова снимали во Дворце моряков. С июня 1946 по февраль 1948 года ставка находилась в здании штаба Одесского военного округа. Это здание расположено недалеко от центра города, на улице Пироговской, возле Французского бульвара. Снимать кино в нем было нельзя, потому что это до сих пор режимный объект — штаб округа и поныне там. Поэтому решили «загримировать» под ставку Жукова здание Дворца моряков на Приморском бульваре.
  • В трех эпизодах фильма в кадре появляется старинный трамвайчик: герой Владимира Машкова гоняется на нем за бандитами. Это настоящий трамвай 1932 года выпуска. Киношники ездили за ним в Харьков.
  • Снимали фильм в сердце Молдаванки, на улице Колонтаевской, 21. Натуру переделывать почти не пришлось: разруха и серость двора очень даже устроили режиссера.
  • Сценарист сериала Алексей Поярков несколько месяцев знакомился с языком Одессы: ездил по городу на общественном транспорте и встречался с местными коллекционерами речи.
  • Во время съемок актеров знаменитому говору обучал местный лингвист. А вот Сергей Маковецкий брал уроки у своей жены, бывшей одесситки. Владимир Машков шагнул еще дальше, и составил свой словарный запас жаргонных словечек общаясь с местными «авторитетами» на пенсии.
  • Сценарий фильма основывается на реальных событиях, происходивших в послевоенной Одессе, в том же самом месте.
    Съемки сериала длились 7 месяцев.
  • Актриса, за героиней которой ухаживает герой Машкова, это жена режиссёра Сергея Урсулюка.
  • Удивительно, но факт — Одесская киностудия снимала кино про москвича Жеглова из МУРа, а Мосфильм снял фильм про одессита Гоцмана.
Скриншоты:
Все релизы сериала "Ликвидация" на NNM-Club
Время раздачи: По выходным с 12-24, иногда вечером в будни
[NNM-Club]_Likvidacia_serial_2007_DVDRip.avi.torrent
 Торрент: Платиновая раздача  Зарегистрирован
 
Скачать


Примагнититься
 Зарегистрирован:   23 Фев 2015 01:42:03
 Размер:   8.74 GB  (
 Рейтинг:   4.6 (Голосов: 133)
 Поблагодарили:   482
 Проверка:   Оформление проверено модератором 23 Фев 2015 10:46:14
Как cкачать  ·  Как раздать  ·  Правильно оформить  ·  Поднять ратио!  
Other s
Uploader 500+
Стаж: 13 лет 10 мес.
Сообщений: 8644
Ratio: 2113.646
Поблагодарили: 765562
100%
ussr.gif
Сериал замечательный!
kitoboy2008
Стаж: 13 лет 2 мес.
Сообщений: 35
Ratio: 2.15
100%
russia.gif
классика класс
Показать сообщения:   
Начать новую тему   Ответить на тему    Торрент-трекер NNM-Club -> Отечественные сериалы Часовой пояс: GMT + 3
Страница 1 из 1