Классический форум-трекер
canvas not supported
Нас вместе: 4 210 968

Интерстеллар / Interstellar (2014) BDRip [Line]


Страницы:  1, 2  След. 
 
RSS
Начать новую тему   Ответить на тему    Торрент-трекер NNM-Club -> Архив торрентов -> Архив Видео
Автор Сообщение
Asha12 ®
Uploader 100+
Стаж: 12 лет 7 мес.
Сообщений: 1882
Ratio: 570.014
Поблагодарили: 1184911
100%
ussr.gif
Интерстеллар / Interstellar (2014) BDRip
Производство: США, Великобритания / Legendary Pictures, Lynda Obst Productions, Paramount Pictures, Saga Film, Syncopy, Warner Bros. Pictures
Жанр: Фантастика, Драма, Приключения

Режиссер: Кристофер Нолан
Продюсер: Кристофер Нолан, Линда Обст, Эмма Томас
Актеры: Мэттью МакКонахи, Энн Хэтэуэй, Джессика Честейн, Мэтт Дэймон, Уэс Бентли, Кейси Аффлек, Майкл Кейн, Тофер Грэйс, МакКензи Фой, Джон Литгоу, Эллен Бёрстин

Описание фильма:
Когда засуха приводит человечество к продовольственному кризису, коллектив исследователей и учёных отправляется сквозь червоточину (которая предположительно соединяет области пространства-времени через большое расстояние) в путешествие, чтобы превзойти прежние ограничения для космических путешествий человека и переселить человечество на другую планету.



Дата мировой премьеры: 26 октября 2014
Дата российской премьеры: 6 ноября 2014, «Каро-Премьер»
Дата выхода DVD релиза: 26 марта 2015, «CP Дистрибуция»

Продолжительность: 02:49:04
Качество видео: BDRip (Рип с Blu-Ray)
Перевод: Дублированный (чистый звук) Официальный
Субтитры: Отсутствуют

Видеокодек: Xvid
Битрейт видео: ~1020 kb/s
Размер кадра: 688x288
Аудиокодек: AC3 2.0
Битрейт аудио: 128 kb/s
Сэмпл: Скачать
Общее
Полное имя : Interscellar.2014.D.HDRip.1400Mb.nnm-club.avi
Формат : AVI
Формат/Информация : Audio Video Interleave
Размер файла : 1,37 Гбайт
Продолжительность : 2 ч. 49 м.
Общий поток : 1157 Кбит/сек
Программа кодирования : VirtualDubMod 1.5.10.2 (build 2540/release)
Библиотека кодирования : VirtualDubMod build 2540/release

Видео
Идентификатор : 0
Формат : MPEG-4 Visual
Профиль формата : Advanced Simple@L5
Параметр BVOP формата : 2
Параметр QPel формата : Нет
Параметр GMC формата : Без точки перехода
Параметр матрицы формата : Default (MPEG)
Идентификатор кодека : XVID
Идентификатор кодека/Подсказка : XviD
Продолжительность : 2 ч. 49 м.
Битрейт : 1020 Кбит/сек
Ширина : 688 пикселей
Высота : 288 пикселей
Соотношение сторон : 2,40:1
Частота кадров : 23,976 кадра/сек
Цветовое пространство : YUV
Субдискретизация насыщенности : 4:2:0
Битовая глубина : 8 бит
Тип развёртки : Прогрессивная
Метод сжатия : С потерями
Бит/(Пиксели*Кадры) : 0.215
Размер потока : 1,20 Гбайт (88%)
Библиотека кодирования : XviD 1.2.1 (UTC 2008-12-04)

Аудио
Идентификатор : 1
Формат : AC-3
Формат/Информация : Audio Coding 3
Расширение режима : CM (complete main)
Параметр Endianness формата : Big
Идентификатор кодека : 2000
Продолжительность : 2 ч. 49 м.
Вид битрейта : Постоянный
Битрейт : 128 Кбит/сек
Каналы : 2 канала
Расположение каналов : Front: L R
Частота : 48,0 КГц
Битовая глубина : 16 бит
Метод сжатия : С потерями
Размер потока : 155 Мбайт (11%)
Выравнивание : Разделение по промежуткам
Продолжительность промежутка : 42 мс. (1,00 видеокадр)
Время предзагрузки промежутка : 500 мс.
Скриншоты:


Время раздачи: 24/7 (до 10 скачавших)
 Торрент: Платиновая раздача  Зарегистрирован
 
Скачать


Примагнититься
 Зарегистрирован:   15 Мар 2015 02:57:51
 Размер:   1.37 GB  (
 Рейтинг:   4.7 (Голосов: 220)
 Поблагодарили:   1009
 Проверка:   Оформление проверено модератором 15 Мар 2015 12:23:18
Как cкачать  ·  Как раздать  ·  Правильно оформить  ·  Поднять ратио!  
Mindkilla
Стаж: 9 лет 8 мес.
Сообщений: 2681
Ratio: 25.795
100%
Откуда: Amalfi
japan.gif
Я, наверное, отношусь к числу тех немногих, кому фильм не понравился.
Хотя нет. Музыка, конечно, в фильме хороша :).
P.S. В кинотеатре смотрел.
SergeFSW
Стаж: 13 лет 7 мес.
Сообщений: 365
Ratio: 1.613
100%
russia.gif
Mindkilla писал(а): Перейти к сообщению
Я, наверное, отношусь к числу тех немногих, кому фильм не понравился.
Хотя нет. Музыка, конечно, в фильме хороша :).
P.S. В кинотеатре смотрел.

Ты не один. Не фильм, а нагромождение технических, физических и тд ошибок. :кругом голова:
MuseKeeper
Стаж: 9 лет 10 мес.
Сообщений: 1
Ratio: 2.181
27.91%
Силком никто смотреть не заставляет.
Sagatkali
Стаж: 11 лет 6 мес.
Сообщений: 335
Ratio: 7.539
100%
kazakhstan.gif
Спасибо!!!
TruckS-TP
Стаж: 12 лет 9 мес.
Сообщений: 85
Ratio: 1.863
97.98%
russia.gif
смотрел в кино.
отличнейший фильм.
лучшее что смотрел в 2014 году.
TRIAX2009
Стаж: 11 лет 7 мес.
Сообщений: 47
Ratio: 4.453
100%
belarus.gif
в списке файлов HDRip у вас BDRip так все таки какой может Blu-Ray
Fedja007
Стаж: 12 лет 8 мес.
Сообщений: 57
Ratio: 53.878
100%
Поделили на ноль
asprivate55
Стаж: 11 лет 2 мес.
Сообщений: 61
Ratio: 3.388
22.05%
Ага, точно, а на ноль нельзя делить
Devel87
Стаж: 9 лет 3 мес.
Сообщений: 1278
Ratio: 45.153
100%
vietnam.gif
Mindkilla
SergeFSW
Не нравиться-шагайте мимо
Не прошло и ста лет:уж думал совсем не дождусь хотя-бы такого качества.Благодарю за труды
SergeFSW
Стаж: 13 лет 7 мес.
Сообщений: 365
Ratio: 1.613
100%
russia.gif
Devel87 писал(а): Перейти к сообщению
Mindkilla
SergeFSW
Не нравиться-шагайте мимо

Начальник? Так вот тебя то и не спрашивали. Мы высказали своё, личное мнение. Так же как и ты.
GiurzaUfa
Стаж: 11 лет
Сообщений: 66
Ratio: 9.812
100%
Один из фильмов, который оправдал ожидания!) Ну а тем кому не понравился с точки зрения ошибок, ну во-первых - это все таки кино(обязательно помним об этом), хоть консультантом и был физик-теоретик Кип Торн, профессор Калифорнийского технологического института. Ну а во-вторых не нужно сравнивать художественный фильм с научно-популярным направлением. Это все таки разные вещи и кино мы любим за полученные эмоции от игры актеров, сюжета и антуража, а не за ошибки...тем более хорошо снятый фильм. ИМХО!!!
BloodGood
Стаж: 9 лет 3 мес.
Сообщений: 556
Ratio: 1.653
1.93%
Впервые вижу настолько научную хрень. А на деле, смысла здесь столько, сколько в "50 оттенках серого", да только вот второй хотя-бы разнообразием эротических сцен берет. А этот - нет.
wizzard2k
 
Стаж: 15 лет 10 мес.
Сообщений: 1888
Ratio: 1.979
Поблагодарили: 1851
15.27%
Откуда: Москва
Фильм детектор фанатов рептилоидов и диванных экспертов.
Их хлебом не корми дай сумничать что в фильм "не научно". Как будто в любой другой фантастике всё строго научно. И всем так пофиг на анти-научный фильм что никто не может промолчать. Детский сад.

Фильм шикарный.
Лучший в 2014.
9/10.

_________________

Не нравится реклама в фильмах? - Перестань скачивать и поддерживать раздачи с рекламой!
laokoon
Стаж: 12 лет 11 мес.
Сообщений: 73
Ratio: 1.118
100%
Откуда: Изада
krevedko.png
BloodGood писал(а): Перейти к сообщению
Впервые вижу настолько научную [чепуха]. А на деле, смысла здесь столько, сколько в "50 оттенках серого", да только вот второй хотя-бы разнообразием эротических сцен берет. А этот - нет.


Ага и там и там смысл один - любовь!
Показать сообщения:   
Начать новую тему   Ответить на тему    Торрент-трекер NNM-Club -> Архив торрентов -> Архив Видео Часовой пояс: GMT + 3
Страницы:  1, 2  След.
Страница 1 из 2