Классический форум-трекер
canvas not supported
Нас вместе: 4 210 964

Интерстеллар / Interstellar (2014) BDRip [576p] [iMAX Edition] iPad


 
 
RSS
Начать новую тему   Ответить на тему    Торрент-трекер NNM-Club -> Аудио и Видео -> Зарубежное видео для устройств Apple
Автор Сообщение
gekka ®
Стаж: 15 лет 10 мес.
Сообщений: 2123
Ratio: 96.244
Поблагодарили: 134400
100%
Откуда: Москва, Дорогомилово
ussr.gif
Интерстеллар / Interstellar (2014) BDRip [576p] [iMAX Edition] iPad
«Следующий шаг человечества станет величайшим»

Производство: США, Великобритания, Канада / © 2014 Warner Bros. Entertainment Inc. and Paramount Pictures Corporation. All rights reserved
Жанр: фантастика, драма, приключения

Описание фильма:
Когда засуха приводит человечество к продовольственному кризису, коллектив исследователей и учёных отправляется сквозь червоточину (которая предположительно соединяет области пространства-времени через большое расстояние) в путешествие, чтобы превзойти прежние ограничения для космических путешествий человека и переселить человечество на другую планету.

Перевод: Дублированный, Многоголосый закадровый, профессиональный, Одноголосый закадровый, любительский
Озвучка / Автор перевода: (лицензия), (Омикрон), (Д.Есарев)
Вид субтитров: Вшитые отключаемые
Язык субтитров: Русский, Английский

Режиссер: Кристофер Нолан
Актеры: Мэттью МакКонахи, Энн Хэтэуэй, Джессика Честейн, Маккензи Фой, Майкл Кейн, Дэвид Гяси, Уэс Бентли, Кейси Аффлек, Джон Литгоу, Мэтт Дэймон, Тофер Грэйс, Эллен Бёрстин



Дата мировой премьеры: 26 октября 2014
Дата российской премьеры: 6 ноября 2014, «Каро-Премьер»

Продолжительность: 02:49:00
Качество видео: BDRip [iMAX Edition]
Видеокодек: MPEG-4 AVC/H.264, 1 024x576, 2 348 Kbps

Аудио #1: Русский - AAC / 2.0 / 128 Kbps / 48.0 KHz - Дублированный
Аудио #2: Русский - AAC / 2.0 / 128 Kbps / 48.0 KHz - Многоголосый закадровый (Омикрон)
Аудио #3: Русский - AAC / 2.0 / 128 Kbps / 48.0 KHz - Одноголосый закадровый (Д.Есарев)
Аудио #4: Английский - AAC / 2.0 / 128 Kbps / 48.0 KHz
Код:

Sort Name: Interstellar
XID: Apple:vendor_id:2014-258687
contentID: 960891136
Copyright: © 2014 Warner Bros. Entertainment Inc. and Paramount Pictures Corporation. All rights reserved
Screenwriters: Джонатан Нолан, Кристофер Нолан
Producers: Кристофер Нолан, Линда Обст, Эмма Томас
Director: Кристофер Нолан
Cast: Мэттью МакКонахи, Энн Хэтэуэй, Джессика Честейн, Маккензи Фой, Майкл Кейн, Дэвид Гяси, Уэс Бентли, Кейси Аффлек, Джон Литгоу, Мэтт Дэймон, Тофер Грэйс, Эллен Бёрстин
Rating: 4
Long Description: Когда засуха приводит человечество к продовольственному кризису, коллектив исследователей и учёных отправляется сквозь червоточину (которая предположительно соединяет области пространства-времени через большое расстояние) в путешествие, чтобы превзойти прежние ограничения для космических путешествий человека и переселить человечество на другую планету.
Description: Когда засуха приводит человечество к продовольственному кризису, коллектив исследователей и учёных отправляется сквозь червоточину (которая предположительно соединяет области пространства-времени через большое расстояние) в путешествие
Release Date: 2014-10-26T08:00:00Z
Genre: Sci-Fi & Fantasy
Comments: «Следующий шаг человечества станет величайшим»
Artist: Christopher Nolan
Name: Интерстеллар
Код:

General
Complete name               : C:\CREATE\264mod1\out\Interstellar\Interstellar (2014) (SD).m4v
Format                      : MPEG-4
Codec ID                    : M4V
File size                   : 3.39 GiB
Duration                    : 2h 49mn
Overall bit rate mode       : Variable
Overall bit rate            : 2 872 Kbps
Movie name                  : Интерстеллар
Performer                   : Christopher Nolan
Director                    : Кристофер Нолан
Actor                       : Мэттью МакКонахи / Энн Хэтэуэй / Джессика Честейн / Маккензи Фой / Майкл Кейн / Дэвид Гяси / Уэс Бентли / Кейси Аффлек / Джон Литгоу / Мэтт Дэймон / Тофер Грэйс / Эллен Бёрстин
Screenplay by               : Джонатан Нолан / Кристофер Нолан
Producer                    : Кристофер Нолан / Линда Обст / Эмма Томас
Genre                       : Sci-Fi & Fantasy
ContentType                 : Short Film
Description                 : Когда засуха приводит человечество к продовольственному кризису, коллектив исследователей и учёных отправляется сквозь червоточину (которая предположительно соединяет области пространства-времени через большое расстояние) в путешествие
Recorded date               : UTC 2014-10-26 08:00:00
Encoded date                : UTC 2015-03-23 10:45:33
Tagged date                 : UTC 2015-03-23 10:54:36
Copyright                   : © 2014 Warner Bros. Entertainment Inc. and Paramount Pictures Corporation. All rights reserved
Cover                       : Yes
Comment                     : «Следующий шаг человечества станет величайшим»
Rating                      : None
Title/Sort                  : Interstellar
LongDescription             : Когда засуха приводит человечество к продовольственному кризису, коллектив исследователей и учёных отправляется сквозь червоточину (которая предположительно соединяет области пространства-времени через большое расстояние) в путешествие, чтобы превзойти прежние ограничения для космических путешествий человека и переселить человечество на другую планету.
AppleStoreCatalogID         : 960891136
Vendor                      : Apple:vendor_id:2014-258687
ContentRating               : mpaa|PG-13|300|

Video #1
ID                          : 1
Format                      : AVC
Format/Info                 : Advanced Video Codec
Format profile              : High@L4.1
Format settings, CABAC      : Yes
Format settings, ReFrames   : 9 frames
Codec ID                    : avc1
Codec ID/Info               : Advanced Video Coding
Duration                    : 2h 49mn
Bit rate                    : 2 348 Kbps
Width                       : 1 024 pixels
Height                      : 576 pixels
Display aspect ratio        : 16:9
Frame rate mode             : Variable
Frame rate                  : 23.976 fps
Minimum frame rate          : 23.810 fps
Maximum frame rate          : 24.390 fps
Color space                 : YUV
Chroma subsampling          : 4:2:0
Bit depth                   : 8 bits
Scan type                   : Progressive
Bits/(Pixel*Frame)          : 0.166
Stream size                 : 2.77 GiB (82%)
Writing library             : x264 core 142 r2431+42 c69a006 tMod [8-bit@4:2:0 X86_64]
Encoding settings           : cabac=1 / ref=9 / deblock=1:-3:-3 / analyse=0x3:0x133 / me=umh / subme=10 / psy=1 / fade_compensate=0.00 / psy_rd=1.00:0.05 / mixed_ref=0 / me_range=32 / chroma_me=1 / trellis=2 / 8x8dct=1 / cqm=0 / deadzone=21,11 / fast_pskip=0 / chroma_qp_offset=-3 / threads=18 / lookahead_threads=3 / sliced_threads=0 / nr=0 / decimate=0 / interlaced=0 / bluray_compat=0 / constrained_intra=0 / fgo=0 / bframes=9 / b_pyramid=2 / b_adapt=2 / b_bias=0 / direct=3 / weightb=1 / open_gop=0 / weightp=2 / keyint=250 / keyint_min=23 / scenecut=40 / intra_refresh=0 / rc_lookahead=50 / rc=crf / mbtree=1 / crf=17.5000 / qcomp=0.65 / qpmin=0:0:0 / qpmax=69:69:69 / qpstep=4 / vbv_maxrate=27000 / vbv_bufsize=30000 / crf_max=0.0 / nal_hrd=none / filler=0 / ip_ratio=1.40 / aq=4:0.95 / aq-sensitivity=10.00 / aq-factor=1.00:1.00:1.00 / aq2=0 / aq3=0
Language                    : English
Encoded date                : UTC 2015-03-23 10:45:33
Tagged date                 : UTC 2015-03-23 10:54:22
Color primaries             : BT.709
Transfer characteristics    : BT.709
Matrix coefficients         : BT.709
Color range                 : Limited

Video #2
ID                          : 9
Format                      : JPEG
Codec ID                    : jpeg
Duration                    : 2h 49mn
Bit rate mode               : Variable
Bit rate                    : 581 bps
Width                       : 640 pixels
Height                      : 360 pixels
Display aspect ratio        : 16:9
Frame rate mode             : Variable
Frame rate                  : 0.002 fps
Minimum frame rate          : 0.001 fps
Maximum frame rate          : 0.004 fps
Color space                 : YUV
Chroma subsampling          : 4:2:0
Bit depth                   : 8 bits
Compression mode            : Lossy
Bits/(Pixel*Frame)          : 1.261
Stream size                 : 709 KiB (0%)
Language                    : English
Encoded date                : UTC 2015-03-23 10:54:35
Tagged date                 : UTC 2015-03-23 10:54:36

Audio #1
ID                          : 2
Format                      : AAC
Format/Info                 : Advanced Audio Codec
Format profile              : LC
Codec ID                    : 40
Duration                    : 2h 49mn
Source duration             : 2h 49mn
Bit rate mode               : Variable
Bit rate                    : 128 Kbps
Maximum bit rate            : 221 Kbps
Channel(s)                  : 2 channels
Channel positions           : Front: L R
Sampling rate               : 48.0 KHz
Compression mode            : Lossy
Stream size                 : 155 MiB (4%)
Source stream size          : 155 MiB (4%)
Title                       : Dub [BD CEE]
Language                    : Russian
Encoded date                : UTC 2015-03-23 10:45:33
Tagged date                 : UTC 2015-03-23 10:54:22

Audio #2
ID                          : 3
Format                      : AAC
Format/Info                 : Advanced Audio Codec
Format profile              : LC
Codec ID                    : 40
Duration                    : 2h 49mn
Source duration             : 2h 49mn
Bit rate mode               : Variable
Bit rate                    : 128 Kbps
Maximum bit rate            : 189 Kbps
Channel(s)                  : 2 channels
Channel positions           : Front: L R
Sampling rate               : 48.0 KHz
Compression mode            : Lossy
Stream size                 : 154 MiB (4%)
Source stream size          : 154 MiB (4%)
Title                       : MVO [Omikron]
Language                    : Russian
Encoded date                : UTC 2015-03-23 10:45:33
Tagged date                 : UTC 2015-03-23 10:54:22

Audio #3
ID                          : 4
Format                      : AAC
Format/Info                 : Advanced Audio Codec
Format profile              : LC
Codec ID                    : 40
Duration                    : 2h 49mn
Source duration             : 2h 49mn
Bit rate mode               : Variable
Bit rate                    : 128 Kbps
Maximum bit rate            : 189 Kbps
Channel(s)                  : 2 channels
Channel positions           : Front: L R
Sampling rate               : 48.0 KHz
Compression mode            : Lossy
Stream size                 : 154 MiB (4%)
Source stream size          : 154 MiB (4%)
Title                       : VO [D.Esarev]
Language                    : Russian
Encoded date                : UTC 2015-03-23 10:45:33
Tagged date                 : UTC 2015-03-23 10:54:22

Audio #4
ID                          : 5
Format                      : AAC
Format/Info                 : Advanced Audio Codec
Format profile              : LC
Codec ID                    : 40
Duration                    : 2h 49mn
Source duration             : 2h 49mn
Bit rate mode               : Variable
Bit rate                    : 128 Kbps
Maximum bit rate            : 203 Kbps
Channel(s)                  : 2 channels
Channel positions           : Front: L R
Sampling rate               : 48.0 KHz
Compression mode            : Lossy
Stream size                 : 155 MiB (4%)
Source stream size          : 155 MiB (4%)
Language                    : English
Encoded date                : UTC 2015-03-23 10:45:33
Tagged date                 : UTC 2015-03-23 10:54:22

Text #1
ID                          : 6
Format                      : Timed Text
Muxing mode                 : sbtl
Codec ID                    : tx3g
Duration                    : 2h 43mn
Bit rate mode               : Variable
Bit rate                    : 182 bps
Stream size                 : 217 KiB (0%)
Language                    : Russian
Encoded date                : UTC 2015-03-23 10:45:33
Tagged date                 : UTC 2015-03-23 10:54:23

Text #2
ID                          : 7
Format                      : Timed Text
Muxing mode                 : sbtl
Codec ID                    : tx3g
Duration                    : 2h 43mn
Bit rate mode               : Variable
Bit rate                    : 70 bps
Stream size                 : 83.7 KiB (0%)
Language                    : English
Encoded date                : UTC 2015-03-23 10:45:33
Tagged date                 : UTC 2015-03-23 10:54:23

Menu #1
00:00:00.000                : 00:00:00.000
00:09:35.491                : 00:09:35.491
00:17:12.322                : 00:17:12.322
00:25:00.749                : 00:25:00.749
00:35:45.393                : 00:35:45.393
00:42:16.867                : 00:42:16.867
00:50:19.891                : 00:50:19.891
00:54:48.076                : 00:54:48.076
00:58:59.702                : 00:58:59.702
01:06:15.012                : 01:06:15.012
01:17:28.185                : 01:17:28.185
01:25:32.001                : 01:25:32.001
01:34:31.999                : 01:34:31.999
01:46:14.701                : 01:46:14.701
01:55:34.552                : 01:55:34.552
02:02:14.368                : 02:02:14.368
02:12:56.843                : 02:12:56.843
02:20:53.820                : 02:20:53.820
02:35:12.094                : 02:35:12.094
02:43:59.830                : 02:43:59.830

Menu #2
ID                          : 8
Codec ID                    : text
Duration                    : 2h 49mn
Language                    : English
Encoded date                : UTC 2015-03-23 10:54:23
Tagged date                 : UTC 2015-03-23 10:54:23
Bit rate mode               : CBR
00:00:00.000                : 00:00:00.000
00:09:35.491                : 00:09:35.491
00:17:12.322                : 00:17:12.322
00:25:00.749                : 00:25:00.749
00:35:45.393                : 00:35:45.393
00:42:16.867                : 00:42:16.867
00:50:19.891                : 00:50:19.891
00:54:48.076                : 00:54:48.076
00:58:59.702                : 00:58:59.702
01:06:15.012                : 01:06:15.012
01:17:28.185                : 01:17:28.185
01:25:32.001                : 01:25:32.001
01:34:31.999                : 01:34:31.999
01:46:14.701                : 01:46:14.701
01:55:34.552                : 01:55:34.552
02:02:14.368                : 02:02:14.368
02:12:56.843                : 02:12:56.843
02:20:53.820                : 02:20:53.820
02:35:12.094                : 02:35:12.094
02:43:59.830                : 02:43:59.830
Код:

x264 [info]: frame I:44    Avg QP:13.18  size: 83303
x264 [info]: frame P:569   Avg QP:18.84  size: 23958
x264 [info]: frame B:1898  Avg QP:20.98  size:  6446
x264 [info]: consecutive B-frames:  4.2%  4.1%  7.9% 21.3% 17.3% 25.8%  8.6%  5.7%  1.4%  3.6%
x264 [info]: mb I  I16..4: 16.3% 60.5% 23.2%
x264 [info]: mb P  I16..4:  2.3% 12.5%  1.7%  P16..4: 44.9%  9.7%  8.0%  0.8%  0.2%    skip:19.9%
x264 [info]: mb B  I16..4:  0.1%  0.6%  0.1%  B16..8: 37.0%  6.3%  1.8%  direct: 4.1%  skip:50.1%  L0:42.2% L1:45.4% BI:12.4%
x264 [info]: 8x8 transform intra:71.6% inter:67.1%
x264 [info]: direct mvs  spatial:98.5% temporal:1.5%
x264 [info]: coded y,uvDC,uvAC intra: 73.3% 65.7% 42.5% inter: 19.4% 12.4% 4.4%
x264 [info]: i16 v,h,dc,p: 34% 17%  9% 39%
x264 [info]: i8 v,h,dc,ddl,ddr,vr,hd,vl,hu:  9% 14%  9%  9% 13% 11% 13% 10% 13%
x264 [info]: i4 v,h,dc,ddl,ddr,vr,hd,vl,hu:  8% 13%  6% 10% 15% 12% 13% 10% 13%
x264 [info]: i8c dc,h,v,p: 41% 30% 16% 13%
x264 [info]: Weighted P-Frames: Y:7.2% UV:4.4%
x264 [info]: ref P L0: 50.2%  8.2% 18.6%  7.0%  5.6%  3.6%  3.1%  1.6%  1.7%  0.4%  0.0%
x264 [info]: ref B L0: 76.3% 12.3%  5.0%  2.5%  1.7%  1.2%  0.7%  0.3%
x264 [info]: ref B L1: 92.7%  7.3%
x264 [info]: kb/s:2347.85
Скриншоты:


16/03/2015 23:55 Замена торрента. Причина: замена русской аудиодорожки на - Дублированный (iTunes)
23/03/2015 13:55 Замена торрента. Причина: замена русской аудиодорожки на - Дублированный (лицензия)
Время раздачи: 24/7, до 5 скачавших.
 Торрент: Платиновая раздача  Зарегистрирован
 
Скачать


Примагнититься
 Зарегистрирован:   23 Мар 2015 15:10:22
 Размер:   3.39 GB  (
 Рейтинг:   4.4 (Голосов: 74)
 Поблагодарили:   217
 Проверка:   Оформление проверено модератором 23 Мар 2015 16:28:57
Как cкачать  ·  Как раздать  ·  Правильно оформить  ·  Поднять ратио!  

_________________
My make-up may be flaking, but my smile still stays on.
baronin
Стаж: 12 лет
Сообщений: 93
Ratio: 0.956
100%
krevedko.png
сэмпл можно плиз ...
wertXXX
Стаж: 12 лет
Сообщений: 6
Ratio: 2.54
100%
Откуда: Донецк
ussr.gif
И какое качество картинки? Или это экранка?
GreenPanda69
Стаж: 9 лет 3 мес.
Сообщений: 1
Ratio: 9.619
1.96%
Что означает [line] ?
Nkek
Стаж: 8 лет 6 мес.
Сообщений: 1191
Ratio: 10.835
Поблагодарили: 150
100%
GreenPanda69
Запись звука через гнездо для наушников в кинотеатре, чистый, без шума людей в зале.
gekka ®
Стаж: 15 лет 10 мес.
Сообщений: 2123
Ratio: 96.244
Поблагодарили: 134400
100%
Откуда: Москва, Дорогомилово
ussr.gif
23/03/2015 13:55 Замена торрента. Причина: замена русской аудиодорожки на - Дублированный (лицензия)

_________________
My make-up may be flaking, but my smile still stays on.
kolia91
Стаж: 12 лет 11 мес.
Сообщений: 150
Ratio: 9.27
Поблагодарили: 6084
100%
Откуда: Троещина
ussr.gif
понравился фильм. автору :респект:
Chubakov
Стаж: 7 лет 8 мес.
Сообщений: 1
Ratio: 0.003
50%
Тормозит на ipad mini retina + постоянный прскальзывающий белый фон :(
Показать сообщения:   
Начать новую тему   Ответить на тему    Торрент-трекер NNM-Club -> Аудио и Видео -> Зарубежное видео для устройств Apple Часовой пояс: GMT + 3
Страница 1 из 1