Классический форум-трекер
canvas not supported
Нас вместе: 4 079 219

Олимпийские игры 2012. Лондон. Церемония закрытия (2012) SATRip


 
 
RSS
Начать новую тему   Ответить на тему    Торрент-трекер NNM-Club -> Спорт и активный отдых -> XXX Летние Олимпийские игры. Лондон 2012
Автор Сообщение
ZoNoW ®
Модератор Видео
Стаж: 8 лет 5 мес.
Сообщений: 7333
Ratio: 674K
Раздал: 80,99 TB
Поблагодарили: 3363393
100%
ussr.gif
Олимпийские игры 2012. Лондон. Церемония закрытия (2012) SATRip
Название: Олимпийские игры 2012. Лондон. Церемония закрытия
Режиссер / Телекомпания: Россия, НТВ+
Год выпуска: 2012
Жанр: Спорт
Комментатор: Анна Дмитриева, Александр Метревели

Описание:
Церемония закрытия ХХХ летних Олимпийских игр начнется в воскресенье в полночь по Москве. Ожидается, что хедлайнерами концерта будут знаменитые рок-группы The Who, Queen, а также Джордж Майкл, Spice Girls, Muse, Fatboy Slim и One Direction. Во время шоу прозвучат 30 британских хитов, записанных за последние 50 лет. В шоу примут участие 3500 волонтеров. Постановщик церемонии – Ким Гэвин, один из известнейших британских хорегографов. На церемонии будут присутствовать 10800 спортсменов. Также пройдет передача олимпийской эстафеты барзильскому городу Рио-де-Жанейро, который примет Игры в 2016 году. Давыдова, которая по два раза становилась чемпионкой Игр в 2004 и 2008 годах, после завоевания золота Олимпиады-2012 в командных соревнованиях, будет нести флаг России на церемонии закрытия

Продолжительность: 03:11:02

Видеокодек: DivX 5
Битрейт видео: 1899 kbps
Размер кадра: 704х400
Качество видео: SATRip
Аудиокодек: MP3, 2 ch
Битрейт аудио: 128 kbps
Код:
Общее
Полное имя                       : D:\НЕ УДАЛЯТЬ!!!\Olimp_igri_2012_London_Zakritie.SATRip.avi
Формат                           : AVI
Формат/Информация                : Audio Video Interleave
Профиль формата                  : OpenDML
Размер файла                     : 2,71 Гбайт
Продолжительность                : 3 ч. 11 м.
Общий поток                      : 2032 Кбит/сек
Библиотека кодирования           : MPlayer

Видео
Идентификатор                    : 0
Формат                           : MPEG-4 Visual
Профиль формата                  : Advanced Simple@L5
Параметр BVOP формата            : 1
Параметр QPel формата            : Нет
Параметр GMC формата             : Без точки перехода
Параметр матрицы формата         : Default (MPEG)
Идентификатор кодека             : DX50
Идентификатор кодека/Подсказка   : DivX 5
Продолжительность                : 3 ч. 11 м.
Битрейт                          : 1899 Кбит/сек
Ширина                           : 704 пикселя
Высота                           : 400 пикселей
Соотношение сторон               : 16:9
Частота кадров                   : 25,000 кадров/сек
Цветовое пространство            : YUV
Субдискретизация насыщенности    : 4:2:0
Битовая глубина                  : 8 бит
Тип развёртки                    : Прогрессивная
Метод сжатия                     : С потерями
Бит/(Пиксели*Кадры)              : 0.270
Размер потока                    : 2,53 Гбайт (93%)
Библиотека кодирования           : XviD 1.2.1 (UTC 2008-12-04)

Аудио
Идентификатор                    : 1
Формат                           : MPEG Audio
Версия формата                   : Version 1
Профиль формата                  : Layer 3
Идентификатор кодека             : 55
Идентификатор кодека/Подсказка   : MP3
Продолжительность                : 3 ч. 11 м.
Вид битрейта                     : Постоянный
Битрейт                          : 128 Кбит/сек
Каналы                           : 2 канала
Частота                          : 48,0 КГц
Метод сжатия                     : С потерями
Размер потока                    : 175 Мбайт (6%)
Выравнивание                     : Соединение по промежуткам
Продолжительность промежутка     : 480  мс. (12,00 видеокадров)
Время предзагрузки промежутка    : 960  мс.


Скриншоты:


Приятного просмотра
и не забываем говорить СПАСИБО...

Время раздачи: 24/7,
до 5 скачавших.
[NNM-Club.ru]_Olimp_igri_2012_London_Zakritie.SATRip.avi.torrent
 Торрент: Платиновая раздача  Зарегистрирован
 
Скачать


Примагнититься
 Зарегистрирован:   13 Авг 2012 08:29:45
 Размер:   2,71 GB  (
 Рейтинг:   4,6 (Голосов: 62)
 Поблагодарили:   229
 Проверка:   Оформление проверено модератором 13 Авг 2012 10:29:53
Как cкачать  ·  Как раздать  ·  Правильно оформить  ·  Поднять ратио!  
Present Simple
Стаж: 8 лет 10 мес.
Сообщений: 82
Ratio: 8,15
Поблагодарили: 2747
100%
Откуда: Рязань
russia.gif
Спасибо большое, вчера не смог посмотреть. Киньте, пожалуйста, ссылочку на открытие Олимпиады. Заранее спасибо! =)
gunners91
Стаж: 9 лет 4 мес.
Сообщений: 625
Ratio: 23,894
Поблагодарили: 33847
100%
ussr.gif
Present Simple
Церемония открытия летних Олимпийских Игр. Лондон (2012) SATRip

_________________
Там, куда мы направляемся, дороги не нужны.
Present Simple
Стаж: 8 лет 10 мес.
Сообщений: 82
Ratio: 8,15
Поблагодарили: 2747
100%
Откуда: Рязань
russia.gif
gunners91, спасибо! :респект:
deimos31337
Uploader 100+
Стаж: 8 лет 10 мес.
Сообщений: 29
Ratio: 97,59
100%
Автору респект. А в HD качестве ожидается?
Remut
Стаж: 8 лет 6 мес.
Сообщений: 39
Ratio: 44,43
100%
ussr.gif
deimos31337 писал(а): Перейти к сообщению
Автору респект. А в HD качестве ожидается?

Присоединяюсь к вопросу и благодарности.
Microsoft SQL
Uploader 500+
Стаж: 8 лет 8 мес.
Сообщений: 2023
Ratio: 4746,325
Поблагодарили: 53196
100%
israel.gif
Remut писал(а): Перейти к сообщению
deimos31337 писал(а): Перейти к сообщению
Автору респект. А в HD качестве ожидается?

Присоединяюсь к вопросу и благодарности.

Церемония закрытия летних Олимпийских Игр. Лондон (2012) HDTV [H.264 / 1080i]
Remut
Стаж: 8 лет 6 мес.
Сообщений: 39
Ratio: 44,43
100%
ussr.gif
Microsoft SQL писал(а): Перейти к сообщению
Remut писал(а): Перейти к сообщению
deimos31337 писал(а): Перейти к сообщению
Автору респект. А в HD качестве ожидается?

Присоединяюсь к вопросу и благодарности.

Церемония закрытия летних Олимпийских Игр. Лондон (2012) HDTV [H.264 / 1080i]

Уже скачал. Просто в жажде зрелища сразу не разобрался) Спасибо за подсказку =)
Marcel 17
Uploader 100+
Стаж: 9 лет 6 мес.
Сообщений: 284
Ratio: 147,053
100%
Откуда: Стерлитамак
russia.gif
Огромное Спасибо !!! Посмотрим...
malina2107
Стаж: 9 лет 8 мес.
Сообщений: 512
Ratio: 9,007
100%
Откуда: Одесса
ukraine.gif
Самая коррумпированная и грязная олимпиада из всех которых я смотрел...

_________________
Принимающий зло без сопротивления становится его пособником...
Sea Katz
Стаж: 8 лет 9 мес.
Сообщений: 1502
Ratio: 1,687
Раздал: 445 GB
100%
Откуда: Морские просторы
pirates.png
malina2107 писал(а): Перейти к сообщению
Самая коррумпированная и грязная олимпиада из всех которых я смотрел...

Дождись SOSHI 2014, чтобы утверждать про "самая коррумпированная и грязная олимпиада".
gotham2012
Стаж: 7 лет 3 мес.
Сообщений: 746
Ratio: 4,709
100%
haiti.gif
@Самая коррумпированная и грязная олимпиада из всех которых я смотрел...@
Сказал бы я, да ведь забанят.
dsbh2011
Стаж: 8 лет 3 мес.
Сообщений: 59
Ratio: 0,79
100%
greece.gif
malina2107 писал(а): Перейти к сообщению
Самая коррумпированная и грязная олимпиада из всех которых я смотрел...

Согласен на 100%. Но за раздачу огромное спасибо

_________________
Резиновая лошат жует печальную фейхую
vadim_bei
Стаж: 8 лет 5 мес.
Сообщений: 132
Ratio: 4,595
36.42%
ukraine.gif
Да уж-судейских ошибок тьма!
Но в целом Олимпиада выглядела сносно.
Спасибо за раздачу-досмотреть не хватило сил-концерт класный-классика мировой культуры!
Показать сообщения:   
Начать новую тему   Ответить на тему    Торрент-трекер NNM-Club -> Спорт и активный отдых -> XXX Летние Олимпийские игры. Лондон 2012 Часовой пояс: GMT + 3
Страница 1 из 1