Классический форум-трекер
canvas not supported
Нас вместе: 4 179 250

Grand Blue / Grand Blue Dreaming / Необъятный океан [2018, TV, 12] BDrip 1080p raw


 
 
RSS
Начать новую тему   Ответить на тему    Торрент-трекер NNM-Club -> Аниме с субтитрами -> Аниме (FullHD)
Автор Сообщение
kvaking ®
RG Аниме
Uploader 500+
Стаж: 11 лет 5 мес.
Сообщений: 3587
Ratio: 374.621
Раздал: 608 TB
Поблагодарили: 23916
100%
Откуда: Осака
roody.gif
ぐらんぶる
Grand Blue
Grand Blue Dreaming
Необъятный океан

Жанр: повседневность, комедия, бухло, дайвинг
Количество серий: 12
Продолжительность: 12 серий по 25 мин
Качество видео: BDrip
Дата премьеры / период выхода: c 14.07.2018 по 29.09.2018

Производство/студия:

Автор оригинала: Иноэ Кэндзи
Режиссер: Такамацу Синдзи

Битрейт видео: ~5 805 kb/s
Размер кадра: 1920х1080
Аудио: FLAC 1 391 kb/s
Язык озвучки: Японский
Язык субтитров: Русский [SRsubs]

Описание:

После окончания школы Иори Китахара поступает в технический вуз в прибрежном городке Изу. Здесь он планирует следующие несколько лет наслаждаться идеальной студенческой жизнью в доме своего дяди и в компании прекрасных кузин Нанаки и Чисы. Вот только ни Иори, ни его печень не были готовы к тому, что дом дяди окажется по совместительству магазином дайвинг-оборудования Grand Blue и местом сбора местного студенческого клуба ныряльщиков, преимущественно состоящего из алконавтов, всегда готовых принять свежее мясо в свои стройные ряды. Сможет ли Иори пережить эту историю о студенчестве, дайвинге, настоящей мужской дружбе и преимущественно о бухле?


Ссылки:

Скриншоты:
01 Deep Blue
02 Underwater
03 A New World
04 The Male Beauty Pageant
05 Too Late
06 First Buddy
07 Doubles
08 Men`s Cocktails
09 Truth or Dare
10 Arrival in Okinawa
11 You Have the Wrong Idea
12 Otori
Код: выделить все
General
Unique ID                      : 21704734262424052551811188602928215217 (0x10542E0515DC9D7840F9A9F6A41DB4B1)
Complete name                  : K:\Grand Blue 1080p\[Moozzi2] Grand Blue - 02 (BD 1920x1080 x.264 Flac).mkv
Format                         : Matroska
Format version                 : Version 4
File size                      : 976 MiB
Duration                       : 24 min 12 s
Overall bit rate mode          : Variable
Overall bit rate               : 5 634 kb/s
Encoded date                   : UTC 2019-01-14 08:51:02
Writing application            : mkvmerge v28.2.0 ('The Awakening') 64-bit
Writing library                : libebml v1.3.6 + libmatroska v1.4.9

Video
ID                             : 1
Format                         : AVC
Format/Info                    : Advanced Video Codec
Format profile                 : High@L5
Format settings                : CABAC / 5 Ref Frames
Format settings, CABAC         : Yes
Format settings, Reference fra : 5 frames
Codec ID                       : V_MPEG4/ISO/AVC
Duration                       : 24 min 12 s
Bit rate                       : 4 241 kb/s
Width                          : 1 920 pixels
Height                         : 1 080 pixels
Display aspect ratio           : 16:9
Frame rate mode                : Constant
Frame rate                     : 23.976 (24000/1001) FPS
Color space                    : YUV
Chroma subsampling             : 4:2:0
Bit depth                      : 8 bits
Scan type                      : Progressive
Bits/(Pixel*Frame)             : 0.085
Stream size                    : 735 MiB (75%)
Writing library                : x264 core 155 r2901 7d0ff22
Encoding settings              : cabac=1 / ref=5 / deblock=1:1:1 / analyse=0x3:0x113 / me=umh / subme=9 / psy=1 / psy_rd=1.00:0.00 / mixed_ref=1 / me_range=32 / chroma_me=1 / trellis=1 / 8x8dct=1 / cqm=0 / deadzone=21,11 / fast_pskip=0 / chroma_qp_offset=-2 / threads=24 / lookahead_threads=2 / sliced_threads=0 / nr=0 / decimate=1 / interlaced=0 / bluray_compat=0 / stitchable=1 / constrained_intra=0 / bframes=3 / b_pyramid=2 / b_adapt=2 / b_bias=0 / direct=1 / weightb=1 / open_gop=0 / weightp=1 / keyint=240 / keyint_min=23 / scenecut=40 / intra_refresh=0 / rc_lookahead=40 / rc=crf / mbtree=1 / crf=16.0 / qcomp=0.65 / qpmin=0 / qpmax=69 / qpstep=4 / ip_ratio=1.40 / aq=1:1.00
Language                       : Japanese
Default                        : Yes
Forced                         : No

Audio
ID                             : 2
Format                         : FLAC
Format/Info                    : Free Lossless Audio Codec
Codec ID                       : A_FLAC
Duration                       : 24 min 12 s
Bit rate mode                  : Variable
Bit rate                       : 1 391 kb/s
Channel(s)                     : 2 channels
Channel layout                 : L R
Sampling rate                  : 48.0 kHz
Frame rate                     : 11.719 FPS (4096 SPF)
Bit depth                      : 24 bits
Compression mode               : Lossless
Stream size                    : 241 MiB (25%)
Writing library                : libFLAC 1.3.2 (UTC 2017-01-01)
Language                       : Japanese
Default                        : Yes
Forced                         : No
Время раздачи: 24/7
[NNMClub.to]_Grand Blue 1080p.torrent
 Торрент: Платиновая раздача  Зарегистрирован
 
Скачать


Примагнититься
 Зарегистрирован:   10 Дек 2020 13:37:56
 Размер:   20.3 GB  (
 Рейтинг:   4.9 (Голосов: 18)
 Поблагодарили:   22
 Проверка:   Оформление проверено модератором 10 Дек 2020 13:38:05
Не забывайте поблагодарить релизера, нажав на клавишу Спасибо!
Вам не сложно, а мне приятно. =)

А если у вас есть желание отблагодарить за релизы материально, то вот реквизиты: 4100116576698738 - яндекс кошелёк (юманей), 5536914006057297 - номер карты.
Буду благодарен за каждую копейку! (эти средства пойдут на оплату более скоростного стабильного интернета и покупку хардов)
Как cкачать  ·  Как раздать  ·  Правильно оформить  ·  Поднять ратио!  

_________________

[Double-Raws] - Да начнётся война за качество!
Тестер нового формата.
Показать сообщения:   
Начать новую тему   Ответить на тему    Торрент-трекер NNM-Club -> Аниме с субтитрами -> Аниме (FullHD) Часовой пояс: GMT + 3
Страница 1 из 1