Классический форум-трекер
canvas not supported
Нас вместе: 4 172 509

Arknights: Holy Knight Light / Рыцари ковчега: Святые рыцари света [2020, ONA] WEBrip 1080p raw


 
 
RSS
Начать новую тему   Ответить на тему    Торрент-трекер NNM-Club -> Аниме с субтитрами -> Аниме (FullHD)
Автор Сообщение
kvaking ®
RG Аниме
Uploader 500+
Стаж: 11 лет 3 мес.
Сообщений: 3498
Ratio: 365.251
Раздал: 579.3 TB
Поблагодарили: 23093
100%
Откуда: Осака
roody.gif
アークナイツ: Holy Knight Light
Arknights: Holy Knight Light
Рыцари ковчега: Святые рыцари света

Жанр: приключения, фэнтези.
Продолжительность: 10 мин
Качество видео: WEBrip
Дата премьеры / период выхода: 24.12.2020

Производство/студия:

Режиссер: Рёсуке Иногаки

Битрейт видео: ~2 337 kb/s
Формат видио: MKV
Размер кадра: 1920x824
Аудио: OGG 320 kb/s
Язык озвучки: Японский
Язык субтитров: Русский [nnm-club^anime].

Описание:
Спецвыпуск в честь первой годовщины игры на японском и глобальном серверах.


Ссылки:

Скриншоты:
Код: выделить все
General
Unique ID                      : 51215222002119764779361554304498094001 (0x2687B1663C28BA3B6E4FC895586B4FB1)
Complete name                  : E:\Arknights:Holy Knight Light\[Double-Raws] Arknights:Holy Knight Light (WEB 1920x824 x264 OGG).mkv
Format                         : Matroska
Format version                 : Version 4
File size                      : 179 MiB
Duration                       : 9 min 30 s
Overall bit rate mode          : Variable
Overall bit rate               : 2 638 kb/s
Encoded date                   : UTC 2020-12-31 14:55:37
Writing application            : mkvmerge v19.0.0 ('Brave Captain') 64-bit
Writing library                : libebml v1.3.5 + libmatroska v1.4.8

Video
ID                             : 2
Format                         : AVC
Format/Info                    : Advanced Video Codec
Format profile                 : High@L4.1
Format settings                : CABAC / 5 Ref Frames
Format settings, CABAC         : Yes
Format settings, Reference fra : 5 frames
Codec ID                       : V_MPEG4/ISO/AVC
Duration                       : 9 min 30 s
Bit rate                       : 2 337 kb/s
Width                          : 1 920 pixels
Height                         : 824 pixels
Display aspect ratio           : 2.35:1
Frame rate mode                : Constant
Frame rate                     : 23.976 (24000/1001) FPS
Color space                    : YUV
Chroma subsampling             : 4:2:0
Bit depth                      : 8 bits
Scan type                      : Progressive
Bits/(Pixel*Frame)             : 0.062
Stream size                    : 159 MiB (89%)
Writing library                : x264 core 157 r2958 57baac4
Encoding settings              : cabac=1 / ref=5 / deblock=1:-4:-4 / analyse=0x3:0x113 / me=umh / subme=7 / psy=1 / psy_rd=1.00:0.00 / mixed_ref=1 / me_range=32 / chroma_me=1 / trellis=1 / 8x8dct=1 / cqm=0 / deadzone=21,11 / fast_pskip=1 / chroma_qp_offset=-2 / threads=9 / lookahead_threads=1 / sliced_threads=0 / nr=0 / decimate=1 / interlaced=0 / bluray_compat=0 / constrained_intra=0 / bframes=4 / b_pyramid=2 / b_adapt=1 / b_bias=0 / direct=1 / weightb=1 / open_gop=0 / weightp=2 / keyint=240 / keyint_min=24 / scenecut=40 / intra_refresh=0 / rc_lookahead=50 / rc=crf / mbtree=1 / crf=9.0 / qcomp=0.60 / qpmin=0 / qpmax=69 / qpstep=4 / vbv_maxrate=4274 / vbv_bufsize=3052 / crf_max=30.0 / nal_hrd=none / filler=0 / ip_ratio=1.40 / aq=1:1.00
Language                       : Japanese
Default                        : Yes
Forced                         : No
Color range                    : Limited
Color primaries                : BT.709
Transfer characteristics       : BT.709
Matrix coefficients            : BT.709

Audio
ID                             : 1
Format                         : Vorbis
Format settings, Floor         : 1
Codec ID                       : A_VORBIS
Duration                       : 9 min 30 s
Bit rate mode                  : Variable
Bit rate                       : 320 kb/s
Channel(s)                     : 2 channels
Sampling rate                  : 48.0 kHz
Frame rate                     : 121.749 FPS (394 SPF)
Compression mode               : Lossy
Stream size                    : 20.3 MiB (11%)
Writing application            : libsndfile
Writing library                : libVorbis (Schaufenugget) (20101101 (Schaufenugget))
Default                        : Yes
Forced                         : No
Так же на трекере:
Arknights OST - MP3|320 kbps

Время раздачи: 24/7
[NNMClub.to]_Arknights:Holy Knight Light.torrent
 Торрент: Платиновая раздача  Зарегистрирован
 
Скачать


Примагнититься
 Зарегистрирован:   31 Дек 2020 18:09:29
 Размер:   180 MB  (
 Рейтинг:   4.8 (Голосов: 20)
 Поблагодарили:   36
 Проверка:   Оформление проверено модератором 31 Дек 2020 18:09:42
Не забывайте поблагодарить релизера, нажав на клавишу Спасибо!
Вам не сложно, а мне приятно. =)

А если у вас есть желание отблагодарить за релизы материально, то вот реквизиты: 4100116576698738 - яндекс кошелёк (юманей), 5536914006057297 - номер карты.
Буду благодарен за каждую копейку! (эти средства пойдут на оплату более скоростного стабильного интернета и покупку хардов)
Как cкачать  ·  Как раздать  ·  Правильно оформить  ·  Поднять ратио!  

_________________

[Double-Raws] - Да начнётся война за качество!
Тестер нового формата.
kvaking ®
RG Аниме
Uploader 500+
Стаж: 11 лет 3 мес.
Сообщений: 3498
Ratio: 365.251
Раздал: 579.3 TB
Поблагодарили: 23093
100%
Откуда: Осака
roody.gif
Обновлено:

Замена аудио дороги на выковырянный оригинал.

_________________

[Double-Raws] - Да начнётся война за качество!
Тестер нового формата.
ElSwanko
Куратор Аниме
Модератор Музыки
Стаж: 15 лет 2 мес.
Сообщений: 16879
Ratio: 958.444
Поблагодарили: 72011
100%
Откуда: ур-пространство преконтинуума
roody.gif
mr_Haisenberg
За указание на косяк, спасибо, а вот флудить дальше не надо.

_________________
Правила: Аниме, Манга, OST || Музыка
Помощь: Скриншоты || MediaInfo || auCDtect
mr_Haisenberg
Стаж: 2 года 10 мес.
Сообщений: 4
Ratio: 37.043
3.23%
ElSwanko
Не вы мне должны спасибо говорить, как я понимаю, а автор раздачи.
Ещё и удалять все мои сообщения. Хотел помочь - помог, ответили неуважением и ничего от того как именно я помог не осталось. Где лавры?
Цитата:
а вот флудить дальше не надо.

:да:
К тому же, если уж говорить о исправлении косяка, то лучше и проще было бы просто 96 kHz в 48 kHz даунсемплить, а не огг пихать. Хотя не очень понимаю откуда вообще flac взялся.
Показать сообщения:   
Начать новую тему   Ответить на тему    Торрент-трекер NNM-Club -> Аниме с субтитрами -> Аниме (FullHD) Часовой пояс: GMT + 3
Страница 1 из 1