Классический форум-трекер
canvas not supported
Нас вместе: 4 157 522

Владимир Высоцкий: Подарочное издание (2010) DVDRip [H.264] (фильмы 1-6 из 6) [PR]


 
 
RSS
Начать новую тему   Ответить на тему    Торрент-трекер NNM-Club -> Документалистика и Телепередачи -> Посвящение искусству
Автор Сообщение
Alias_Divas ®
Стаж: 14 лет 4 мес.
Сообщений: 309
Ratio: 7.305
Раздал: 7.608 TB
Поблагодарили: 2752
100%
Откуда: из прошлого
ussr.gif
Владимир Высоцкий: Подарочное издание (2010) DVDRip [H.264]
Телекомпания: ТО "Ракурс"
Жанр: Авторская песня, Концерт, Театр, Документальный, Интервью

Участники: Владимир Высоцкий

Описание:
В 2010 году был выпущен картонный бокс "Подарочное издание" 6 DVD с видеозаписями Владимира Высоцкого разных лет.

Продолжительность: 06:35:52
Качество видео: DVDRip / Исходники

Видео: AVC/H.264, 678-720x560-576, ~1513-2200 Kbps
Аудио: AC3, MP3, 2 ch, 192 Kbps
Продолжительность: 01:05:23
Москва, 5-6 декабря 1975 г. Съемка ТВ Австрии
01. Я не люблю
02. О фатальных датах и цифрах (фрагмент)
03. Песня о вольных стрелках (фрагмент)
04. Инструкция перед поездкой за рубеж или Полчаса в месткоме (фрагмент)
05. Диалог у телевизора (фрагмент)
06. Человек за бортом
Переделкино, 12 декабря 1975 г. Съемка телекомпании "WDR" (ФРГ)
07. Очи черные. I. Погоня
08. Я из дела ушел
09. Песенка о переселении душ
Мехико, август 1977 г. Съемка телекомпании "13 Canal Television" (Мексика)
10. Мы вращаем Землю
11. Кони привередливые
12. Мы верные, испытанные кони...
13. Очи черные. I. Погоня
14. Мой Гамлет
15. Баллада о брошенном корабле
16. Проложите, проложите...
Общее
Уникальный идентификатор : 174040436449316195687147670690602918232 (0x82EEF803E125A7D7936DB5175E5BA158)
Полное имя : C:\01_Mexico.mkv
Формат : Matroska
Версия формата : Version 1
Размер файла : 1,09 Гбайт
Продолжительность : 1 ч. 5 м.
Общий поток : 2 395 Кбит/сек
Дата кодирования : UTC 2021-06-09 18:51:49
Программа кодирования : mkvmerge v2.4.1 ('Use Me') built on Dec 11 2008 15:41:36
Библиотека кодирования : libebml v0.7.7 + libmatroska v0.8.1 / Lavf58.29.100

Видео
Идентификатор : 1
Формат : AVC
Формат/Информация : Advanced Video Codec
Профиль формата : High@L4
Настройки формата : CABAC / 4 Ref Frames
Параметр CABAC формата : Да
Параметр RefFrames формата : 4 кадра
Идентификатор кодека : V_MPEG4/ISO/AVC
Продолжительность : 1 ч. 5 м.
Битрейт : 2 200 Кбит/сек
Ширина : 696 пикселей
Высота : 576 пикселей
Соотношение сторон : 1,289
Соотношение сторон в оригинале : 1,208
Режим частоты кадров : Постоянный
Частота кадров : 25,000 кадров/сек
Цветовое пространство : YUV
Субдискретизация насыщенности : 4:2:0
Битовая глубина : 8 бит
Тип развёртки : Прогрессивная
Бит/(Пиксели*Кадры) : 0.220
Размер потока : 1 008 Мбайт (90%)
Библиотека кодирования : x264 core 157 r2935 545de2f
Настройки программы : cabac=1 / ref=2 / deblock=1:0:0 / analyse=0x3:0x113 / me=hex / subme=6 / psy=1 / psy_rd=1.00:0.00 / mixed_ref=1 / me_range=16 / chroma_me=1 / trellis=1 / 8x8dct=1 / cqm=0 / deadzone=21,11 / fast_pskip=1 / chroma_qp_offset=-2 / threads=12 / lookahead_threads=2 / sliced_threads=0 / nr=0 / decimate=1 / interlaced=0 / bluray_compat=0 / constrained_intra=0 / bframes=3 / b_pyramid=2 / b_adapt=1 / b_bias=0 / direct=1 / weightb=1 / open_gop=0 / weightp=1 / keyint=250 / keyint_min=25 / scenecut=40 / intra_refresh=0 / rc_lookahead=30 / rc=2pass / mbtree=1 / bitrate=2200 / ratetol=1.0 / qcomp=0.60 / qpmin=0 / qpmax=69 / qpstep=4 / cplxblur=20.0 / qblur=0.5 / vbv_maxrate=25000 / vbv_bufsize=31250 / nal_hrd=none / filler=0 / ip_ratio=1.40 / aq=1:1.00
Default : Да
Forced : Нет
Цветовой диапазон : Limited
Основные цвета : BT.601 PAL
Характеристики трансфера : BT.709
Коэффициенты матрицы : BT.601

Аудио
Идентификатор : 2
Формат : AC-3
Формат/Информация : Audio Coding 3
Коммерческое название : Dolby Digital
Идентификатор кодека : A_AC3
Продолжительность : 1 ч. 5 м.
Вид битрейта : Постоянный
Битрейт : 192 Кбит/сек
Каналы : 2 канала
Channel layout : L R
Частота : 48,0 КГц
Частота кадров : 31,250 кадров/сек (1536 SPF)
Метод сжатия : С потерями
Задержка видео : -5 мс.
Размер потока : 89,7 Мбайт (8%)
Заголовок : Stereo
Язык : Russian
Service kind : Complete Main
Default : Да
Forced : Нет

Меню
00:00:00.000 : :Начало
00:02:13.000 : :Я не люблю
00:05:06.680 : :О фатальных датах и цифрах (фрагмент)
00:08:38.760 : :Песня о вольных стрелках (фрагмент)
00:12:09.120 : :Инструкция перед поездкой за рубеж или Полчаса в месткоме (фрагмент)
00:14:23.800 : :Диалог у телевизора (фрагмент)
00:16:16.480 : :Человек за бортом
00:19:36.720 : :Очи черные. I. Погоня
00:23:05.960 : :Я из дела ушел
00:26:43.520 : :Песенка о переселении душ
00:35:04.480 : :Мы вращаем Землю
00:43:05.920 : :Кони привередливые
00:48:47.680 : :Мы верные, испытанные кони...
00:50:14.560 : :Очи черные. I. Погоня
00:53:22.200 : :Мой Гамлет
00:58:52.920 : :Баллада о брошенном корабле
01:03:59.800 : :Проложите, проложите...
Скриншоты:

Продолжительность: 00:56:51
Эстония г.Таллинн, Студия ТВ, 18.05.72
01. Здесь вам не равнина
02. Песня акына (стихи А. Вознесенского, музыка В. Высоцкого)
03. Братские могилы
04. Монолог Хлопуши (из спектакля Mосковского теaтра драмы и комедии на Таганке "Пугачев" (отрывок из поэмы С. Есенина "Пугачев" - "Сумасшедшая, бешенная, кровавая муть...")
05. Монолог Галилея "Нет, дорогой мой Сарти..." (из спектакля Mосковского теaтра драмы и комедии на Таганке "Жизнь Галилея" Б. Брехта)
06. Монолог Гамлета "Быть или не быть – вот в чем вопрос..." (из спектакля Московского театра драмы и комедии на Таганке "Гамлет" по пьесе У. Шекспира)
07. Он не вернулся из боя
08. Песня о новом времени
09. Песня самолета–истребителя
10. Утреннаяя гимнастика
11. Я не люблю
Общее
Уникальный идентификатор : 310779776987698196771144731922375164160 (0xE9CE02032EB187415B4E7915AB80C100)
Полное имя : C:\02_Tallin.mkv
Формат : Matroska
Версия формата : Version 4
Размер файла : 974 Мбайт
Продолжительность : 56 м. 51 с.
Общий поток : 2 395 Кбит/сек
Дата кодирования : UTC 2021-06-08 20:25:48
Программа кодирования : HandBrake 1.3.3 2020061300
Библиотека кодирования : Lavf58.29.100
ErrorDetectionType : Per level 1

Видео
Идентификатор : 1
Формат : AVC
Формат/Информация : Advanced Video Codec
Профиль формата : High@L4
Настройки формата : CABAC / 4 Ref Frames
Параметр CABAC формата : Да
Параметр RefFrames формата : 4 кадра
Идентификатор кодека : V_MPEG4/ISO/AVC
Продолжительность : 56 м. 51 с.
Битрейт : 2 200 Кбит/сек
Ширина : 696 пикселей
Высота : 572 пикселя
Соотношение сторон : 1,298
Режим частоты кадров : Постоянный
Частота кадров : 25,000 кадров/сек
Цветовое пространство : YUV
Субдискретизация насыщенности : 4:2:0
Битовая глубина : 8 бит
Тип развёртки : Прогрессивная
Бит/(Пиксели*Кадры) : 0.221
Размер потока : 876 Мбайт (90%)
Библиотека кодирования : x264 core 157 r2935 545de2f
Настройки программы : cabac=1 / ref=2 / deblock=1:0:0 / analyse=0x3:0x113 / me=hex / subme=6 / psy=1 / psy_rd=1.00:0.00 / mixed_ref=1 / me_range=16 / chroma_me=1 / trellis=1 / 8x8dct=1 / cqm=0 / deadzone=21,11 / fast_pskip=1 / chroma_qp_offset=-2 / threads=12 / lookahead_threads=2 / sliced_threads=0 / nr=0 / decimate=1 / interlaced=0 / bluray_compat=0 / constrained_intra=0 / bframes=3 / b_pyramid=2 / b_adapt=1 / b_bias=0 / direct=1 / weightb=1 / open_gop=0 / weightp=1 / keyint=250 / keyint_min=25 / scenecut=40 / intra_refresh=0 / rc_lookahead=30 / rc=2pass / mbtree=1 / bitrate=2200 / ratetol=1.0 / qcomp=0.60 / qpmin=0 / qpmax=69 / qpstep=4 / cplxblur=20.0 / qblur=0.5 / vbv_maxrate=25000 / vbv_bufsize=31250 / nal_hrd=none / filler=0 / ip_ratio=1.40 / aq=1:1.00
Default : Да
Forced : Нет
Цветовой диапазон : Limited
Основные цвета : BT.601 NTSC
Характеристики трансфера : BT.709
Коэффициенты матрицы : BT.601

Аудио
Идентификатор : 2
Формат : AC-3
Формат/Информация : Audio Coding 3
Коммерческое название : Dolby Digital
Идентификатор кодека : A_AC3
Продолжительность : 56 м. 50 с.
Вид битрейта : Постоянный
Битрейт : 192 Кбит/сек
Каналы : 2 канала
Channel layout : L R
Частота : 48,0 КГц
Частота кадров : 31,250 кадров/сек (1536 SPF)
Метод сжатия : С потерями
Задержка видео : 395 мс.
Размер потока : 78,1 Мбайт (8%)
Заголовок : Stereo
Service kind : Complete Main
Default : Да
Forced : Нет
Скриншоты:

Продолжительность: 01:14:04
Документальный фильм "Поэт с Таганки" , Венгрия, г. Будапешт, июль 1974 г.
01. Утренняя гимнастика - В. Высоцкий
02. О фатальных датах и цифрах - В. Высоцкий
03. "Корабли постоят, и ложатся на курс…" - В. Высоцкий
04. Спасите наши души - В. Высоцкий
05. Утренняя гимнастика - В. Высоцкий
06. Братские могилы - В. Высоцкий
Документальный фильм "Таганка в Будапеште" , Венгрия, г. Будапешт , 1976 г.
07. "Ох, как в третьем отделеньи…" - В. Высоцкий, Б. Хмельницкий, И. Бортник, В. Золотухин, Д. Межевич, В. Шаповалов
Репетиция спектакля "Гамлет"
08. "Гул затих, я вышел на подмостки…" - В. Высоцкий
09. "Быть или не быть…" - В. Высоцкий
Москва. Театр на Таганке. Эпизоды…Фрагменты спектакля "Десять дней, которые потрясли мир" , 1965 г.
10. "Мы на горе всем буржуям…" - В. Высоцкий, А. Васильев, Б. Хмельницкий, В. Золотухин, И. Бортник
11. "В куски разлетелася корона…" - В. Высоцкий
Фрагмент спектакля "Пугачев" ,20 января 1974 года
12. "Сумасшедшая бешеная кровавая муть…" - В. Высоцкий
Перед репетицией спектакля "Гамлет" , декабрь 1971 г.
13. "Это было весною, зеленеющим маем…" - В. Высоцкий, В. Шаповалов, А. Васильев
Фрагмент съемки последнего спектакля "Гамлет" , 18 июля 1980 г.
14. "Провала прошу, провала…" - В. Высоцкий
15. "После победы стало светло…" - В. Высоцкий
Общее
Уникальный идентификатор : 322211801129892929969029572913276797241 (0xF267BC51CBA72B22E5D769780EFA4139)
Полное имя : C:\03_Budapest.mkv
Формат : Matroska
Версия формата : Version 4
Размер файла : 1,24 Гбайт
Продолжительность : 1 ч. 14 м.
Общий поток : 2 394 Кбит/сек
Дата кодирования : UTC 2021-06-08 19:59:22
Программа кодирования : HandBrake 1.3.3 2020061300
Библиотека кодирования : Lavf58.29.100
ErrorDetectionType : Per level 1

Видео
Идентификатор : 1
Формат : AVC
Формат/Информация : Advanced Video Codec
Профиль формата : High@L4
Настройки формата : CABAC / 4 Ref Frames
Параметр CABAC формата : Да
Параметр RefFrames формата : 4 кадра
Идентификатор кодека : V_MPEG4/ISO/AVC
Продолжительность : 1 ч. 14 м.
Битрейт : 2 200 Кбит/сек
Ширина : 696 пикселей
Высота : 574 пикселя
Соотношение сторон : 1,293
Режим частоты кадров : Постоянный
Частота кадров : 25,000 кадров/сек
Цветовое пространство : YUV
Субдискретизация насыщенности : 4:2:0
Битовая глубина : 8 бит
Тип развёртки : Прогрессивная
Бит/(Пиксели*Кадры) : 0.220
Размер потока : 1,11 Гбайт (90%)
Библиотека кодирования : x264 core 157 r2935 545de2f
Настройки программы : cabac=1 / ref=2 / deblock=1:0:0 / analyse=0x3:0x113 / me=hex / subme=6 / psy=1 / psy_rd=1.00:0.00 / mixed_ref=1 / me_range=16 / chroma_me=1 / trellis=1 / 8x8dct=1 / cqm=0 / deadzone=21,11 / fast_pskip=1 / chroma_qp_offset=-2 / threads=12 / lookahead_threads=2 / sliced_threads=0 / nr=0 / decimate=1 / interlaced=0 / bluray_compat=0 / constrained_intra=0 / bframes=3 / b_pyramid=2 / b_adapt=1 / b_bias=0 / direct=1 / weightb=1 / open_gop=0 / weightp=1 / keyint=250 / keyint_min=25 / scenecut=40 / intra_refresh=0 / rc_lookahead=30 / rc=2pass / mbtree=1 / bitrate=2200 / ratetol=1.0 / qcomp=0.60 / qpmin=0 / qpmax=69 / qpstep=4 / cplxblur=20.0 / qblur=0.5 / vbv_maxrate=25000 / vbv_bufsize=31250 / nal_hrd=none / filler=0 / ip_ratio=1.40 / aq=1:1.00
Default : Да
Forced : Нет
Цветовой диапазон : Limited
Основные цвета : BT.601 PAL
Характеристики трансфера : BT.709
Коэффициенты матрицы : BT.601

Аудио
Идентификатор : 2
Формат : AC-3
Формат/Информация : Audio Coding 3
Коммерческое название : Dolby Digital
Идентификатор кодека : A_AC3
Продолжительность : 1 ч. 14 м.
Вид битрейта : Постоянный
Битрейт : 192 Кбит/сек
Каналы : 2 канала
Channel layout : L R
Частота : 48,0 КГц
Частота кадров : 31,250 кадров/сек (1536 SPF)
Метод сжатия : С потерями
Задержка видео : -45 мс.
Размер потока : 102 Мбайт (8%)
Заголовок : Stereo
Язык : Russian
Service kind : Complete Main
Default : Да
Forced : Нет

Меню
00:00:00.040 : :Chapter 1
00:04:37.000 : :Chapter 2
00:06:56.520 : :Chapter 3
00:10:18.920 : :Chapter 4
00:14:54.600 : :Chapter 5
00:16:43.400 : :Chapter 6
00:25:04.040 : :Chapter 7
00:52:24.520 : :Chapter 8
01:00:16.840 : :Chapter 9
01:04:32.040 : :Chapter 10
01:05:07.080 : :Chapter 11
01:06:47.880 : :Chapter 12
01:09:03.240 : :Chapter 13
01:10:01.160 : :Chapter 14
01:12:13.640 : :Chapter 15
Скриншоты:

Продолжительность: 01:11:05
Нью-Йорк, студия "CBS News", июль 1976 года (съемка для телепередачи "60 минут", эфир 20 февраля 1977 года, 19:00, ведущий - Дэн Раттер, продюсер - Игорь Оганесов)
- Дэн Раттер о Владимире Высоцком
01. Я не люблю (фрагмент)
02. Спасите наши души (фрагмент)
03. Утренняя гимнастика (фрагмент)
Москва, зима - весна 1979 года (съемки телекомпании "RAI", Италия для телефильма "Володя - неудобный человек")
04. Песня об обиженном Времени (начало)
05. Разбойничья
- фрагмент спектакля "Гамлет", интервью Владимира Высоцкого Радио Италии
06. Письмо в редакциютелевизионной передачи "Очевидное- невероятное" из сумасшедшего дома -с Канатчиковой дачи
- Владимир Высоцкий о раннем творчестве
07. Песня-сказка о старом доме на Новом Арбате (автор слов - В.С.Высоцкий, автор музыки - М.Л.Таривердиев)
- Владимир Высоцкий о своем голосе
08. Я из дела ушел
- фрагмент спектакля "Преступление и наказание"
09. Романс ("Она была чиста, как снег зимой...")
- Владимир Высоцкий о своих выступлениях
10. Конец "Охоты на Волков", или Охота с вертолетов
11. Песня об обиженном Времени (окончание)
- фрагмент съемок х/ф "Маленькие трагедии"
- Владимир Высоцкий о критических публикациях в прессе
12. Я не люблю
- Владимир Высоцкий об автоцензуре
13. То ли в избу - и запеть...
Пятигорск, студия телевидения, 14 сентября 1979 года (интервью Владимира Высоцкого Валерию Перевозчикову)
14. Письмо в редакцию телевизионной передачи "Очевидное - невероятное" из сумасшедшего дома - с Канатчиковой дачи
15. Одна научная загадка, или Почему аборигены съели Кука
16. Парус
Москва, июль 1980 -июнь 1981 (съемки телекомпании "RAI", Италия для телефильма "Володя - неудобный человек")
17. Райские яблоки (начало)
- Юрий Любимов о Владимире Высоцком
- Андрей Вознесенский о Владимире Высоцком
18. Все позади - и КПЗ, и суд...
- Репетиция спектакля "Владимир Высоцкий"
- Юрий Любимов о Владимире Высоцком
- Андрей Вознесенский: "Ты жил, играл..."
- Юрий Любимов о Владимире Высоцком
19. Райские яблоки (окончание)
Общее
Уникальный идентификатор : 76781730706737160247084821165273877778 (0x39C39F996FA07570182C3FB8F8118D12)
Полное имя : C:\04_New York.mkv
Формат : Matroska
Версия формата : Version 4
Размер файла : 868 Мбайт
Продолжительность : 1 ч. 11 м.
Общий поток : 1 707 Кбит/сек
Дата кодирования : UTC 2021-06-08 15:13:41
Программа кодирования : mkvmerge v51.0.0 ('I Wish') 64-bit
Библиотека кодирования : libebml v1.4.0 + libmatroska v1.6.2 / Lavf58.29.100

Видео
Идентификатор : 1
Формат : AVC
Формат/Информация : Advanced Video Codec
Профиль формата : Main@L3.1
Настройки формата : CABAC / 4 Ref Frames
Параметр CABAC формата : Да
Параметр RefFrames формата : 4 кадра
Идентификатор кодека : V_MPEG4/ISO/AVC
Продолжительность : 1 ч. 11 м.
Битрейт : 1 513 Кбит/сек
Ширина : 720 пикселей
Высота : 576 пикселей
Соотношение сторон : 1,294
Режим частоты кадров : Постоянный
Частота кадров : 25,000 кадров/сек
Стандарт вещания : PAL
Цветовое пространство : YUV
Субдискретизация насыщенности : 4:2:0
Битовая глубина : 8 бит
Тип развёртки : Прогрессивная
Бит/(Пиксели*Кадры) : 0.146
Размер потока : 769 Мбайт (89%)
Библиотека кодирования : x264 core 157 r2935 545de2f
Настройки программы : cabac=1 / ref=2 / deblock=1:-1:-1 / analyse=0x1:0x111 / me=hex / subme=6 / psy=1 / psy_rd=1.00:0.15 / mixed_ref=1 / me_range=16 / chroma_me=1 / trellis=1 / 8x8dct=0 / cqm=0 / deadzone=21,11 / fast_pskip=1 / chroma_qp_offset=-3 / threads=12 / lookahead_threads=2 / sliced_threads=0 / nr=0 / decimate=1 / interlaced=0 / bluray_compat=0 / constrained_intra=0 / bframes=3 / b_pyramid=2 / b_adapt=1 / b_bias=0 / direct=1 / weightb=1 / open_gop=0 / weightp=1 / keyint=250 / keyint_min=25 / scenecut=40 / intra_refresh=0 / rc_lookahead=30 / rc=crf / mbtree=1 / crf=22.0 / qcomp=0.60 / qpmin=0 / qpmax=69 / qpstep=4 / vbv_maxrate=14000 / vbv_bufsize=14000 / crf_max=0.0 / nal_hrd=none / filler=0 / ip_ratio=1.40 / aq=1:1.00
Default : Да
Forced : Нет
Цветовой диапазон : Limited
Основные цвета : BT.601 PAL
Характеристики трансфера : BT.709
Коэффициенты матрицы : BT.601

Аудио
Идентификатор : 2
Формат : MPEG Audio
Версия формата : Version 1
Профиль формата : Layer 3
Настройки формата : Joint stereo / MS Stereo
Идентификатор кодека : A_MPEG/L3
Идентификатор кодека/Подсказка : MP3
Продолжительность : 1 ч. 11 м.
Вид битрейта : Постоянный
Битрейт : 192 Кбит/сек
Каналы : 2 канала
Частота : 48,0 КГц
Частота кадров : 41,661 кадра/сек (1152 SPF)
Метод сжатия : С потерями
Задержка видео : -23 мс.
Размер потока : 97,6 Мбайт (11%)
Заголовок : Stereo
Библиотека кодирования : LAME3.100
Язык : Russian
Default : Да
Forced : Нет

Меню
00:00:00.000 : :Chapter 1
00:01:22.800 : :Chapter 2
00:04:54.760 : :Chapter 3
00:08:31.600 : :Chapter 4
00:09:53.743 : :Chapter 1
00:12:09.943 : :Chapter 2
00:15:50.143 : :Chapter 3
00:17:18.383 : :Chapter 4
00:21:20.823 : :Chapter 5
00:22:48.423 : :Chapter 6
00:25:05.823 : :Chapter 7
00:26:08.223 : :Chapter 8
00:28:21.263 : :Chapter 9
00:32:01.703 : :Chapter 10
00:33:08.303 : :Chapter 11
00:36:26.303 : :Chapter 12
00:37:36.023 : :Chapter 13
00:38:29.663 : :Chapter 14
00:40:24.863 : :Chapter 15
00:41:55.463 : :Chapter 16
00:43:06.543 : :Chapter 17
00:45:57.646 : :Chapter 1
00:50:18.046 : :Chapter 2
00:52:33.486 : :Chapter 3
00:54:49.509 : :Chapter 1
00:56:02.709 : :Chapter 2
00:57:48.469 : :Chapter 3
00:58:38.269 : :Chapter 4
01:00:47.869 : :Chapter 5
01:03:47.269 : :Chapter 6
01:05:26.269 : :Chapter 7
01:05:46.669 : :Chapter 8
01:07:44.149 : :Chapter 9
Скриншоты:

Продолжительность: 01:03:39
Часть 1. Грозный
01. Мы вращаем Землю
02. Песенка о переселении душе
03. Я не люблю
04. Братские могилы
Часть 2. Москва
05. Когда на смерть идут - поют... (B. C. Высоцкий исполняет стихотворение С. П. Гудзенко)
06. Нас не нужно жалеть... (B. C. Высоцкий исполняет стихотворение С. П. Гудзенко)
07. Спасите наши души
08. Кони привередливые
09. Большой Каретный
10. Монолог Гамлета из пьесы У. Шекспира "Гамлет", перевод Б. Пастернака, исполняет B. C. Высоцкий.
11. Лекция о международном положении, прочитанная человеком, посаженным на 15 суток за мелкое хулиганство, своим сокамерникам
Общее
Уникальный идентификатор : 266546399328493731353628522691356479793 (0xC886F81DB90B5E843C134D8158575131)
Полное имя : C:\05_Grozny.mkv
Формат : Matroska
Версия формата : Version 4
Размер файла : 1,07 Гбайт
Продолжительность : 1 ч. 3 м.
Общий поток : 2 395 Кбит/сек
Дата кодирования : UTC 2021-06-09 17:14:18
Программа кодирования : HandBrake 1.3.3 2020061300
Библиотека кодирования : Lavf58.29.100
ErrorDetectionType : Per level 1

Видео
Идентификатор : 1
Формат : AVC
Формат/Информация : Advanced Video Codec
Профиль формата : High@L4
Настройки формата : CABAC / 4 Ref Frames
Параметр CABAC формата : Да
Параметр RefFrames формата : 4 кадра
Идентификатор кодека : V_MPEG4/ISO/AVC
Продолжительность : 1 ч. 3 м.
Битрейт : 2 200 Кбит/сек
Ширина : 698 пикселей
Высота : 560 пикселей
Соотношение сторон : 4:3
Режим частоты кадров : Постоянный
Частота кадров : 25,000 кадров/сек
Цветовое пространство : YUV
Субдискретизация насыщенности : 4:2:0
Битовая глубина : 8 бит
Тип развёртки : Прогрессивная
Бит/(Пиксели*Кадры) : 0.225
Размер потока : 981 Мбайт (90%)
Библиотека кодирования : x264 core 157 r2935 545de2f
Настройки программы : cabac=1 / ref=2 / deblock=1:0:0 / analyse=0x3:0x113 / me=hex / subme=6 / psy=1 / psy_rd=1.00:0.00 / mixed_ref=1 / me_range=16 / chroma_me=1 / trellis=1 / 8x8dct=1 / cqm=0 / deadzone=21,11 / fast_pskip=1 / chroma_qp_offset=-2 / threads=12 / lookahead_threads=2 / sliced_threads=0 / nr=0 / decimate=1 / interlaced=0 / bluray_compat=0 / constrained_intra=0 / bframes=3 / b_pyramid=2 / b_adapt=1 / b_bias=0 / direct=1 / weightb=1 / open_gop=0 / weightp=1 / keyint=250 / keyint_min=25 / scenecut=40 / intra_refresh=0 / rc_lookahead=30 / rc=2pass / mbtree=1 / bitrate=2200 / ratetol=1.0 / qcomp=0.60 / qpmin=0 / qpmax=69 / qpstep=4 / cplxblur=20.0 / qblur=0.5 / vbv_maxrate=25000 / vbv_bufsize=31250 / nal_hrd=none / filler=0 / ip_ratio=1.40 / aq=1:1.00
Default : Да
Forced : Нет
Цветовой диапазон : Limited
Основные цвета : BT.601 PAL
Характеристики трансфера : BT.709
Коэффициенты матрицы : BT.601

Аудио
Идентификатор : 2
Формат : AC-3
Формат/Информация : Audio Coding 3
Коммерческое название : Dolby Digital
Идентификатор кодека : A_AC3
Продолжительность : 1 ч. 3 м.
Вид битрейта : Постоянный
Битрейт : 192 Кбит/сек
Каналы : 2 канала
Channel layout : L R
Частота : 48,0 КГц
Частота кадров : 31,250 кадров/сек (1536 SPF)
Метод сжатия : С потерями
Задержка видео : -5 мс.
Размер потока : 87,4 Мбайт (8%)
Заголовок : Stereo
Service kind : Complete Main
Default : Да
Forced : Нет

Меню
00:00:00.000 : :Chapter 1
00:13:46.560 : :Chapter 2
00:19:08.160 : :Chapter 3
00:24:20.760 : :Chapter 4
00:26:18.960 : :Chapter 5
00:34:02.760 : :Chapter 6
00:35:41.160 : :Chapter 7
00:41:47.760 : :Chapter 8
00:45:46.560 : :Chapter 9
00:49:15.360 : :Chapter 10
00:52:13.560 : :Chapter 11
00:57:26.760 : :Chapter 12
Продолжительность: 01:04:50
Часть 1. София
01. Интервью
02. Она была в Париже
03. Я не люблю
04. Песня микрофона
05. Песенка про прыгуна в высоту
06. Песенка о слухах
07. Спасите наши души
Часть 2. Москва
08. Интервью
09. Когда на смерть идут - поют…
10. Песня акына
11. Братские могилы
12. Он не вернулся из боя
Общее
Уникальный идентификатор : 40249607720491543797759718825077447732 (0x1E47CADFB2E744616D19B0FA6C9F1C34)
Полное имя : C:\06_Sofia.mkv
Формат : Matroska
Версия формата : Version 4
Размер файла : 1,09 Гбайт
Продолжительность : 1 ч. 4 м.
Общий поток : 2 396 Кбит/сек
Дата кодирования : UTC 2021-06-09 18:31:57
Программа кодирования : HandBrake 1.3.3 2020061300
Библиотека кодирования : Lavf58.29.100
ErrorDetectionType : Per level 1

Видео
Идентификатор : 1
Формат : AVC
Формат/Информация : Advanced Video Codec
Профиль формата : High@L4
Настройки формата : CABAC / 4 Ref Frames
Параметр CABAC формата : Да
Параметр RefFrames формата : 4 кадра
Идентификатор кодека : V_MPEG4/ISO/AVC
Продолжительность : 1 ч. 4 м.
Битрейт : 2 200 Кбит/сек
Ширина : 678 пикселей
Высота : 574 пикселя
Соотношение сторон : 5:4
Режим частоты кадров : Постоянный
Частота кадров : 25,000 кадров/сек
Цветовое пространство : YUV
Субдискретизация насыщенности : 4:2:0
Битовая глубина : 8 бит
Тип развёртки : Прогрессивная
Бит/(Пиксели*Кадры) : 0.226
Размер потока : 1 000 Мбайт (90%)
Библиотека кодирования : x264 core 157 r2935 545de2f
Настройки программы : cabac=1 / ref=2 / deblock=1:0:0 / analyse=0x3:0x113 / me=hex / subme=6 / psy=1 / psy_rd=1.00:0.00 / mixed_ref=1 / me_range=16 / chroma_me=1 / trellis=1 / 8x8dct=1 / cqm=0 / deadzone=21,11 / fast_pskip=1 / chroma_qp_offset=-2 / threads=12 / lookahead_threads=2 / sliced_threads=0 / nr=0 / decimate=1 / interlaced=0 / bluray_compat=0 / constrained_intra=0 / bframes=3 / b_pyramid=2 / b_adapt=1 / b_bias=0 / direct=1 / weightb=1 / open_gop=0 / weightp=1 / keyint=250 / keyint_min=25 / scenecut=40 / intra_refresh=0 / rc_lookahead=30 / rc=2pass / mbtree=1 / bitrate=2200 / ratetol=1.0 / qcomp=0.60 / qpmin=0 / qpmax=69 / qpstep=4 / cplxblur=20.0 / qblur=0.5 / vbv_maxrate=25000 / vbv_bufsize=31250 / nal_hrd=none / filler=0 / ip_ratio=1.40 / aq=1:1.00
Default : Да
Forced : Нет
Цветовой диапазон : Limited
Основные цвета : BT.601 PAL
Характеристики трансфера : BT.709
Коэффициенты матрицы : BT.601

Аудио
Идентификатор : 2
Формат : AC-3
Формат/Информация : Audio Coding 3
Коммерческое название : Dolby Digital
Идентификатор кодека : A_AC3
Продолжительность : 1 ч. 4 м.
Вид битрейта : Постоянный
Битрейт : 192 Кбит/сек
Каналы : 2 канала
Channel layout : L R
Частота : 48,0 КГц
Частота кадров : 31,250 кадров/сек (1536 SPF)
Метод сжатия : С потерями
Задержка видео : -229 мс.
Размер потока : 89,1 Мбайт (8%)
Заголовок : Stereo
Язык : Russian
Service kind : Complete Main
Default : Да
Forced : Нет

Меню
00:00:00.224 : :Chapter 1
00:08:05.984 : :Chapter 2
00:10:21.824 : :Chapter 3
00:13:08.384 : :Chapter 4
00:17:14.144 : :Chapter 5
00:21:43.424 : :Chapter 6
00:25:52.544 : :Chapter 7
00:31:38.984 : :Chapter 8
00:52:55.424 : :Chapter 9
00:55:12.224 : :Chapter 10
00:58:27.584 : :Chapter 11
00:59:35.264 : :Chapter 12
Скриншоты:

Скриншоты:


Все одноименные релизы в Клубе

Время раздачи: 24/7 (минимум до появления первых 3-5 скачавших)
Телекомпания: ТО "Ракурс"
Жанр: Авторская песня, Концерт, Театр, Документальный, Интервью

Участники: Владимир Высоцкий

Описание:
В 2010 году был выпущен картонный бокс "Подарочное издание" 6 DVD с видеозаписями Владимира Высоцкого разных лет.

Продолжительность: 06:35:52
Качество видео: DVDRip / Исходники

Видео: AVC/H.264, 720х576, ~2200 kbps
Аудио: AC3, 2 ch, 192 Kbps
[NNMClub.to]_VSV_6DVDRip.torrent
 Торрент:   Зарегистрирован
 
Зарегистрируйтесь и скачайте торрент!
126 KB
Free Leech
Примагнититься
 Зарегистрирован:   09 Июн 2021 23:09:29
 Размер:   6.28 GB  (
 Рейтинг:   5 (Голосов: 24)
 Поблагодарили:   70
 Проверка:   Оформление проверено модератором 12 Июн 2021 22:42:41
Как cкачать  ·  Как раздать  ·  Правильно оформить  ·  Поднять ратио!  
Alias_Divas ®
Стаж: 14 лет 4 мес.
Сообщений: 309
Ratio: 7.305
Раздал: 7.608 TB
Поблагодарили: 2752
100%
Откуда: из прошлого
ussr.gif
Еще релизы документального кино о Владимире Высоцком:

Мои:
Владимир Высоцкий: Документальное кино (Подарочное издание) (2011) DVDRip [H.264] (фильмы 1-3 из 3)
Владимир Высоцкий - Это я не вернулся из боя... (1974/2009) SATRip
Владимир Высоцкий - Неизданное или Прерванный полет (2007) DVDRip
Владимир Высоцкий. Письмо Уоррену Битти (2013) SATRip
Владимир Высоцкий - Документальная Трилогия (1998) DVDRip [H.264]
Владимир Высоцкий. Я, конечно, вернусь... (2001) TVRip
Владимир Высоцкий. Мне есть что спеть... (2003) DVDRip

Не мои, раздаю:
Владимир Высоцкий - Кинохроника (2009-2010) DVDRip (части 1-3 из 6)
Владимир Высоцкий - Кинохроника 2 (2011) DVDRip (части 4-6 из 6)
Владимир Высоцкий в Останкино (22.01.1980) DVD5
Владимир Высоцкий в Останкино (Монолог, Последний концерт) (22.01.1980) DVDRip [H.264] Полная версия
Владимир Высоцкий. Я не верю судьбе (2013) HDTVRip [H.264/720p-LQ]
Парень с Таганки. Владимир Высоцкий (1972) DVB
Четыре встречи с Владимиром Высоцким (1987) 2хDVD5

И игровой фильм с отличной сатирой:
Страсти по Владимиру (1990) SATRip
Показать сообщения:   
Начать новую тему   Ответить на тему    Торрент-трекер NNM-Club -> Документалистика и Телепередачи -> Посвящение искусству Часовой пояс: GMT + 3
Страница 1 из 1