Классический форум-трекер
canvas not supported
Нас вместе: 4 156 962

Напролом / Lockout (2012) BDRip [H.264/1080p-LQ] [GER Transfer] [Unrated]


 
 
RSS
Начать новую тему   Ответить на тему    Торрент-трекер NNM-Club -> Зарубежное кино -> Зарубежные Фильмы (HD, FHD)
Автор Сообщение
LORDKILL ®
Стаж: 4 года 8 мес.
Сообщений: 608
Ratio: 108.514
Поблагодарили: 48438
100%
Напролом / Lockout (2012) BDRip [H.264/1080p-LQ] [GER Transfer] [Unrated]
«В одиночку против 500. В чем проблема?»

Производство: Франция Europa Corp. / Canal+ / Cinе+
Жанр: Фантастика, Боевик, Триллер

Режиссер: Джеймс Мэтер, Стивен Ст. Леджер
Актеры: Гай Пирс, Мэгги Грэйс, Винсент Риган, Джозеф Гилган, Ленни Джеймс, Петер Стормаре, Джеки Идо, Тим Плестер, Энн-Соленн Хатте

Описание:
Орбитальная станция MS1 — крупнейшая космическая тюрьма, где в анабиозе содержатся тысячи опасных преступников.
Ходят слухи, что над погруженными в искусственный сон узниками проводятся противозаконные эксперименты.
С расследованием на станцию отправлена комиссия во главе с Эмили Уорнок, дочерью президента США.
Неожиданно ситуация выходит из-под контроля, и вся станция оказывается захвачена уголовниками.
Спецагент Сноу, несправедливо обвиненный в государственной измене, получает задание проникнуть в самую неприступную тюрьму во Вселенной и спасти Эмили. Это его единственный шанс вернуть себе доброе имя и получить свободу.


Рейтинг MPAA: PG – 13 лицам до 13 лет обязательное присутствие родителей!!!

Релиз от: LORDKILL

Продолжительность: 01:35:17
Качество видео: BDRip 1080p
Перевод: Дублированный
Субтитры: Русские, английские

Видео: AVC/H.264, 1920x804, 4500 kbps
Аудио 1: AC3, 6 ch, 448 Kbps - Русский
x264 info: frame I:1043 Avg QP:16.21 size:122217
x264 info: frame P:39744 Avg QP:20.36 size: 42128
x264 info: frame B:96435 Avg QP:22.45 size: 14631
x264 info: consecutive B-frames: 7.2% 9.6% 14.3% 14.7% 16.4% 31.0% 3.7% 0.7% 0.6% 0.5% 0.2% 0.6% 0.5%

General
Unique ID : 50215959548068869824011363225684248360 (0x25C73DF4E3DDAAA05D800A45C9698728)
Complete name : G:\ФИЛЬМЫ\Напролом (2012) (GER) (Unrated).mkv
Format : Matroska
Format version : Version 4
File size : 3.29 GiB
Duration : 1 h 35 min
Overall bit rate : 4 945 kb/s
Movie name : Напролом / Lockout (2012) (GER) (Unrated) - #LORDKILL#
Encoded date : UTC 2021-07-22 14:04:22
Writing application : mkvmerge v32.0.0 ('Astral Progressions') 64-bit
Writing library : libebml v1.3.7 + libmatroska v1.5.0

Video
ID : 1
Format : AVC
Format/Info : Advanced Video Codec
Format profile : High@L4.1
Format settings : CABAC / 5 Ref Frames
Format settings, CABAC : Yes
Format settings, Reference : 5 frames
Codec ID : V_MPEG4/ISO/AVC
Duration : 1 h 35 min
Bit rate : 4 500 kb/s
Width : 1 920 pixels
Height : 804 pixels
Display aspect ratio : 2.40:1
Frame rate mode : Constant
Frame rate : 24.000 FPS
Color space : YUV
Chroma subsampling : 4:2:0
Bit depth : 8 bits
Scan type : Progressive
Bits/(Pixel*Frame) : 0.121
Stream size : 2.99 GiB (91%)
Title : Lockout_2011г_[Unrated]_Guy Edward Pearce & Luc Besson
Writing library : x264 core 157 r2958 57baac4
Encoding settings : cabac=1 / ref=5 / deblock=1:-3:-3 / analyse=0x3:0x113 / me=umh / subme=11 / psy=1 / psy_rd=1.00:0.20 / mixed_ref=1 / me_range=64 / chroma_me=1 / trellis=2 / 8x8dct=1 / cqm=0 / deadzone=21,11 / fast_pskip=0 / chroma_qp_offset=-3 / threads=17 / lookahead_threads=4 / sliced_threads=0 / nr=0 / decimate=0 / interlaced=0 / bluray_compat=0 / constrained_intra=0 / bframes=12 / b_pyramid=2 / b_adapt=2 / b_bias=0 / direct=3 / weightb=1 / open_gop=0 / weightp=2 / keyint=240 / keyint_min=24 / scenecut=40 / intra_refresh=0 / rc=2pass / mbtree=0 / bitrate=4500 / ratetol=1.0 / qcomp=0.60 / qpmin=0 / qpmax=69 / qpstep=4 / cplxblur=20.0 / qblur=0.5 / ip_ratio=1.40 / pb_ratio=1.30 / aq=1:0.70
Language : English
Default : Yes
Forced : No
Color range : Limited
Color primaries : BT.709
Transfer characteristics : BT.709
Matrix coefficients : BT.709

Audio
ID : 2
Format : AC-3
Format/Info : Audio Coding 3
Commercial name : Dolby Digital
Codec ID : A_AC3
Duration : 1 h 35 min
Bit rate mode : Constant
Bit rate : 448 kb/s
Channel(s) : 6 channels
Channel layout : L R C LFE Ls Rs
Sampling rate : 48.0 kHz
Frame rate : 31.250 FPS (1536 SPF)
Compression mode : Lossy
Stream size : 305 MiB (9%)
Title : Дубляж
Language : Russian
Service kind : Complete Main
Default : Yes
Forced : No

Text #1
ID : 3
Format : UTF-8
Codec ID : S_TEXT/UTF8
Codec ID/Info : UTF-8 Plain Text
Duration : 1 h 29 min
Bit rate : 98 b/s
Count of elements : 1342
Stream size : 64.8 KiB (0%)
Title : Воронин
Language : Russian
Default : Yes
Forced : No

Text #2
ID : 4
Format : UTF-8
Codec ID : S_TEXT/UTF8
Codec ID/Info : UTF-8 Plain Text
Duration : 1 h 29 min
Bit rate : 68 b/s
Count of elements : 1576
Stream size : 45.2 KiB (0%)
Language : English
Default : No
Forced : No

Menu
00:00:00.000 : :Chapter 1
00:09:30.958 : :Chapter 2
00:20:19.458 : :Chapter 3
00:30:21.375 : :Chapter 4
00:40:02.416 : :Chapter 5
00:50:49.583 : :Chapter 6
00:59:12.583 : :Chapter 7
01:08:34.457 : :Chapter 8
01:20:20.166 : :Chapter 9
01:30:46.541 : :Chapter 10
Просмотр доступен только для зарегистрированных пользователей
Скриншоты:


Время раздачи: 24/7 (круглосуточно) (минимум до появления первых 3-5 скачавших)
[NNMClub.to]_Naprolom (2012) (GER) (Unrated).mkv.torrent
 Торрент: Золотая раздача  Зарегистрирован
 
Зарегистрируйтесь и скачайте торрент!
17.4 KB

Примагнититься
 Зарегистрирован:   22 Июл 2021 17:26:00
 Размер:   3.29 GB  (
 Рейтинг:   4.8 (Голосов: 38)
 Поблагодарили:   173
 Проверка:   Оформление проверено модератором 23 Июл 2021 02:06:40
[url=//https://vk.com/lordkillrips/]В Контакте![/url]
Как cкачать  ·  Как раздать  ·  Правильно оформить  ·  Поднять ратио!  
intertor
Стаж: 2 года
Сообщений: 110
69.62%
люблю такие фильмы, скачаю
bahron
Стаж: 10 лет 8 мес.
Сообщений: 1864
Ratio: 18.666
100%
russia.gif
Великолепный фильм помнится, а оценки низкие.
Pavel_D
Стаж: 9 лет 2 мес.
Сообщений: 40
Ratio: 1.379
100%
Откуда: Киев
ukraine.gif
Хороший боевик, вроде в прокате провалился, не дошёл до кинотеатров...
мне понравился.
shalagram
Предупреждений: 1
Стаж: 4 года 10 мес.
Сообщений: 190
Ratio: 6.993
100%
Ну фильм из клише сплошных. Местами просто зашкаливает. Дешевка. "Я думал поцелуешь, смотря какой ты в постели..." Что это???? :огорчение:
WolfEywa
Стаж: 10 лет 3 мес.
Сообщений: 377
Ratio: 1.279
Поблагодарили: 124
0.98%
норм
Показать сообщения:   
Начать новую тему   Ответить на тему    Торрент-трекер NNM-Club -> Зарубежное кино -> Зарубежные Фильмы (HD, FHD) Часовой пояс: GMT + 3
Страница 1 из 1