Классический форум-трекер
canvas not supported
Нас вместе: 4 235 221

Звезда (1949) DVDRip


 
 
RSS
Начать новую тему   Ответить на тему    Торрент-трекер NNM-Club -> Архив торрентов -> Архив Классики кино и Старых фильмов до 90-х
Автор Сообщение
максим788809 ®
Стаж: 14 лет 8 мес.
Сообщений: 262
Ratio: 9.845
Поблагодарили: 15562
100%
Откуда: Мо$ква
Звезда (1949) DVDRip
Киностудия: Ленфильм
Год выпуска: 1949
Жанр: драма, Военный

Описание фильма:
Фильм снят по повести Эммануила Казакевича - о маленькой группе разведчиков. Весной 1944 года на оккупированной территории немецкое командование готовит секретное наступление. Разведчики, направленные во вражеский тыл для уточнения данных, назад не вернулись. Новую группу из семерки разведчиков, названную "Звезда", возглавляет лейтенант Травкин. Каждый разведчик понимает, что это задание, вероятно, станет для него последним.

Режиссер: Александр Иванов
Сценарий: Павел Фурманский, Эммануил Казакевич
Актеры: Олег Жаков, Николай Крючков, Василий Меркурьев, Павел Волков, Лидия Сухаревская, Анатолий Вербицкий

Продолжительность: 01:30:39
Качество видео: DVDRip



Дата премьеры в мире: 21 сентября 1953
Дата релиза на DVD: 8 сентября 2005, «Союз-Видео»

Видеокодек: Xvid
Битрейт видео: ~1956 Кбит/сек
Размер кадра: 720x544
Аудиокодек: AC3, 2.0
Битрейт аудио: 192 Кбит/сек

Скачать сэмпл
Zvezda.1949.XviD.DVDRip.avi
Формат : AVI
Формат/Информация : Audio Video Interleave
Размер файла : 1,36 Гбайт
Продолжительность : 1 ч. 30 м.
Общий поток : 2155 Кбит/сек
Программа кодирования : VirtualDub-MPEG2-Rus 1.5.4.1 (build 2178/release)
Библиотека кодирования : VirtualDubMod build 2178/release

Видео
Идентификатор : 0
Формат : MPEG-4 Visual
Профиль формата : Advanced Simple@L5
Параметр BVOP формата : 1
Параметр QPel формата : Нет
Параметр GMC формата : Без точки перехода
Параметр матрицы формата : Выборочная
Идентификатор кодека : XVID
Идентификатор кодека/Подсказка : XviD
Продолжительность : 1 ч. 30 м.
Битрейт : 1956 Кбит/сек
Ширина : 720 пикс.
Высота : 544 пикс.
Соотношение сторон : 4:3
Частота кадров : 25,000 кадр/сек
Цветовое пространство : YUV
Подвыборка цветности : 4:2:0
Битовая глубина : 8 бит
Тип развёртки : Прогрессивная
Метод сжатия : С потерями
Бит/(Пиксели*Кадры) : 0.200
Размер потока : 1,24 Гбайт (91%)
Библиотека кодирования : XviD 1.2.0SMP (UTC 2006-01-08)

Аудио
Идентификатор : 1
Формат : AC-3
Формат/Информация : Audio Coding 3
Расширение режима : CM (complete main)
Идентификатор кодека : 2000
Продолжительность : 1 ч. 30 м.
Вид битрейта : Постоянный
Битрейт : 192 Кбит/сек
Канал(ы) : 2 канала(ов)
Расположение каналов : Front: L R
Частота : 48,0 КГц
Битовая глубина : 16 бит
Метод сжатия : С потерями
Размер потока : 124 Мбайт (9%)
Выравнивание : Разделение по промежуткам
Продолжительность промежутка : 96 мс. (2,40 видеокадров)
Время предзагрузки промежутка : 96 ms
Язык : Russian
Скриншоты:




Время раздачи: До 5-ти сидов
Реставрация релиза: vyctorius
[NNM-Club.ru]_Zvezda.1949.XviD.DVDRip.avi.torrent
 Торрент: Платиновая раздача  Зарегистрирован
 
Скачать


 Зарегистрирован:   28 Апр 2010 13:58:30
 Размер:   1.36 GB  (
 Рейтинг:   5 (Голосов: 25)
 Поблагодарили:   91
 Проверка:   Оформление проверено модератором 28 Апр 2010 16:28:40
Как cкачать  ·  Как раздать  ·  Правильно оформить  ·  Поднять ратио!  
Sergo6630
Стаж: 13 лет 2 мес.
Сообщений: 1
Ratio: 4.39
100%
ukraine.gif
Уважаю! Фильм - бомба! :супер!: :супер!: :супер!:
Топик был перенесен из форума Отечественная Классика (SD) в форум Архив Классики кино и Старых фильмов до 90-х

Причина переноса: Длительное отсутствие сида на протяжении более 6 месяцев.
Seeder last seen: 2018-07-06

Исправил релиз - напиши ЛС almikl, дав ссылку на релиз.
Если нет ответа 24 часа - нажми на кнопку "Обратить внимание модераторов".
Показать сообщения:   
Начать новую тему   Ответить на тему    Торрент-трекер NNM-Club -> Архив торрентов -> Архив Классики кино и Старых фильмов до 90-х Часовой пояс: GMT + 3
Страница 1 из 1