Классический форум-трекер
canvas not supported
Нас вместе: 4 233 350

МАЙК НАУМЕНКО. Часть мира, которого нет (2010) DVDRip


 
 
RSS
Начать новую тему   Ответить на тему    Торрент-трекер NNM-Club -> Театр и Музыкальное видео -> Концерты (SD)
Автор Сообщение
almikl ®
Куратор Детского.
Модератор Видео.
RG Всё лучшее - детям!
Uploader 500+
Стаж: 16 лет 11 мес.
Сообщений: 5388
Ratio: 428.793
Поблагодарили: 141091
100%
Откуда: Дааалекое Подмосковье
russia.gif
МАЙК НАУМЕНКО. Часть мира, которого нет (2010) DVDRip
Год выпуска: 2010
Жанр: Музыка, Rock

Описание: город Ленинград, 1989 год, полный вариант видеосъёмки домашнего концерта от Натальи Шарымовой.

Продолжительность: 02:35:19

Треклист:
01. Вступление
02. Если ты хочешь
03. Старые раны
04. Утро вдвоём
05. Женщина
06. Пригородный блюз
07. Песня гуру
08. Седьмая глава
09. Все те мужчины
10. Ода ванной комнате
11. Мария
12. Сладкая N
13. Уездный город N
14. Прощай, детка
15. Я милого узнаю по походке

Дополнительно:
*Интервью: Майк Науменко — Джоан Стингрэй,Алик Кан.
*Интервью: Андрей Тропилло — Алик Кан.
* "Вперёд, Боддисатва!" (киносъёмки, Москва, 1986)

Допы представлены отдельно каждый СВОИМ ФАЙЛОМ! Кому не надо - не качайте!

Видеокодек: Xvid
Битрейт видео: ~2883 kbps
Размер кадра: 720х536
Качество видео: DVDRip

Аудиокодек: AC3 2.0
Битрейт аудио: 192 kbps
Код: выделить все
Полное имя                               : Z:\Концерты\Maik.Naumenko.Chast.Mira.Kotorogo.Net.2010\Maik.Naumenko.Chast.Mira.Kotorogo.Net.2010.avi
Формат                                   : AVI
Формат/Информация                        : Audio Video Interleave
Размер файла                             : 1,16 Гбайт
Продолжительность                        : 54 м.
Общий поток                              : 3087 Кбит/сек
Программа кодирования                    : VirtualDubMod 1.5.10.2 (build 2540/release)
Библиотека кодирования                   : VirtualDubMod build 2540/release

Видео
Идентификатор                            : 0
Формат                                   : MPEG-4 Visual
Профиль формата                          : Advanced Simple@L5
Параметр BVOP формата                    : 1
Параметр QPel формата                    : Нет
Параметр GMC формата                     : Без точки перехода
Параметр матрицы формата                 : Default (H.263)
Идентификатор кодека                     : XVID
Идентификатор кодека/Подсказка           : XviD
Продолжительность                        : 54 м.
Битрейт                                  : 2883 Кбит/сек
Ширина                                   : 720 пикселей
Высота                                   : 536 пикселей
Соотношение сторон                       : 4:3
Частота кадров                           : 29,970 кадров/сек
Цветовое пространство                    : YUV
Субдискретизация насыщенности            : 4:2:0
Битовая глубина                          : 8 бит
Тип развёртки                            : Прогрессивная
Метод сжатия                             : С потерями
Бит/(Пиксели*Кадры)                      : 0.249
Размер потока                            : 1,09 Гбайт (93%)
Библиотека кодирования                   : XviD 1.2.1 (UTC 2008-12-04)

Аудио
Идентификатор                            : 1
Формат                                   : AC-3
Формат/Информация                        : Audio Coding 3
Расширение режима                        : CM (complete main)
Параметр Endianness формата              : Big
Идентификатор кодека                     : 2000
Продолжительность                        : 54 м.
Вид битрейта                             : Постоянный
Битрейт                                  : 192 Кбит/сек
Каналы                                   : 2 канала
Расположение каналов                     : Front: L R
Частота                                  : 48,0 КГц
Битовая глубина                          : 16 бит
Метод сжатия                             : С потерями
Размер потока                            : 74,2 Мбайт (6%)
Выравнивание                             : Соединение по промежуткам
Продолжительность промежутка             : 33  мс. (1,00 видеокадр)
Время предзагрузки промежутка            : 512  мс.
Скриншоты:

Все одноименные релизы в Клубе
Время раздачи: 24/7 (до появления первых 3-5 скачавших)
[NNM-Club.ru]_Maik.Naumenko.Chast.Mira.Kotorogo.Net.2010.torrent
 Торрент: Платиновая раздача  Зарегистрирован
 
Скачать


Примагнититься
 Зарегистрирован:   01 Июл 2020 15:37:58
 Размер:   2.37 GB  (
 Рейтинг:   5 (Голосов: 33)
 Поблагодарили:   106
 Проверка:   Оформление проверено модератором 01 Июл 2020 15:47:03
Поддержка меня и моих релизов
Как cкачать  ·  Как раздать  ·  Правильно оформить  ·  Поднять ратио!  
almikl ®
Куратор Детского.
Модератор Видео.
RG Всё лучшее - детям!
Uploader 500+
Стаж: 16 лет 11 мес.
Сообщений: 5388
Ratio: 428.793
Поблагодарили: 141091
100%
Откуда: Дааалекое Подмосковье
russia.gif
Кому захочется - есть DVD9! могу потом выложить =)
dokkk
Стаж: 14 лет 7 мес.
Сообщений: 69
Ratio: 1.346
100%
russia.gif
almikl писал(а): link
Кому захочется - есть DVD9! могу потом выложить =)

да!ДА!ДА!!!
almikl ®
Куратор Детского.
Модератор Видео.
RG Всё лучшее - детям!
Uploader 500+
Стаж: 16 лет 11 мес.
Сообщений: 5388
Ratio: 428.793
Поблагодарили: 141091
100%
Откуда: Дааалекое Подмосковье
russia.gif
dokkk
я в отпуск сваливаю на 2 недели, после 9 августа напомните) сделаю релиз :пока:
redhatdeath
Стаж: 15 лет
Сообщений: 70
Ratio: 3.47
53.33%
russia.gif
не поклонник, но за такое - спасибо!))
almikl ®
Куратор Детского.
Модератор Видео.
RG Всё лучшее - детям!
Uploader 500+
Стаж: 16 лет 11 мес.
Сообщений: 5388
Ratio: 428.793
Поблагодарили: 141091
100%
Откуда: Дааалекое Подмосковье
russia.gif
redhatdeath
рад, что и не поклоннику понравилось :пока:
dokkk
Стаж: 14 лет 7 мес.
Сообщений: 69
Ratio: 1.346
100%
russia.gif
almikl писал(а): link
dokkk
я в отпуск сваливаю на 2 недели, после 9 августа напомните) сделаю релиз :пока:

спасибо
dokkk
Стаж: 14 лет 7 мес.
Сообщений: 69
Ratio: 1.346
100%
russia.gif
dokkk писал(а): link
almikl писал(а): link
Кому захочется - есть DVD9! могу потом выложить =)

да!ДА!ДА!!!

выложи :супер!:
almikl ®
Куратор Детского.
Модератор Видео.
RG Всё лучшее - детям!
Uploader 500+
Стаж: 16 лет 11 мес.
Сообщений: 5388
Ratio: 428.793
Поблагодарили: 141091
100%
Откуда: Дааалекое Подмосковье
russia.gif
dokkk
О! Хорошо, что напомнил! Сегодня постараюсь зарелизить :да:

Добавлено спустя 2 часа 46 минут:

А вот и обещанный релиз DVD9 :приветствую:
pontikapej
Стаж: 13 лет 1 мес.
Сообщений: 3
Ratio: 12.214
0%
ukraine.gif
redhatdeath писал(а): Перейти к сообщению
не поклонник, но за такое - спасибо!))
поклонник еще какой. уездный город - культурная христоматия
karfagen1975
RG NNM Club Video
Сталкер, Uploader 100+
Стаж: 13 лет 5 мес.
Сообщений: 5638
Ratio: 408.308
Раздал: 233.1 TB
Поблагодарили: 464586
100%
ussr.gif
Торрент перерегистрирован на трекере в рамках акции Включаем DHT в древних раздачах (Обновлено)
Теперь вам нужно его скачать и открыть в торрент-клиенте, указав в качестве места сохранения раздаваемый файл или папку.
Показать сообщения:   
Начать новую тему   Ответить на тему    Торрент-трекер NNM-Club -> Театр и Музыкальное видео -> Концерты (SD) Часовой пояс: GMT + 3
Страница 1 из 1