Классический форум-трекер
canvas not supported
Нас вместе: 4 094 829

Нежный возраст (2000) DVDRip


 
 
RSS
Начать новую тему   Ответить на тему    Торрент-трекер NNM-Club -> Отечественное кино -> Отечественные Фильмы (HD*Rip/LQ, DVDRip, SATRip, VHSRip)
Автор Сообщение
scorpion ®
DG Win&Soft
 
Стаж: 10 лет 11 мес.
Сообщений: 2570
Ratio: 39,508
Раздал: 5,967 TB
Поблагодарили: 21452
100%
Откуда: Никополь
ukraine.gif
Нежный возраст (2000) DVDRip
Год выпуска: 2000
Жанр: Драма
Субтитры: Отсутствуют

Описание фильма:
История, рассказанная в фильме — это история взросления одного конкретного человека в условиях новой рыночно-мафиозной общественной жизни, история его любви к однокласснице, которая становится известной парижской топ — моделью, нежные и трогательные взаимоотношения с которой проходят через всю жизнь героя, от самого раннего детства до сегодняшних дней, спасают и формируют эту жизнь…

Фильм был высоко оценен кинокритикой и получил ряд призов и премий:

* премия "Ника" в категории "лучшая роль второго плана" Сергею Гармашу в 2000 году
* приз "Серебряная подкова" Дмитрию Соловьеву за сценарий и исполнение главной роли на фестивале-смотре российских фильмов "Любить по-русски" в 2001 году
* главный приз - "Золотая роза" - на ХII открытом российском фестивале "Кинотавр" в 2001 году

Режиссер: Сергей Соловьев
Актеры: Дмитрий Соловьев, Елена Камаева, Андрей Панин, Кирилл Лавров, Валентин Гафт, Людмила Савельева, Сергей Гармаш, Николай Чиндяйкин, Томаш Бялковский, Алексей Дагаев, Ольга Сидорова, Андрей Савостьянов



Продолжительность: 01:50:43

Видеокодек: Xvid
Битрейт видео: ~1682 kbps avg, 0.20 bit/pixel
Размер кадра: 672x512 (1.31:1), 25 fps
Качество видео: DVDRip
Аудиокодек: AC3, 2/0 (L,R) ch
Битрейт аудио: 48 kHz, ~192.00 kbps
General
Complete name : D:\Мои видеозаписи\Фильмы\Nejniy_vozrast.avi
Format : AVI
Format/Info : Audio Video Interleave
File size : 1.46 GiB
Duration : 1h 50mn
Overall bit rate : 1 884 Kbps
Movie name : Нежный возраст
Director : zim2001
Writing application : VirtualDubMod 1.5.10.2 (build 2540/release)
Copyright : torrents.ru

Video
ID : 0
Format : MPEG-4 Visual
Format profile : Advanced Simple@L5
Format settings, BVOP : 1
Format settings, QPel : No
Format settings, GMC : No warppoints
Format settings, Matrix : Custom
Codec ID : XVID
Codec ID/Hint : XviD
Duration : 1h 50mn
Bit rate : 1 683 Kbps
Width : 672 pixels
Height : 512 pixels
Display aspect ratio : 4:3
Frame rate : 25.000 fps
Color space : YUV
Chroma subsampling : 4:2:0
Bit depth : 8 bits
Scan type : Progressive
Compression mode : Lossy
Bits/(Pixel*Frame) : 0.196
Stream size : 1.30 GiB (89%)
Writing library : XviD 1.2.1 (UTC 2008-12-04)

Audio
ID : 1
Format : AC-3
Format/Info : Audio Coding 3
Mode extension : CM (complete main)
Format settings, Endianness : Big
Codec ID : 2000
Duration : 1h 50mn
Bit rate mode : Constant
Bit rate : 192 Kbps
Channel(s) : 2 channels
Channel positions : Front: L R
Sampling rate : 48.0 KHz
Bit depth : 16 bits
Compression mode : Lossy
Stream size : 152 MiB (10%)
Alignment : Split accross interleaves
Interleave, duration : 40 ms (1.00 video frame)
Interleave, preload duration : 500 ms
Скриншоты:


Нежный возраст  на NNM-club
Время раздачи: 24/7
Реставрация от: АлексКуз
[NNM-Club.ru]_Nejniy_vozrast.avi.torrent
 Торрент: Платиновая раздача  Зарегистрирован
 
Скачать


 Зарегистрирован:   22 Авг 2010 23:10:15
 Размер:   1,46 GB  (
 Рейтинг:   4,9 (Голосов: 63)
 Поблагодарили:   268
 Проверка:   Оформление проверено модератором 22 Авг 2010 23:29:33
Как cкачать  ·  Как раздать  ·  Правильно оформить  ·  Поднять ратио!  
broderik
Стаж: 12 лет 2 мес.
Сообщений: 45
Ratio: 14,283
Раздал: 2,675 TB
Поблагодарили: 2
100%
moldova.gif
Отличный фильм.
Актерский состав, игра, картинка - блестяще.
сергей800
Стаж: 9 лет 7 мес.
Сообщений: 1
Ratio: 1,441
100%
israel.gif
Спасибо большое!
Фильм отличный, смотрел когда-то давно, захотелось сейчас пересмотреть.
Спасибо за торрент =)
Soulmate
Стаж: 9 лет 5 мес.
Сообщений: 912
Ratio: 6,766
Раздал: 660 GB
Поблагодарили: 546
100%
Откуда: Винница
ukraine.gif
Довольно интересный и необычный фильм, посмотрел не без удовольствия...
Хмм странно как это он раньше прошел мимо меня...

З.Ы. scorpion :респект:

_________________
SuperDen
Стаж: 12 лет 4 мес.
Сообщений: 132
Ratio: 14,403
100%
Откуда: Череповец, Вологодская область
russia.gif
Ребята, порекомендуйте ещё-то похожее, если смотрели?

_________________
--
Ищу работу в сфере IT.
DamnDeviL
 
Стаж: 12 лет 9 мес.
Сообщений: 117
Ratio: 97,202
Поблагодарили: 185
100%
Откуда: Republica de Honduras
honduras.gif
Это мой район, это моя школа.
Персонажи все реальные, немного имена поменяли, а так - все так оно и было.
Соловьев - молодец, я уже и кассету давно потерял, вот вспомнил про фильм - решил скачать - релизеру спасибо!

_________________
Не забываем как скачаем - сказать спасибо, оценить и остаться как можно дольше на раздаче
Bori_Gleb
Стаж: 8 лет 8 мес.
Сообщений: 168
Ratio: 181,58
Раздал: 14,1 TB
Поблагодарили: 633
100%
ussr.gif
Отличный фильм, Соловьев ваще красава)))

_________________
Понимать то, о чём споришь, совсем необязательно. (с) Бомарше :D
Nico
Uploader 100+
Стаж: 6 лет 9 мес.
Сообщений: 1059
Ratio: 155,045
Раздал: 133,1 TB
100%
Откуда: Hamburg
nnm-club.gif
Класс! :клево: даже через время.

_________________
Не то, что мы думаем, а скорее то, как мы думаем, рассматриваем мы как свой вклад в историю.

— Карл фон Клаузевиц
регистрация777
Стаж: 2 года 10 мес.
Сообщений: 266
Ratio: 23,211
100%
russia.gif
с детства помню фильм
надо пеерсмотреть
Показать сообщения:   
Начать новую тему   Ответить на тему    Торрент-трекер NNM-Club -> Отечественное кино -> Отечественные Фильмы (HD*Rip/LQ, DVDRip, SATRip, VHSRip) Часовой пояс: GMT + 3
Страница 1 из 1