Классический форум-трекер
canvas not supported
Нас вместе: 4 178 198

Фантоцци / Fantozzi (1975) DVDRip


 
 
RSS
Начать новую тему   Ответить на тему    Торрент-трекер NNM-Club -> Классика кино и Старые фильмы до 90-х -> Зарубежная Классика (HD*Rip/LQ, DVDRip, SATRip, VHSRip)
Автор Сообщение
dmitrik ®
Стаж: 14 лет 5 мес.
Сообщений: 11
Ratio: 1.94
Поблагодарили: 1005
4.17%
russia.gif
Фантоцци / Fantozzi (1975) DVDRip
Русское название: Фантоцци
Оригинальное название: Fantozzi
Год выпуска: 1975
Производство: Италия / Rizzoli Film S.P.A.
Жанр: Комедия
Описание фильма:
Уго Фантоцци всю жизнь работает младшим бухгалтером, ездит на работу в автобусе, никогда не изменял жене. Начальство ни разу не повысило ему зарплату, женщины его не замечают, а коллеги не помнят, как его зовут. В самом начале первого фильма о недотепе жена звонит ему на работу, так как его нет дома уже 17-ый день, но никто даже не заметил его отсутствия. Оказывается, его случайно замуровали в отсеке старых лифтов. Зритель узнает Уго, его семью, коллег по работе, о его любви к синьорине Сильвани. Настоящий цирк устраивает он в японском ресторане, а Новый Год, проведенный с Уго, не забудется никогда…
Режиссер: Лучиано Салче
Актеры: Паоло Вилладжо, Анна Маццамауро, Жижи Редер, Джузеппе Анатрелли, Умберто Д’Орси, Лью Босисио, Дино Эмануэлли, Плинио Фернандо, Паоло Паолони, Елена Триколи, Альфредо Адами, Вилли Коломбайони, Артемио Антонини, Америго Альберани
Продолжительность: 01:42:01
Перевод: Одноголосый закадровый



Дата мировой премьеры: 27 марта 1975
Дата выхода DVD релиза: 28 октября 2008, «Мастер Тэйп»
Видеокодек: DivX 5
Битрейт видео: ~851 Кбит/с
Размер кадра: 544 x 304
Качество видео: DVDRip
Аудио: MP3, 2 ch, 96 Кбит/с
Код: выделить все

General
Complete name                    : E:\Fantocci.avi
Format                           : AVI
Format/Info                      : Audio Video Interleave
File size                        : 698 MiB
Duration                         : 1h 42mn
Overall bit rate                 : 956 Kbps
Writing library                  : VirtualDub build 21540/release

Video
ID                               : 0
Format                           : MPEG-4 Visual
Format settings, BVOP            : 1
Format settings, QPel            : No
Format settings, GMC             : No warppoints
Format settings, Matrix          : Default (H.263)
Muxing mode                      : Packed bitstream
Codec ID                         : DX50
Codec ID/Hint                    : DivX 5
Duration                         : 1h 42mn
Bit rate                         : 851 Kbps
Width                            : 544 pixels
Height                           : 304 pixels
Display aspect ratio             : 16:9
Frame rate                       : 25.000 fps
Color space                      : YUV
Chroma subsampling               : 4:2:0
Bit depth                        : 8 bits
Scan type                        : Progressive
Compression mode                 : Lossy
Bits/(Pixel*Frame)               : 0.206
Stream size                      : 621 MiB (89%)
Writing library                  : DivX 5.1.1 (Maupiti) (UTC 2003-11-19)

Audio
ID                               : 1
Format                           : MPEG Audio
Format version                   : Version 1
Format profile                   : Layer 3
Mode                             : Joint stereo
Mode extension                   : Intensity Stereo + MS Stereo
Codec ID                         : 55
Codec ID/Hint                    : MP3
Duration                         : 1h 42mn
Bit rate mode                    : Constant
Bit rate                         : 96.0 Kbps
Channel(s)                       : 2 channels
Sampling rate                    : 44.1 KHz
Compression mode                 : Lossy
Stream size                      : 70.0 MiB (10%)
Alignment                        : Split accross interleaves
Interleave, duration             : 40 ms (1.00 video frame)
Interleave, preload duration     : 500 ms
  • Создатели фильма долго искали способ, как передать внешность Марианджелы такой же уродливой, какой она была в книге. По этой причине дочку Фантоцци на самом деле играл коротышка с искусственным носом.

  • Геометр Филлини в исполнении Жижи Редера является пародией на итальянского кинорежиссера Федерико Феллини. Об этом говорят и сходство фамилий, и внешний вид героя.

  • Персонаж Фантоцци так популярен в Италии, что даже вошло в обиход слово «фантоцциано», означающее что-то или кого-то столь же невезучего, как Фантоцци.

  • Хотя фамилия Фантоцци считается североитальянской, на самом деле она сицилийского происхождения. Фильм же был основан на североитальянской семье и снят в Северной Италии, тем самым подкрепляя общее убеждение о том, что эта фамилия имеет североитальянские корни. Оригинальный вариант этой фамилии звучит как Фантоццино, и все пошло от того, что ее один единственный раз использовали в сокращенном варианте.
Скриншоты:



Время раздачи: 24/7Фантоцци на NNM-Club
.avi.torrent
 Торрент: Платиновая раздача  Зарегистрирован
 
Скачать


 Зарегистрирован:   03 Авг 2007 17:54:34
 Размер:   698 MB  (
 Рейтинг:   4.9 (Голосов: 37)
 Поблагодарили:   112
 Проверка:   Оформление проверено модератором 07 Авг 2007 11:44:59
Как cкачать  ·  Как раздать  ·  Правильно оформить  ·  Поднять ратио!  

_________________
подпись
Don Mumia
V.I.P. - МаФиоЗи
Стаж: 14 лет 9 мес.
Сообщений: 1409
Ratio: 157.244
Поблагодарили: 37120
100%
israel.gif
dmitrik

Пожалуйста, добавьте ещё 2-3 Скрина.
А также, пожалуйста, в будущем, для удобства пользователей, создавайте торрент-файл латиницей.
Пример - Fantocci.avi.torrent
Спасибо.
Zebestov
Стаж: 15 лет 3 мес.
Сообщений: 80
Ratio: 5.926
Поблагодарили: 160
100%
фильм, хоть и старый, но очень классный.
Metr_72
Релизер-меломан
Стаж: 14 лет 8 мес.
Сообщений: 2434
Ratio: 13.061
Поблагодарили: 27560
100%
Откуда: Rivne Сельская местность
ukraine.gif
Могу раздавать фильм "Фантоцци против всех". Вес файла около 700 метров. Если кому то нужно, будеи готовить релиз.
fredlelik
Стаж: 14 лет 11 мес.
Сообщений: 45
Ratio: 38.692
100%
Откуда: Moscow
russia.gif
За фильм пасиба!!! Надеюсь побыстрее стянуть)
dmitrik ®
Стаж: 14 лет 5 мес.
Сообщений: 11
Ratio: 1.94
Поблагодарили: 1005
4.17%
russia.gif
По всем своим релизам добавлю по 2 скрина. Впредь торрент файлы буду называть латинскими буквами

_________________
подпись
kossmozz
Стаж: 15 лет 3 мес.
Сообщений: 1826
Ratio: 14.706
Поблагодарили: 3258
100%
ussr.gif
mumia писал(а):

dmitrik

Пожалуйста, добавьте ещё 2-3 Скрина.


dmitrik
Просьба модератора так и не выполнена.

_________________
Авторитарная личность.
bogohool
Стаж: 14 лет 10 мес.
Сообщений: 23
Ratio: 3.3
Поблагодарили: 78
57.97%
Откуда: Питер
ussr.gif
dmitrik писал(а):

Перевод: Любительский

А насколько "любительский"? :-)
Смотреть можно?
ShnurAdi
Гость
Народ я здесь на этом форуме впервые, подскажите пожалуйста как скачать отоя непонимаю ..((((
BattleGrim
Стаж: 15 лет 3 мес.
Сообщений: 190
Ratio: 0.676
Раздал: 301 GB
Поблагодарили: 748
100%
Откуда: Москва
russia.gif
Культовый фильм. Сколько ни смотрю, каждый раз смешно :)
akilinster
Стаж: 13 лет 11 мес.
Сообщений: 58
Ratio: 13.234
15.09%
greece.gif
Каким плеером его смотреть? Одни полоски по всему экрану!!!
Homasss
Стаж: 13 лет 9 мес.
Сообщений: 11
Ratio: 15.623
Поблагодарили: 32
100%
russia.gif
Файл пустой!!! Одни нули!!!!
alpav
Стаж: 14 лет 9 мес.
Сообщений: 54
Ratio: 3.322
73.33%
iceland.gif
Homasss писал(а):
Файл пустой!!! Одни нули!!!!

ерунда
SKVSM
Покровитель талантов
Uploader 100+
Стаж: 11 лет 3 мес.
Сообщений: 1125
Ratio: 376.164
Поблагодарили: 22461
100%
nnm-club.gif
Просмотр доступен только для зарегистрированных пользователей
Показать сообщения:   
Начать новую тему   Ответить на тему    Торрент-трекер NNM-Club -> Классика кино и Старые фильмы до 90-х -> Зарубежная Классика (HD*Rip/LQ, DVDRip, SATRip, VHSRip) Часовой пояс: GMT + 3
Страница 1 из 1