Классический форум-трекер
canvas not supported
Нас вместе: 4 233 116

Звери - Музы (2011) [FLAC|Lossless]<Pop-Rock>


 
 
RSS
Начать новую тему   Ответить на тему    Торрент-трекер NNM-Club -> Rock, Alternative, Punk, Metal -> Русский Рок (Lossless)
Автор Сообщение
Doshik ®
Стаж: 13 лет 7 мес.
Сообщений: 1697
Ratio: 19.88
Поблагодарили: 97295
100%
barbados.gif
Звери - Музы (2011)
Год: 2011
Жанр: Pop-Rock
Продолжительность: 00:45:43
Label: Navigator Records
Catalog #: NR 0311 CD

Кодек: FLAC
Битрейт: Lossless

Трек лист:
01. Солнце за нас (3:29)
02. Кнопки (2:56)
03. Хочу тебя (3:05)
04. Никуда не надо (3:29)
05. Микки (4:02)
06. Рули (3:15)
07. Никому (3:10)
08. Не важно (4:47)
09. RnR (3:26)
10. Мы ждем перемен (4:25)
11. Солнце за нас (электро) (5:24)
12. Микки (электро) (4:14)
Код: выделить все

Exact Audio Copy V1.0 beta 2 from 29. April 2011

EAC extraction logfile from 21. June 2011, 2:08

 Звери /  Музы

Used drive  : PIONEER DVD-RW  DVR-212   Adapter: 8  ID: 0

Read mode               : Secure
Utilize accurate stream : Yes
Defeat audio cache      : Yes
Make use of C2 pointers : No

Read offset correction                      : 48
Overread into Lead-In and Lead-Out          : No
Fill up missing offset samples with silence : Yes
Delete leading and trailing silent blocks   : No
Null samples used in CRC calculations       : Yes
Used interface                              : Installed external ASPI interface

Used output format : Internal WAV Routines
Sample format      : 44.100 Hz; 16 Bit; Stereo

TOC of the extracted CD

     Track |   Start  |  Length  | Start sector | End sector
    ---------------------------------------------------------
        1  |  0:00.00 |  3:28.67 |         0    |    15666
        2  |  3:28.67 |  2:56.10 |     15667    |    28876
        3  |  6:25.02 |  3:05.32 |     28877    |    42783
        4  |  9:30.34 |  3:28.45 |     42784    |    58428
        5  | 12:59.04 |  4:02.08 |     58429    |    76586
        6  | 17:01.12 |  3:15.01 |     76587    |    91212
        7  | 20:16.13 |  3:10.30 |     91213    |   105492
        8  | 23:26.43 |  4:47.28 |    105493    |   127045
        9  | 28:13.71 |  3:26.16 |    127046    |   142511
       10  | 31:40.12 |  4:25.05 |    142512    |   162391
       11  | 36:05.17 |  5:23.46 |    162392    |   186662
       12  | 41:28.63 |  4:13.56 |    186663    |   205693

Range status and errors

Selected range

     Filename J:\MP3\Звери (FLAC)\Звери - Музы (2011) FLAC\Звери -  Музы.wav

     Peak level 99.9 %
     Extraction speed 6.8 X
     Range quality 100.0 %
     Test CRC 03CD33D3
     Copy CRC 03CD33D3
     Copy OK

No errors occurred

AccurateRip summary

Track  1  not present in database
Track  2  not present in database
Track  3  not present in database
Track  4  not present in database
Track  5  not present in database
Track  6  not present in database
Track  7  not present in database
Track  8  not present in database
Track  9  not present in database
Track 10  not present in database
Track 11  not present in database
Track 12  not present in database

None of the tracks are present in the AccurateRip database

End of status report

==== Log checksum 1476E4FEEF2F9F653298647A062FFA4C7D758DD751BE8271030B1A379CAD6554 ====
Код: выделить все

-----------------------

DON'T MODIFY THIS FILE

-----------------------

PERFORMER: auCDtect Task Manager, ver. 1.5.1RC4 build 1.5.1.5
Copyright (c) 2008-2010 y-soft. All rights reserved
http://y-soft.org

ANALYZER: auCDtect: CD records authenticity detector, version 0.8.2
Copyright (c) 2004 Oleg Berngardt. All rights reserved.
Copyright (c) 2004 Alexander Djourik. All rights reserved.

FILE: Звери -  Музы.flac
  Size: 348315982 Hash: DABB335965A43FE30932EC003DA884F0 Accuracy: -m8
  Conclusion: CDDA 99%
  Signature: 98368D01B54CEC9AD2E5415320BBEA495972CCE5
Время раздачи: 24/7
Zveri[nnm-club.ru].torrent
 Торрент: Платиновая раздача  Зарегистрирован
 
Скачать


Примагнититься
 Зарегистрирован:   13 Апр 2024 18:03:17
 Размер:   360 MB  (
 Рейтинг:   3.8 (Голосов: 26)
 Поблагодарили:   110
 Проверка:   Оформление проверено модератором 13 Апр 2024 21:25:03
Как cкачать  ·  Как раздать  ·  Правильно оформить  ·  Поднять ратио!  
mes27
Стаж: 14 лет 11 мес.
Сообщений: 22
Ratio: 12.054
3.02%
russia.gif
аааачуумееееееТььььь!)
SVDanila
Стаж: 13 лет 6 мес.
Сообщений: 10
Ratio: 9.848
100%
Тоже мне рокеры, с ранетками рядом их поставьте))
NorthOn
 
Админ
Стаж: 17 лет 9 мес.
Сообщений: 15804
Ratio: 947.588
Поблагодарили: 15003
100%
nnm-club.gif
Торрент обновлен в рамках акции Включаем DHT в древних раздачах
Просьба к скачавшим ранее и желающим подключиться к раздаче, перекачать торрент-файл.

_________________
Либо я найду путь, либо проложу его...
Показать сообщения:   
Начать новую тему   Ответить на тему    Торрент-трекер NNM-Club -> Rock, Alternative, Punk, Metal -> Русский Рок (Lossless) Часовой пояс: GMT + 3
Страница 1 из 1