Классический форум-трекер
canvas not supported
Нас вместе: 4 233 120

Обе Две / Obe Dve - Знаешь, что я делала (2011) [FLAC|Lossless]<Pop-Rock>


 
 
RSS
Начать новую тему   Ответить на тему    Торрент-трекер NNM-Club -> Rock, Alternative, Punk, Metal -> Русский Рок (Lossless)
Автор Сообщение
samuel32 ®
Стаж: 14 лет
Сообщений: 519
Ratio: 55.374
Поблагодарили: 14842
100%
russia.gif
Обе Две / Obe Dve - Знаешь, что я делала (2011)
Год: 2011
Жанр: Pop-Rock
Продолжительность: 00:37:00
Страна-производитель диска: Россия

Кодек: FLAC
Битрейт: Lossless

Трек лист:
01. Гонщики - 2:19
02. Яблони - 4:29
03. Выше Всех - 2:22
04. Море - 2:25
05. Уведомление - 2:36
06. Северо-Запад - 2:47
07. Десантник - 3:11
08. Улицы - 2:49
09. Пачка - 3:32
10.Милый - 3:23
11.Моряки - 7:07
"Обе две" сами предопределили свой прорыв, сочинив неполную дюжину громких, звонких и неотразимых песен о том, о чем на русском почему-то петь не очень принято, то есть о сексе. "Обе две" играют, казалось бы, утративший яркость и смысл молодежный задорный рок так, что хочется подпевать, танцевать и обниматься; "Обе две" отменно приспосабливают русскую девичью харизматику к западному напористому звуку; "Обе две" умеют петь сложноподчиненные предложения так, чтобы их кричали только хором; "Обе две", в конце концов, - это самый достоверный и массовый прорыв новой русской музыки за последнее время.
Код:

Exact Audio Copy V1.0 beta 1 from 15. November 2010

EAC extraction logfile from 20. June 2011, 21:23

Обе Две\Obe Dve / Знаешь, что я делала

Used drive  : Optiarc DVD RW AD-7201S   Adapter: 3  ID: 0

Read mode               : Secure
Utilize accurate stream : Yes
Defeat audio cache      : Yes
Make use of C2 pointers : No

Read offset correction                      : 48
Overread into Lead-In and Lead-Out          : No
Fill up missing offset samples with silence : Yes
Delete leading and trailing silent blocks   : No
Null samples used in CRC calculations       : Yes
Used interface                              : Native Win32 interface for Win NT & 2000

Used output format              : User Defined Encoder
Selected bitrate                : 128 kBit/s
Quality                         : High
Add ID3 tag                     : No
Command line compressor         : C:\Program Files (x86)\Exact Audio Copy\Flac\flac.exe
Additional command line options : -8 -V -T "ARTIST=%a" -T "TITLE=%t" -T "ALBUM=%g" -T "DATE=%y" -T "TRACKNUMBER=%n" -T "GENTRE=%m" -T "COMMENT=EAC FLAC -8" %s

TOC of the extracted CD

     Track |   Start  |  Length  | Start sector | End sector
    ---------------------------------------------------------
        1  |  0:00.00 |  2:18.49 |         0    |    10398
        2  |  2:18.49 |  4:28.66 |     10399    |    30564
        3  |  6:47.40 |  2:22.02 |     30565    |    41216
        4  |  9:09.42 |  2:25.28 |     41217    |    52119
        5  | 11:34.70 |  2:35.74 |     52120    |    63818
        6  | 14:10.69 |  2:47.32 |     63819    |    76375
        7  | 16:58.26 |  3:10.50 |     76376    |    90675
        8  | 20:09.01 |  2:49.25 |     90676    |   103375
        9  | 22:58.26 |  3:32.09 |    103376    |   119284
       10  | 26:30.35 |  3:23.34 |    119285    |   134543
       11  | 29:53.69 |  7:07.12 |    134544    |   166580

Range status and errors

Selected range

     Filename Z:\Music\ObeDve\Obe Dve - Знаешь, что я делала.wav

     Peak level 98.8 %
     Extraction speed 0.7 X
     Range quality 100.0 %
     Test CRC F06AFED0
     Copy CRC F06AFED0
     Copy OK

No errors occurred

End of status report
Код:

-----------------------

DON'T MODIFY THIS FILE

-----------------------

PERFORMER: auCDtect Task Manager, ver. 1.5.1RC4 build 1.5.1.5
Copyright (c) 2008-2010 y-soft. All rights reserved
http://y-soft.org

ANALYZER: auCDtect: CD records authenticity detector, version 0.8.2
Copyright (c) 2004 Oleg Berngardt. All rights reserved.
Copyright (c) 2004 Alexander Djourik. All rights reserved.

FILE: Obe Dve - Знаешь, что я делала.flac
  Size: 270946046 Hash: 569995B8AAC5B2568D7258DABCB3CB5D Accuracy: -m0
  Conclusion: CDDA 100%
  Signature: C055186EE4DE8421ACC96D35FAD6134A1321A29D
Время раздачи: круглосуточно
[NNM-Club.ru]_ObeDve - Znaesh' chto ya delala - 2011 (flac)nnm.torrent
 Торрент: Платиновая раздача  Зарегистрирован
 
Скачать


Примагнититься
 Зарегистрирован:   13 Апр 2024 20:43:10
 Размер:   261 MB  (
 Рейтинг:   4.6 (Голосов: 20)
 Поблагодарили:   94
 Проверка:   Оформление проверено модератором 13 Апр 2024 22:05:54
Как cкачать  ·  Как раздать  ·  Правильно оформить  ·  Поднять ратио!  
freegolova
Стаж: 13 лет 2 мес.
Сообщений: 2
Ratio: 1.315
100%
Респект ! Раньше имелось только в mp3
zelomudrennii
Стаж: 13 лет 3 мес.
Сообщений: 3
Ratio: 3.835
100%
ussr.gif
Да тоже респект, Кодек: FLAC
Битрейт: Lossless
kahuna_man
Стаж: 12 лет 9 мес.
Сообщений: 59
Ratio: 1.203
100%
kazakhstan.gif
Одна из лучших групп нового поколения!!! Катюша просто шикарна! Спасибо, Екатеринбург! :поклоняется:
Georgiiy
RG Soft
Реставратор, Модератор Программ, Uploader 300+
Стаж: 10 лет 6 мес.
Сообщений: 13198
Ratio: 4482.2
Раздал: 365.9 TB
Поблагодарили: 921960
100%
Откуда: Київ
ukraine.gif
Торрент обновлен в рамках акции Включаем DHT в древних раздачах.
Теперь вам нужно его скачать и открыть в торрент-клиенте, указав в качестве места сохранения раздаваемый файл или папку.

_________________
Мы прорвёмся сквозь бури наших дней!

Показать сообщения:   
Начать новую тему   Ответить на тему    Торрент-трекер NNM-Club -> Rock, Alternative, Punk, Metal -> Русский Рок (Lossless) Часовой пояс: GMT + 3
Страница 1 из 1