Классический форум-трекер
canvas not supported
Нас вместе: 4 233 109

Олег Мишин - Бестия (EP) (2011) [APE|Lossless]<Symphonic metal>


 
 
RSS
Начать новую тему   Ответить на тему    Торрент-трекер NNM-Club -> Rock, Alternative, Punk, Metal -> Русский Рок (Lossless)
Автор Сообщение
Steel_Cat ®
 
Стаж: 16 лет 7 мес.
Сообщений: 1251
Ratio: 406.943
Поблагодарили: 24711
100%
Откуда: Питер
ussr.gif
Олег Мишин - Бестия (EP) (2011)
Год: 2011
Жанр: Symphonic metal
Продолжительность: 21:01

Кодек: APE
Битрейт: Lossless

Трек лист:
01. Бестия
02. Содом
03. Искупление
04. Между двух огней
05. Вендетта
Музыкант, мульти-инструменталист Олег Мишин (Catharsis, ex-End Zone) представляет свою новую сольную работу – мини-альбом «Бестия».

После дебютного полноформатного альбома «Ангел» (CD-Maximum, 2007г.), записанного с сессионными музыкантами, Олег Мишин собирает постоянный состав – группу «О.М.» и начинает сольную концертную деятельность. Одновременно с этим группа работает над созданием нового материала, который плавно перерастает в мини-альбом под названием «Бестия».
В данном случае, приставка «мини» говорит лишь о не соответствии привычному формату в продолжительности звучания. Но по содержанию и художественному замыслу это вполне законченная работа.
«Бестия» включает в себя пять совершенно новых композиций и полноформатный видеоклип на композицию «Мим» (режиссура: Олег Мишин, Андрей Кустов) с альбома «Ангел». Каждая композиция представляет собой полноценное самостоятельное произведение, и в тоже время все они гармонично связаны между собой, плавно перетекая одна в другую, создавай эффект некоего цикла. Здесь можно встретить практически полную палитру классики тяжёлого жанра: и боевики с фолковыми мотивами, и золотую балладу, и даже произведение из акустической программы.
Лаконичные запоминающиеся мелодии, вокальное многоголосье, живой хор, проникновенные соло на флейте и виртуозные гитарные пассажи, тяжёлое современное звучание (пониженный строй «си»), насыщенные аранжировки с использованием практически всего состава симфонических инструментов (струнные, деревянные и медные духовые, перкуссия) создают необычность стиля и индивидуальность звучания группы.
В качестве клавишного звукового дизайнера был приглашен известный музыкант Александр Дронов (End Zone, «Вал’кирия»). Материал прекрасно записан на различных московских студиях.
Сведение и мастеринг осуществлены мэтром тяжёлой музыки – звукорежиссёром Евгением Виноградовым (студия «Дай Records»). Тексты написаны уже известными публике поэтами: Вадимом Авласенко, Георгием Арустамьяном и новой восходящей звездой отечественной рок-поэзии Дианой Солобуто. Олег Мишин выступил в качестве композитора, аранжировщика, продюсера альбома и мульти-инструменталиста: вокал, бэк-вокал, флейта, клавишные, соло-гитара, акустическая гитара.
Код: выделить все

Exact Audio Copy V0.99 prebeta 5 from 4. May 2009

EAC extraction logfile from 2. April 2011, 22:24

ОЛЕГ МИШИН / Бестия

Used drive  : PLEXTOR DVDR   PX-860A   Adapter: 0  ID: 0

Read mode               : Secure
Utilize accurate stream : Yes
Defeat audio cache      : Yes
Make use of C2 pointers : No

Read offset correction                      : 96
Overread into Lead-In and Lead-Out          : No
Fill up missing offset samples with silence : Yes
Delete leading and trailing silent blocks   : No
Null samples used in CRC calculations       : Yes
Used interface                              : Installed external ASPI interface

Used output format              : Monkey's Audio Lossless Encoder
Selected bitrate                : Normal Lossless Compression
Quality                         : High
Add ID3 tag                     : Yes
Command line compressor         : C:\Program Files\Monkey's Audio\MAC.exe

TOC of the extracted CD

     Track |   Start  |  Length  | Start sector | End sector
    ---------------------------------------------------------
        1  |  0:00.00 |  3:38.65 |         0    |    16414
        2  |  3:38.65 |  4:59.03 |     16415    |    38842
        3  |  8:37.68 |  4:20.16 |     38843    |    58358
        4  | 12:58.09 |  4:44.39 |     58359    |    79697
        5  | 17:42.48 |  3:23.23 |     79698    |    94945
        6  | 23:37.71 | 19:44.65 |    106346    |   195210

Range status and errors

Selected range

     Filename J:\MUSIC\ОЛЕГ МИШИН - Бестия.wav

     Peak level 100.0 %
     Range quality 100.0 %
     Test CRC 33D80DA0
     Copy CRC 33D80DA0
     Copy OK

No errors occurred

AccurateRip summary

Track  1  not present in database
Track  2  not present in database
Track  3  not present in database
Track  4  not present in database
Track  5  not present in database

None of the tracks are present in the AccurateRip database

End of status report
Код: выделить все

-----------------------

DON'T MODIFY THIS FILE

-----------------------

PERFORMER: auCDtect Task Manager, ver. 1.5.1RC4 build 1.5.1.5
Copyright (c) 2008-2010 y-soft. All rights reserved
http://y-soft.org

ANALYZER: auCDtect: CD records authenticity detector, version 0.8.2
Copyright (c) 2004 Oleg Berngardt. All rights reserved.
Copyright (c) 2004 Alexander Djourik. All rights reserved.

FILE: 05-Вендетта.ape
  Size: 21980701 Hash: D518FF7C570659214D93218621A19656 Accuracy: -m0
  Conclusion: CDDA 100%
  Signature: 61AE6CF448137C8784A6CD09018B389A6B8421B6
FILE: 04-Между_Двух_Огней.ape
  Size: 35556273 Hash: 2B54302287A36A57A4DE1A11826AF9E7 Accuracy: -m0
  Conclusion: CDDA 100%
  Signature: 6E27C6C1B3648CC06660CEAFFC2B2A1B8F7CCCB0
FILE: 03-Искупление.ape
  Size: 29856883 Hash: D1725AB65F79C944A8D798C058F2FB16 Accuracy: -m0
  Conclusion: CDDA 99%
  Signature: CB19DB3F4A035B89DA7733F2817E296DF497A968
FILE: 02-Содом.ape
  Size: 37196154 Hash: 3D794D4B71B483FCA878AD4D79F8D04E Accuracy: -m0
  Conclusion: CDDA 100%
  Signature: 6EA53F2F434EBFB4808B86A5634249B362CAC0FD
FILE: 01-Бестия.ape
  Size: 27325599 Hash: 65736C63E8719FAA3D7D9DA68ADF2672 Accuracy: -m0
  Conclusion: CDDA 99%
  Signature: 49E399970B610B0D9781F9C160A70C9C78375294
Время раздачи: 24/7
[NNM-Club.ru]_bestia.torrent
 Торрент: Платиновая раздача  Зарегистрирован
 
Скачать


Примагнититься
 Зарегистрирован:   13 Апр 2024 18:05:48
 Размер:   169 MB  (
 Рейтинг:   4.3 (Голосов: 13)
 Поблагодарили:   62
 Проверка:   Оформление проверено модератором 13 Апр 2024 19:11:35
Как cкачать  ·  Как раздать  ·  Правильно оформить  ·  Поднять ратио!  

_________________
-= The Stainless Steel Cat =-
Ehduard
Стаж: 14 лет
Сообщений: 1045
Ratio: 63.848
100%
russia.gif
О, ё, в кои то веки попался классный отечественный металл из новых. Вещь !. Спасибо. :)

_________________
нам чужого не надо :)
NorthOn
 
Админ
Стаж: 17 лет 9 мес.
Сообщений: 15804
Ratio: 947.588
Поблагодарили: 15003
100%
nnm-club.gif
Торрент обновлен в рамках акции Включаем DHT в древних раздачах
Просьба к скачавшим ранее и желающим подключиться к раздаче, перекачать торрент-файл.

_________________
Либо я найду путь, либо проложу его...
Показать сообщения:   
Начать новую тему   Ответить на тему    Торрент-трекер NNM-Club -> Rock, Alternative, Punk, Metal -> Русский Рок (Lossless) Часовой пояс: GMT + 3
Страница 1 из 1