Классический форум-трекер
canvas not supported
Нас вместе: 4 233 156

Пикник - 30 Световых Лет (2011) [FLAC|Lossless]<Rock>


 
 
RSS
Начать новую тему   Ответить на тему    Торрент-трекер NNM-Club -> Rock, Alternative, Punk, Metal -> Русский Рок (Lossless)
Автор Сообщение
Shuran80 ®
Свободный релизер
 
Стаж: 15 лет 1 мес.
Сообщений: 3351
Ratio: 1102.143
Раздал: 87.06 TB
Поблагодарили: 195457
100%
Откуда: Ленинград
ussr.gif
Пикник - 30 Световых Лет (2011)
Год: 2011
Жанр: Rock
Страна: Россия
Продолжительность: 03:28:42

Издатель: Вектор
Номер по каталогу: VEK-CD (21-23)
Кодек: FLAC (image+.cue)
Битрейт: Lossless

Описание:
Пикник — известная советская и российская рок-группа, основанная в 1978 году, хотя участники группы считают, что профессиональная и полносоставная группа образовалась в 1981 году, когда Эдмунд Шклярский стал лидером группы. Музыка группы, имеющая свои корни в русском роке, прогрессировала в оригинальный, необычный стиль с использованием симфонических, клавишных и экзотических народных инструментов.
Треклист:
01. Иероглиф (6:18)
02. Я - пущенная стрела (4:47)
03. Фиолетово-черный (4:12)
04. Серебра (4:23)
05. Фетиш (5:08)
06. Шарманка (5:10)
07. Дай себя сорвать (5:06)
08. Мы как трепетные птицы (5:23)
09. Самый звонкий крик-тишина (5:55)
10. Лицо (4:02)
11. Через 10000 лет (3:49)
12. Праздник (4:52)
13. Не кончается пытка (4:35)
14. Из коры себе подругу выстругал (4:20)
15. Там на самом на краю земли (2:11)

Продолжительность: 01:10:11
Код: выделить все

Exact Audio Copy V1.0 beta 2 from 29. April 2011

Отчёт EAC об извлечении, выполненном 29. октября 2011, 8:36

Пикник / 30 световых лет

Дисковод: SlimtypeDVD A  DS8A1P   Adapter: 1  ID: 0

Режим чтения                 : Достоверность
Использование точного потока : Да
Отключение кэша аудио        : Да
Использование указателей C2  : Нет

Коррекция смещения при чтении                     : 594
Способность читать области Lead-in и Lead-out     : Нет
Заполнение пропущенных сэмплов тишиной            : Да
Удаление блоков с тишиной в начале и конце        : Нет
При вычислениях CRC использовались нулевые сэмплы : Да
Интерфейс                                         : Встроенный Win32-интерфейс для Win NT/2000

Выходной формат          : Пользовательский кодировщик
Выбранный битрейт        : 896 kBit/s
Качество                 : Высокий
Добавление ID3-тега      : Нет
Утилита сжатия           : C:\Program Files\Exact Audio Copy\Flac\flac.exe
Дополнительные параметры : -V -8 -T "Date=%year%" -T "Genre=%genre%" %source%

TOC извлечённого CD

     Трек |   Старт  | Длительность | Начальный сектор | Конечный сектор
    ---------------------------------------------------------------------
       1  |  0:00.00 |    6:18.07   |           0      |      28356
       2  |  6:18.07 |    4:47.34   |       28357      |      49915
       3  | 11:05.41 |    4:11.48   |       49916      |      68788
       4  | 15:17.14 |    4:22.52   |       68789      |      88490
       5  | 19:39.66 |    5:08.04   |       88491      |     111594
       6  | 24:47.70 |    5:09.54   |      111595      |     134823
       7  | 29:57.49 |    5:06.04   |      134824      |     157777
       8  | 35:03.53 |    5:23.32   |      157778      |     182034
       9  | 40:27.10 |    5:55.22   |      182035      |     208681
      10  | 46:22.32 |    4:01.62   |      208682      |     226818
      11  | 50:24.19 |    3:48.55   |      226819      |     243973
      12  | 54:12.74 |    4:52.21   |      243974      |     265894
      13  | 59:05.20 |    4:35.01   |      265895      |     286520
      14  | 63:40.21 |    4:20.33   |      286521      |     306053
      15  | 68:00.54 |    2:10.57   |      306054      |     315860

Характеристики диапазона извлечения и сообщения об ошибках

Выбранный диапазон

     Имя файла C:\Users\Efftanazy\Desktop\Пикник - 30 световых лет CD1.wav

     Пиковый уровень 99.9 %
     Скорость извлечения 1.8 X
     Качество диапазона 100.0 %
     CRC теста 4F609343
     CRC копии 4F609343
     Копирование... OK

Ошибок не произошло

AccurateRip: сводка

Трек  1  отсутствует в базе данных
Трек  2  отсутствует в базе данных
Трек  3  отсутствует в базе данных
Трек  4  отсутствует в базе данных
Трек  5  отсутствует в базе данных
Трек  6  отсутствует в базе данных
Трек  7  отсутствует в базе данных
Трек  8  отсутствует в базе данных
Трек  9  отсутствует в базе данных
Трек 10  отсутствует в базе данных
Трек 11  отсутствует в базе данных
Трек 12  отсутствует в базе данных
Трек 13  отсутствует в базе данных
Трек 14  отсутствует в базе данных
Трек 15  отсутствует в базе данных

Ни одного трека нет в базе AccurateRip

Конец отчёта

==== Контрольная сумма отчёта 62A6F2188AD6AFB8DE894F0184185718DB47BD7E27FAE8A944D1F48E6BE97018 ====

Код: выделить все

-----------------------

DON'T MODIFY THIS FILE

-----------------------

PERFORMER: auCDtect Task Manager, ver. 1.5.1RC4 build 1.5.1.5
Copyright (c) 2008-2010 y-soft. All rights reserved
http://y-soft.org

ANALYZER: auCDtect: CD records authenticity detector, version 0.8.2
Copyright (c) 2004 Oleg Berngardt. All rights reserved.
Copyright (c) 2004 Alexander Djourik. All rights reserved.

FILE: Пикник - 30 световых лет CD1.flac
  Size: 475241243 Hash: 288CB8B52632D2C461465DB7A69FD524 Accuracy: -m0
  Conclusion: CDDA 100%
  Signature: EA4BB34940FB5D6E74B1EFD429EB820B6733293C

Треклист:
01. Египтянин (5:12)
02. Говорит и показывает (4:20)
03. У шамана три руки (3:31)
04. Театр абсурда (3:50)
05. Ночь (5:52)
06. Настоящие дни (4:13)
07. Себе не найдя двойников (5:13)
08. Телефон (4:59)
09. Еще один дождь (4:41)
10. Твоё сердце должно быть моим (4:16)
11. Пикник (4:36)
12. Инквизитор (5:42)
13. Колдыри да колдобины (3:58)
14. Немое кино (3:32)
15. Романс (2:25)

Продолжительность: 01:06:18
Код: выделить все

Exact Audio Copy V1.0 beta 2 from 29. April 2011

Отчёт EAC об извлечении, выполненном 29. октября 2011, 9:22

Пикник / 30 световых лет CD2

Дисковод: SlimtypeDVD A  DS8A1P   Adapter: 1  ID: 0

Режим чтения                 : Достоверность
Использование точного потока : Да
Отключение кэша аудио        : Да
Использование указателей C2  : Нет

Коррекция смещения при чтении                     : 594
Способность читать области Lead-in и Lead-out     : Нет
Заполнение пропущенных сэмплов тишиной            : Да
Удаление блоков с тишиной в начале и конце        : Нет
При вычислениях CRC использовались нулевые сэмплы : Да
Интерфейс                                         : Встроенный Win32-интерфейс для Win NT/2000

Выходной формат          : Пользовательский кодировщик
Выбранный битрейт        : 896 kBit/s
Качество                 : Высокий
Добавление ID3-тега      : Нет
Утилита сжатия           : C:\Program Files\Exact Audio Copy\Flac\flac.exe
Дополнительные параметры : -V -8 -T "Date=%year%" -T "Genre=%genre%" %source%

TOC извлечённого CD

     Трек |   Старт  | Длительность | Начальный сектор | Конечный сектор
    ---------------------------------------------------------------------
       1  |  0:00.00 |    5:11.72   |           0      |      23396
       2  |  5:11.72 |    4:19.54   |       23397      |      42875
       3  |  9:31.51 |    3:30.60   |       42876      |      58685
       4  | 13:02.36 |    3:50.25   |       58686      |      75960
       5  | 16:52.61 |    5:51.51   |       75961      |     102336
       6  | 22:44.37 |    4:13.14   |      102337      |     121325
       7  | 26:57.51 |    5:12.41   |      121326      |     144766
       8  | 32:10.17 |    4:59.28   |      144767      |     167219
       9  | 37:09.45 |    4:40.65   |      167220      |     188284
      10  | 41:50.35 |    4:15.42   |      188285      |     207451
      11  | 46:06.02 |    4:35.58   |      207452      |     228134
      12  | 50:41.60 |    5:42.07   |      228135      |     253791
      13  | 56:23.67 |    3:58.17   |      253792      |     271658
      14  | 60:22.09 |    3:32.18   |      271659      |     287576
      15  | 63:54.27 |    2:24.39   |      287577      |     298415

Характеристики диапазона извлечения и сообщения об ошибках

Выбранный диапазон

     Имя файла C:\Users\Efftanazy\Desktop\Пикник - 30 световых лет CD2.wav

     Пиковый уровень 99.9 %
     Скорость извлечения 1.8 X
     Качество диапазона 100.0 %
     CRC копии ECAC0DE8
     Копирование... OK

Ошибок не произошло

AccurateRip: сводка

Трек  1  отсутствует в базе данных
Трек  2  отсутствует в базе данных
Трек  3  отсутствует в базе данных
Трек  4  отсутствует в базе данных
Трек  5  отсутствует в базе данных
Трек  6  отсутствует в базе данных
Трек  7  отсутствует в базе данных
Трек  8  отсутствует в базе данных
Трек  9  отсутствует в базе данных
Трек 10  отсутствует в базе данных
Трек 11  отсутствует в базе данных
Трек 12  отсутствует в базе данных
Трек 13  отсутствует в базе данных
Трек 14  отсутствует в базе данных
Трек 15  отсутствует в базе данных

Ни одного трека нет в базе AccurateRip

Конец отчёта

==== Контрольная сумма отчёта CDE154ECB4B5E01B0976AF119793EAC9E2ABD25D140C3FD726C96533FEA56150 ====

Код: выделить все

-----------------------

DON'T MODIFY THIS FILE

-----------------------

PERFORMER: auCDtect Task Manager, ver. 1.5.1RC4 build 1.5.1.5
Copyright (c) 2008-2010 y-soft. All rights reserved
http://y-soft.org

ANALYZER: auCDtect: CD records authenticity detector, version 0.8.2
Copyright (c) 2004 Oleg Berngardt. All rights reserved.
Copyright (c) 2004 Alexander Djourik. All rights reserved.

FILE: Пикник - 30 световых лет CD2.flac
  Size: 437461844 Hash: D8CCBA74A31D95319DF4A7144523A13A Accuracy: -m0
  Conclusion: CDDA 100%
  Signature: FC4A493A793E23C4065263C63FA6E5A291E0D075

Треклист:
01. Кукла с человеческим лицом (3:57)
02. Королевство кривых (4:49)
03. Из мышеловки (4:35)
04. Немного огня (4:04)
05. Лишь влюбленному вампиру (5:36)
06. Лихорадка (5:31)
07. Ни твоё ни моё (4:19)
08. Глаза очерчены углём (4:34)
09. Бал (4:34)
10. Великан (5:05)
11. Я почти итальянец (4:21)
12. Нигредо (4:40)
13. Я-невидим (6:05)
14. Скользить по земле (4:54)
15. Вечер (5:08)

Продолжительность: 01:12:12
Код: выделить все

Exact Audio Copy V1.0 beta 2 from 29. April 2011

Отчёт EAC об извлечении, выполненном 29. октября 2011, 10:07

Пикник / 30 световых лет CD3

Дисковод: SlimtypeDVD A  DS8A1P   Adapter: 1  ID: 0

Режим чтения                 : Достоверность
Использование точного потока : Да
Отключение кэша аудио        : Да
Использование указателей C2  : Нет

Коррекция смещения при чтении                     : 594
Способность читать области Lead-in и Lead-out     : Нет
Заполнение пропущенных сэмплов тишиной            : Да
Удаление блоков с тишиной в начале и конце        : Нет
При вычислениях CRC использовались нулевые сэмплы : Да
Интерфейс                                         : Встроенный Win32-интерфейс для Win NT/2000

Выходной формат          : Пользовательский кодировщик
Выбранный битрейт        : 896 kBit/s
Качество                 : Высокий
Добавление ID3-тега      : Нет
Утилита сжатия           : C:\Program Files\Exact Audio Copy\Flac\flac.exe
Дополнительные параметры : -V -8 -T "Date=%year%" -T "Genre=%genre%" %source%

TOC извлечённого CD

     Трек |   Старт  | Длительность | Начальный сектор | Конечный сектор
    ---------------------------------------------------------------------
       1  |  0:00.00 |    3:56.67   |           0      |      17766
       2  |  3:56.67 |    4:49.31   |       17767      |      39472
       3  |  8:46.23 |    4:34.38   |       39473      |      60060
       4  | 13:20.61 |    4:03.69   |       60061      |      78354
       5  | 17:24.55 |    5:36.06   |       78355      |     103560
       6  | 23:00.61 |    5:30.49   |      103561      |     128359
       7  | 28:31.35 |    4:19.37   |      128360      |     147821
       8  | 32:50.72 |    4:33.42   |      147822      |     168338
       9  | 37:24.39 |    4:34.07   |      168339      |     188895
      10  | 41:58.46 |    5:04.64   |      188896      |     211759
      11  | 47:03.35 |    4:20.70   |      211760      |     231329
      12  | 51:24.30 |    4:40.17   |      231330      |     252346
      13  | 56:04.47 |    6:04.74   |      252347      |     279720
      14  | 62:09.46 |    4:54.22   |      279721      |     301792
      15  | 67:03.68 |    5:08.24   |      301793      |     324916

Характеристики диапазона извлечения и сообщения об ошибках

Выбранный диапазон

     Имя файла C:\Users\Efftanazy\Desktop\Пикник - 30 световых лет CD3.wav

     Пиковый уровень 99.9 %
     Скорость извлечения 1.9 X
     Качество диапазона 100.0 %
     CRC копии DD2E4F71
     Копирование... OK

Ошибок не произошло

AccurateRip: сводка

Трек  1  отсутствует в базе данных
Трек  2  отсутствует в базе данных
Трек  3  отсутствует в базе данных
Трек  4  отсутствует в базе данных
Трек  5  отсутствует в базе данных
Трек  6  отсутствует в базе данных
Трек  7  отсутствует в базе данных
Трек  8  отсутствует в базе данных
Трек  9  отсутствует в базе данных
Трек 10  отсутствует в базе данных
Трек 11  отсутствует в базе данных
Трек 12  отсутствует в базе данных
Трек 13  отсутствует в базе данных
Трек 14  отсутствует в базе данных
Трек 15  отсутствует в базе данных

Ни одного трека нет в базе AccurateRip

Конец отчёта

==== Контрольная сумма отчёта CFBECC737197AF441F3069C7CCB94A31A4792D26B2FEDC192B52FE5274169739 ====

Код: выделить все

-----------------------

DON'T MODIFY THIS FILE

-----------------------

PERFORMER: auCDtect Task Manager, ver. 1.5.1RC4 build 1.5.1.5
Copyright (c) 2008-2010 y-soft. All rights reserved
http://y-soft.org

ANALYZER: auCDtect: CD records authenticity detector, version 0.8.2
Copyright (c) 2004 Oleg Berngardt. All rights reserved.
Copyright (c) 2004 Alexander Djourik. All rights reserved.

FILE: Пикник - 30 световых лет CD3.flac
  Size: 472234824 Hash: D363B3A40C390C621A3007370294AAB6 Accuracy: -m0
  Conclusion: CDDA 99%
  Signature: 37621A7B192E6256DE347325948B06CBE1A54EB0

Пикник — известная советская и российская рок-группа, основанная в 1978 году, хотя участники группы считают, что профессиональная и полносоставная группа образовалась в 1981 году, когда Эдмунд Шклярский стал лидером группы. Музыка группы, имеющая свои корни в русском роке, прогрессировала в оригинальный, необычный стиль с использованием симфонических, клавишных и экзотических народных инструментов.

По мнению Шклярского, «привычная среда группы — русскоязычная публика. На других языках петь не имеет смысла. В Польше — поют на польском, в Англии — на английском, а мы — на русском. И это нормально!».

Состав:
Эдмунд Шклярский — вокал, гитара
Леонид Кирнос — ударные
Марат Корчемный — бас-гитара, бэк-вокал
Станислав Шклярский — клавишные

Оф. сайт группы
За предоставленный материал спасибо Nikolay2

Время раздачи: Обычно с 19:00 до 00:00 :спит:
[NNM-Club.ru]_Piknik - 30 svetovyih let (2011) FLAC.torrent
 Торрент: Платиновая раздача  Зарегистрирован
 
Скачать


Примагнититься
 Зарегистрирован:   13 Апр 2024 20:38:35
 Размер:   1.29 GB  (
 Рейтинг:   4.8 (Голосов: 110)
 Поблагодарили:   389
 Проверка:   Оформление проверено модератором 13 Апр 2024 22:07:01
Как cкачать  ·  Как раздать  ·  Правильно оформить  ·  Поднять ратио!  

_________________
Внимание! Временно отсутствую на своих раздачах. Просьба понять и простить.
Al-xs
Uploader 100+
Стаж: 13 лет 2 мес.
Сообщений: 362
Ratio: 88.032
100%
ussr.gif
Спасибо за релиз. Два дня назад побывали с женой на этом концерте- ребята как были профессионалами, так ими и остаются.
PV-geodez
Стаж: 13 лет 11 мес.
Сообщений: 88
Ratio: 24.339
Раздал: 4.511 TB
100%
Откуда: Москва
russia.gif
спасибо за релиз)) супер группа)
K-131
Стаж: 15 лет
Сообщений: 474
Ratio: 659.734
Поблагодарили: 11977
100%

_________________
nirvanago
Стаж: 13 лет 2 мес.
Сообщений: 6
Ratio: 0.739
100%
Очень рад этому релизу, спасибо большое!
federalstorm
Стаж: 14 лет 3 мес.
Сообщений: 550
Ratio: 4.335
Поблагодарили: 2
3.26%
andorra.gif
Спасибо, амиго!
nick1980
Стаж: 15 лет
Сообщений: 245
Ratio: 17.995
100%
Откуда: Гондурас(Штат Молдована)
moldova.gif
Спасибо большое,камрад!
egorkaru
Стаж: 14 лет 2 мес.
Сообщений: 631
Ratio: 213.938
100%
russia.gif
Shuran80:приветствую:
Благодарю!!!
macabr
Стаж: 16 лет 2 мес.
Сообщений: 453
Ratio: 1.209
100%
russia.gif
Спасибо огромное!Моя любимая группа.

_________________
Если можно, а тем более нужно, то как-то не очень и хочется.
razerx
Стаж: 14 лет 6 мес.
Сообщений: 10
Ratio: 23.481
Раздал: 43.19 TB
100%
ukraine.gif
Большое человеческое спасибо !!!
witaly-by
Стаж: 13 лет
Сообщений: 1
Ratio: 66.005
3.17%
+1 Респект огромный
telet8
Стаж: 14 лет 5 мес.
Сообщений: 391
Ratio: 1794.243
100%
russia.gif
Shuran80
Зачем делать такие рипы? Что не умеете потрековое разбиение сделать? Как теперь из этого audio-cd сделать, чтоб каждая песня была отдельно?
Mahmud_1
Стаж: 14 лет 6 мес.
Сообщений: 6
Ratio: 42.814
100%
ukraine.gif
telet8 писал(а): Перейти к сообщению
Shuran80
Зачем делать такие рипы? Что не умеете потрековое разбиение сделать? Как теперь из этого audio-cd сделать, чтоб каждая песня была отдельно?


Как записать CD из .ape или .flac с нормальными треками?
telet8
Стаж: 14 лет 5 мес.
Сообщений: 391
Ratio: 1794.243
100%
russia.gif
Mahmud_1
Спасибо за подсказку! Использовал Burrrn. Всё отлично записалось!

Shuran80
Извините за техническую неграмотность..
Georgiiy
RG Soft
Реставратор, Модератор Программ, Uploader 300+
Стаж: 10 лет 6 мес.
Сообщений: 13194
Ratio: 4480.798
Раздал: 365.8 TB
Поблагодарили: 921826
100%
Откуда: Київ
ukraine.gif
Торрент обновлен в рамках акции Включаем DHT в древних раздачах.
Теперь вам нужно его скачать и открыть в торрент-клиенте, указав в качестве места сохранения раздаваемый файл или папку.

_________________
Мы прорвёмся сквозь бури наших дней!

Показать сообщения:   
Начать новую тему   Ответить на тему    Торрент-трекер NNM-Club -> Rock, Alternative, Punk, Metal -> Русский Рок (Lossless) Часовой пояс: GMT + 3
Страница 1 из 1