Классический форум-трекер
canvas not supported
Нас вместе: 4 196 529

Груз 300 (1989) DVD5


 
 
RSS
Начать новую тему   Ответить на тему    Торрент-трекер NNM-Club -> Классика кино и Старые фильмы до 90-х -> Старые Отечественные Фильмы (DVD)
Автор Сообщение
rostik973 ®
Стаж: 12 лет 5 мес.
Сообщений: 800
Ratio: 31.11
Поблагодарили: 51068
100%
Откуда: Киев
ukraine.gif
Груз 300 (1989) DVD5
Жанр: Военный, Драма

Режиссер: Георгий Кузнецов
Актеры: Ромуальд Анцанс, Александр Данильченко, Александр Ческидов, Евгений Бунтов, Виктор Соловьев, Петр Вашчик, Сергей Иванов, Насир Соффи, Акхат Тураев, Мусо Исоев

Описание : Афганистан. 1986 год. От границы в сторону Кабула по горной дороге движется колонна советской военной бронетехники. С воздуха ее прикрывают боевые вертолеты. Путь колонны лежит через единственный в этих краях мост. Об этом прекрасно осведомлены афганские моджахеды и под руководством американских инструкторов готовят операцию по захвату моста и уничтожению заблокированной в этом случае советской техники.
В это время находящаяся в горах советская геологическая экспедиция подвергается ночному нападению душманов. Афганская охрана разбегается, и геологи решают уехать в Кабул. По дороге им сообщают о приближающейся военной колонне, с которой добираться до Кабула им будет значительно безопасней. Не знают они только одного, что уже давно включены моджахедами в операцию по захвату моста.


Возраст: 18+ (зрителям, достигшим 18 лет)

Продолжительность: 01:15:35
Качество видео: DVD5

Видео: MPEG-2, 720x576@768x576, ~6000 Kbps
Аудио: AC3, 2 ch, 192 Kbps

Меню: не анимированное
Субтитры: отсутствуют
Дополнительно: отсутствует
Title: Локальный диск
Size: 3.38 Gb ( 3 542 124 KBytes ) - DVD-5
Enabled regions: 1, 2, 3, 4, 5, 6, 7, 8

VTS_01 :
Play Length: 00:00:05+01:15:30
Video: PAL 4:3 (720x576) VBR
Audio:
Russian (Dolby AC3, 2 ch)
Общее
Полное имя : Gruz 300\VIDEO_TS\VTS_01_1.VOB
Формат : MPEG-PS
Размер файла : 1024 Мбайт
Продолжительность : 22 м.
Режим общего битрейта : Переменный
Общий поток : 6340 Кбит/сек

Видео
Идентификатор : 224 (0xE0)
Формат : MPEG Video
Версия формата : Version 2
Профиль формата : Main@Main
Параметр BVOP формата : Да
Параметр матрицы формата : Выборочная
Продолжительность : 22 м.
Вид битрейта : Переменный
Битрейт : 6022 Кбит/сек
Ширина : 704 пикселя
Высота : 576 пикселей
Соотношение сторон : 4:3
Частота кадров : 25,000 кадров/сек
Стандарт вещания : PAL
Цветовое пространство : YUV
Субдискретизация насыщенности : 4:2:0
Битовая глубина : 8 бит
Метод сжатия : С потерями
Бит/(Пиксели*Кадры) : 0.594
Размер потока : 973 Мбайт (95%)

Аудио
Идентификатор : 189 (0xBD)-128 (0x80)
Формат : AC-3
Формат/Информация : Audio Coding 3
Расширение режима : CM (complete main)
Режим смешивания : DVD-Video
Продолжительность : 22 м.
Вид битрейта : Постоянный
Битрейт : 192 Кбит/сек
Каналы : 2 канала
Расположение каналов : Front: L R
Частота : 48,0 КГц
Битовая глубина : 16 бит
Метод сжатия : С потерями
Задержка видео : -50 мс.
Размер потока : 31,0 Мбайт (3%)

Меню
Скриншоты:


Все одноименные релизы в Клубе

Время раздачи: 24/7 (до появления первых 3-5 скачавших)
[NNMClub.to]_Gruz300.1989.DVD5.torrent
 Торрент: Платиновая раздача  Зарегистрирован
 
Скачать


Примагнититься
 Зарегистрирован:   18 Май 2022 15:53:52
 Размер:   3.32 GB  (
 Рейтинг:   4.4 (Голосов: 36)
 Поблагодарили:   126
 Проверка:   Оформление проверено модератором 18 Май 2022 15:55:49
Как cкачать  ·  Как раздать  ·  Правильно оформить  ·  Поднять ратио!  
rostik973 ®
Стаж: 12 лет 5 мес.
Сообщений: 800
Ratio: 31.11
Поблагодарили: 51068
100%
Откуда: Киев
ukraine.gif
раздача переносится 22.00
-ms-
Стаж: 12 лет 9 мес.
Сообщений: 19
Ratio: 21.206
100%
russia.gif
на раздаче

_________________
не всё говори что знаешь, но всегда знай, что говоришь
almikl
Куратор Детского.
Модератор Видео.
RG Всё лучшее - детям!
Uploader 500+
Стаж: 15 лет
Сообщений: 5266
Ratio: 419.679
Поблагодарили: 128767
100%
Откуда: Дааалекое Подмосковье
russia.gif
Торрент перерегистрирован в рамках акции Включаем DHT в древних раздачах
Теперь вам нужно его скачать и открыть в торрент-клиенте, указав в качестве места сохранения раздаваемый файл или папку.
Показать сообщения:   
Начать новую тему   Ответить на тему    Торрент-трекер NNM-Club -> Классика кино и Старые фильмы до 90-х -> Старые Отечественные Фильмы (DVD) Часовой пояс: GMT + 3
Страница 1 из 1