Классический форум-трекер
canvas not supported
Нас вместе: 4 233 998

Tanita Tikaram - The Cappuccino Songs (1998) [FLAC|Lossless]<Pop, Folk>


 
 
RSS
Начать новую тему   Ответить на тему    Торрент-трекер NNM-Club -> Архив торрентов -> Архив Музыки
Автор Сообщение
eric_s ®
Стаж: 16 лет 2 мес.
Сообщений: 1018
Ratio: 8.963
Поблагодарили: 20618
100%
Tanita Tikaram - The Cappuccino Songs (1998)
Год: 1998
Жанр: Pop, Folk
Продолжительность: 00:41:18

Кодек: FLAC
Битрейт: Lossless

Трек лист:
01. Stop Listening [4:24]
02. Light Up My World [3:36]
03. Amore Si [4:02]
04. Back In Yours Arms [4:01]
05. The Cappuccino Song [3:51]
06. I Don't Wanna Lose At Love [4:20]
07. The Day Before You Came [4:25]
08. If I Ever [3:42]
09. I Like This [3:58]
10. I Knew You [4:59]
Код:

Exact Audio Copy V0.99 prebeta 4 from 23. January 2008

Отчёт EAC об извлечении, выполненном 5. января 2009, 14:00

Tanita Tikaram / The Cappuccino Songs

Дисковод: PIONEER DVD-RW  DVR-111L   Adapter: 3  ID: 0

Режим чтения                 : Достоверность
Использование точного потока : Да
Отключение кэша аудио        : Да
Использование указателей C2  : Нет

Коррекция смещения при чтении                     : 48
Способность читать области Lead-in и Lead-out     : Нет
Заполнение пропущенных сэмплов тишиной            : Да
Удаление блоков с тишиной в начале и конце        : Нет
При вычислениях CRC использовались нулевые сэмплы : Да
Интерфейс                                         : Встроенный Win32-интерфейс для Win NT/2000

Выходной формат : Внутренние WAV-операции
Формат сэмплов  : 44.100 Гц; 16 бит; стерео

TOC извлечённого CD

     Трек |   Старт  | Длительность | Начальный сектор | Конечный сектор
    ---------------------------------------------------------------------
       1  |  0:00.00 |    4:23.72   |           0      |      19796
       2  |  4:23.72 |    3:36.23   |       19797      |      36019
       3  |  8:00.20 |    4:02.32   |       36020      |      54201
       4  | 12:02.52 |    4:01.03   |       54202      |      72279
       5  | 16:03.55 |    3:50.50   |       72280      |      89579
       6  | 19:54.30 |    4:20.15   |       89580      |     109094
       7  | 24:14.45 |    4:25.17   |      109095      |     128986
       8  | 28:39.62 |    3:41.50   |      128987      |     145611
       9  | 32:21.37 |    3:58.18   |      145612      |     163479
      10  | 36:19.55 |    4:58.65   |      163480      |     185894

Характеристики диапазона извлечения и сообщения об ошибках

Выбранный диапазон

     Имя файла E:\Audio\Tanita Tikaram - The Cappuccino Songs.wav

     Пиковый уровень 94.4 %
     Качество диапазона 100.0 %
     CRC копии 75B56BB7
     Копирование... OK

Ошибок не произошло

Конец отчёта
Код:

-----------------------

DON'T MODIFY THIS FILE

-----------------------

PERFORMER: auCDtect Task Manager, ver. 1.5.1RC6 build 1.5.1.7
Copyright (c) 2008-2010 y-soft. All rights reserved
http://y-soft.org

ANALYZER: auCDtect: CD records authenticity detector, version 0.8.2
Copyright (c) 2004 Oleg Berngardt. All rights reserved.
Copyright (c) 2004 Alexander Djourik. All rights reserved.

FILE: Tanita Tikaram - The Cappuccino Songs.flac
  Size: 277878070 Hash: 7B8A916B4EE33DBEA6B2B21C448DB20B Accuracy: -m0
  Conclusion: CDDA 100%
  Signature: B35A82E15C26D85F1FA96E0FA5585AA2CAC7B3B6
Это перерип и перезалив Tanita Tikaram - The Cappuccino Songs [1998][ape] по причине утери оного.

Время раздачи: 0:00 - 7:00
[NNM-Club.ru]_Tanita Tikaram - The Cappuccino Songs.torrent
 Торрент: Платиновая раздача  Зарегистрирован
 
Скачать


 Зарегистрирован:   25 Май 2012 00:26:01
 Размер:   270 MB  (
 Рейтинг:   4.6 (Голосов: 11)
 Поблагодарили:   44
 Проверка:   Оформление проверено модератором 25 Май 2012 00:32:11
Как cкачать  ·  Как раздать  ·  Правильно оформить  ·  Поднять ратио!  
TiGerCar
Стаж: 14 лет 3 мес.
Сообщений: 14
Ratio: 1.847
100%
russia.gif
Суперска!!!!
...я ток одну музыку от этой дамочки слышал (аж мороз по коже - моЩЩЩЩ) ...а тут в десять раз больше
...большой респект
eric_s ®
Стаж: 16 лет 2 мес.
Сообщений: 1018
Ratio: 8.963
Поблагодарили: 20618
100%
в связи с поглощением раздачей Tanita Tikaram - 7 альбомов (1988 - 2005) [FLAC|Lossless]<Pop, Folk>, этот релиз можно отправлять в архив.

_________________
Бездействие - это тоже часть действия, к тому же далеко не самая пассивная.
Все можно наладить, если вертеть в руках достаточно долго.
DesideriuM
Реставратор Клуба
 
Стаж: 14 лет 8 мес.
Сообщений: 1368
Ratio: 68.467
Поблагодарили: 14293
100%
belarus.gif
Tanita Tikaram - 7 альбомов (1988 - 2005) [FLAC|Lossless]<Pop, Folk>
Топик был перенесен из форума Зарубежная поп-музыка (Lossless) в форум Архив Музыки

Причина переноса: Поглощено
DesideriuM
Показать сообщения:   
Начать новую тему   Ответить на тему    Торрент-трекер NNM-Club -> Архив торрентов -> Архив Музыки Часовой пояс: GMT + 3
Страница 1 из 1