Классический форум-трекер
canvas not supported
Нас вместе: 4 233 721

Призрачный гонщик 2 / Ghost Rider: Spirit of Vengeance (2011) [1080p] BDRip [Вертикальная анаморфная стереопара 3D]


 
 
RSS
Начать новую тему   Ответить на тему    Торрент-трекер NNM-Club -> Зарубежное кино -> Зарубежные Фильмы (3D)
Автор Сообщение
Den4ik_Rus_66 ®
Стаж: 12 лет
Сообщений: 198
Ratio: 1M
Раздал: 70.6 TB
Поблагодарили: 27990
100%
Откуда: С другой планеты
Призрачный гонщик 2 / Ghost Rider: Spirit of Vengeance (2011) BDRip
Русское название: Призрачный гонщик 2
Оригинальное название: Ghost Rider: Spirit of Vengeance
Год выпуска: 2011
Производство: США , ОАЭ
Жанр: фэнтези, боевик, триллер
Перевод: Дублированный
Субтитры: Отсутствуют

Дата мировой премьеры: 11 декабря 2011
Дата российской премьеры: 23 февраля 2012, «Централ Партнершип»
Дата выхода DVD / Blu-Ray релиза: 4 июня 2012, «Новый Диск»
Режиссер: Марк Невелдайн, Брайан Тейлор
Продюсер: Ашок Амритрадж, Стивен Пол, Ари Арад
Актеры: Николас Кейдж, Кьяран Хайндс, Виоланте Плачидо, Джонни Витуорт, Кристофер Ламберт, Идрис Эльба, Фергус Риордан, Спенсер Уидлинг, Сорин Тофан, Яцек Коман
Описание фильма:
Действие разворачивается на задворках Восточной Европы, где главный герой Джонни Блэйз безуспешно пытается справиться со своим проклятием. Его принимает на работу некая секта, которая пытается заполучить дьявола в тот момент, когда он пытается вселиться в тело его смертного сына на дне рождения мальчика.


Продолжительность: 01:35:29
Качество видео: BDRip
Контейнер: MKV
Видеокодек: MPEG-4 AVC/H.264
Битрейт видео: ~16,5 mb/s
Размер кадра: 1920x1080
Аудио 1: Русский, AC-3, 640 kbps, 6 каналов, 16 bit, (L, C, R, l, r) + LFE
Аудио 2: Русский, DTS, 1510 kbps, 6 каналов, 16 bit, (L, C, R, l, r) + LFE
Аудио 3: Английский, DTS, 1510 kbps, 6 каналов, 16 bit, (L, C, R, l, r) + LFE
Формат : Matroska
Версия формата : Version 2
Размер файла : 13,7 Гбайт
Продолжительность : 1 ч. 35 м.
Общий поток : 20,5 Мбит/сек
Название фильма : Призрачный гонщик 2 3D Rip
Дата кодирования : UTC 2012-06-02 14:25:04
Программа кодирования : mkvmerge v4.0.0 ('The Stars were mine') сборка от Jun 6 2010 16:18:42
Библиотека кодирования : libebml v1.0.0 + libmatroska v1.0.0

Видео
Идентификатор : 1
Формат : AVC
Формат/Информация : Advanced Video Codec
Профиль формата : High@L4.1
Параметр CABAC формата : Да
Параметр ReFrames формата : 2 кадра
Идентификатор кодека : V_MPEG4/ISO/AVC
Продолжительность : 1 ч. 35 м.
Битрейт : 16,5 Мбит/сек
Ширина : 1920 пикселей
Высота : 1080 пикселей
Соотношение сторон : 16:9
Частота кадров : 23,976 кадра/сек
Цветовое пространство : YUV
Субдискретизация насыщенности : 4:2:0
Битовая глубина : 8 бит
Тип развёртки : Прогрессивная
Бит/(Пиксели*Кадры) : 0.331
Размер потока : 11,0 Гбайт (80%)
Библиотека кодирования : x264 core
Default : Да
Forced : Нет
Основные цвета : BT.709-5, BT.1361, IEC 61966-2-4, SMPTE RP177
Характеристики трансфера : BT.709-5, BT.1361
Коэффициенты матрицы : BT.709-5, BT.1361, IEC 61966-2-4 709, SMPTE RP177

Аудио #1
Идентификатор : 2
Формат : AC-3
Формат/Информация : Audio Coding 3
Расширение режима : CM (complete main)
Идентификатор кодека : A_AC3
Продолжительность : 1 ч. 35 м.
Вид битрейта : Постоянный
Битрейт : 640 Кбит/сек
Каналы : 6 каналов
Расположение каналов : Front: L C R, Side: L R, LFE
Частота : 48,0 КГц
Битовая глубина : 16 бит
Метод сжатия : С потерями
Размер потока : 437 Мбайт (3%)
Заголовок : Dub
Язык : Russian
Default : Да
Forced : Нет

Аудио #2
Идентификатор : 3
Формат : DTS
Формат/Информация : Digital Theater Systems
Идентификатор кодека : A_DTS
Продолжительность : 1 ч. 35 м.
Вид битрейта : Постоянный
Битрейт : 1510 Кбит/сек
Каналы : 6 каналов
Расположение каналов : Front: L C R, Side: L R, LFE
Частота : 48,0 КГц
Битовая глубина : 16 бит
Метод сжатия : С потерями
Размер потока : 1,01 Гбайт (7%)
Заголовок : Dub
Язык : Russian
Default : Нет
Forced : Нет

Аудио #3
Идентификатор : 4
Формат : DTS
Формат/Информация : Digital Theater Systems
Идентификатор кодека : A_DTS
Продолжительность : 1 ч. 35 м.
Вид битрейта : Постоянный
Битрейт : 1510 Кбит/сек
Каналы : 6 каналов
Расположение каналов : Front: L C R, Side: L R, LFE
Частота : 48,0 КГц
Битовая глубина : 16 бит
Метод сжатия : С потерями
Размер потока : 1,01 Гбайт (7%)
Заголовок : Original
Язык : English
Default : Нет
Forced : Нет

Меню
00:00:00.000 : en:(01)00:00:00:000
00:06:34.435 : en:(02)00:06:34:435
00:11:54.922 : en:(03)00:11:54:922
00:15:16.248 : en:(04)00:15:16:248
00:19:10.440 : en:(05)00:19:10:440
00:25:49.130 : en:(06)00:25:49:130
00:28:24.327 : en:(07)00:28:24:327
00:35:03.601 : en:(08)00:35:03:601
00:43:26.604 : en:(09)00:43:26:604
00:51:54.194 : en:(10)00:51:54:194
01:00:03.891 : en:(11)01:00:03:891
01:04:03.172 : en:(12)01:04:03:172
01:11:09.014 : en:(13)01:11:09:014
01:14:05.524 : en:(14)01:14:05:524
01:20:06.927 : en:(15)01:20:06:927
01:25:34.337 : en:(16)01:25:34:337
Скриншоты:




Не забудь сказать -
Всем приятного просмотра!!!
Время раздачи: 24/7 до 5 сидов
Prizrachnyiy gonshchik 2.mkv[nnm-club.ru].torrent
 Торрент: Платиновая раздача  Зарегистрирован
 
Скачать


 Зарегистрирован:   02 Июн 2012 21:53:16
 Размер:   13.7 GB  (
 Рейтинг:   4.1 (Голосов: 49)
 Поблагодарили:   128
 Проверка:   Оформление проверено модератором 03 Июн 2012 08:14:39
Как cкачать  ·  Как раздать  ·  Правильно оформить  ·  Поднять ратио!  

_________________
Нет девушки, Нет денег, Несправедливо? Мне пофиг, Я, Раздолбай!
IIIakk
Стаж: 12 лет 7 мес.
Сообщений: 597
Ratio: 4.385
100%
russia.gif
Мутотень. Убитое время.
142
Стаж: 13 лет 5 мес.
Сообщений: 8
Ratio: 9.696
Раздал: 35.2 GB
100%
Откуда: Moscow
russia.gif
Фильм просто тупой. выключил после 5 минут просмотра.

_________________
Убей windows в себе!
Vandevyat
Стаж: 12 лет 10 мес.
Сообщений: 41
Ratio: 3.085
Раздал: 7.111 TB
100%
Откуда: Днепропетровск
ukraine.gif
Николас Кейдж! Как он мог...  !
tara74
Стаж: 13 лет 5 мес.
Сообщений: 5
Ratio: 0.558
63.33%
Нормальный фильм. Скажите спасибо, что для вас его пережали. Спасибо Den4i​k_Rus​_66.
zdm2013
Стаж: 10 лет 9 мес.
Сообщений: 14
Ratio: 2.575
19.05%
а раздача будет осуществляться?
zdm2013
Стаж: 10 лет 9 мес.
Сообщений: 14
Ratio: 2.575
19.05%
а что фильм просто для красоты тут выложили. за 2 недели 0% раздачи.тогда уберите его что бы люей не баламутить.
zdm2013
Стаж: 10 лет 9 мес.
Сообщений: 14
Ratio: 2.575
19.05%
Den4ik_Rus_66
добрый день!хотел узнать раздача будет осуществляться или нет?
zdm2013
Стаж: 10 лет 9 мес.
Сообщений: 14
Ratio: 2.575
19.05%
вообще тишина и нажал кнопку позвать скачавших ноль.
Показать сообщения:   
Начать новую тему   Ответить на тему    Торрент-трекер NNM-Club -> Зарубежное кино -> Зарубежные Фильмы (3D) Часовой пояс: GMT + 3
Страница 1 из 1