Классический форум-трекер
canvas not supported
Нас вместе: 4 206 551

DV: Невероятное вокруг нас. Следы ДНК [12 из 28] / Totally Phenomenal. The Trail of the DNA (2012) SATRip


 
 
RSS
Начать новую тему   Ответить на тему    Торрент-трекер NNM-Club -> Зарубежные TV-бренды -> Da Vinci Learning
Автор Сообщение
skorpionN ®
Документалист
Стаж: 15 лет 2 мес.
Сообщений: 9511
Ratio: 2534.096
Раздал: 22.35 TB
Поблагодарили: 367204
100%
DV: Невероятное вокруг нас. Следы ДНК [12 из 28] / Totally Phenomenal. The Trail of the DNA (2012) SATRip
Автор рипа ВалюхаXXI

Русское название: DV: Невероятное вокруг нас. Следы ДНК [12 из 28]
Оригинальное название: Totally Phenomenal. The Trail of the DNA
Режиссер / Телекомпания: Хавард Брэнер, Аксел Вагнер, Ганс Джарген Вон дер Бачер, Тилман Батнер, Дирк Ньюменн, Жан Хафт, Германия, SWR & DW-Transtel Deutsche Well
Год выпуска: 2012
Жанр: Документальный

Описание:
Порой кажется, что мы знаем обо всем, но это только, кажется. Все, что нас окружает, таит в себе множество загадок. Сериал «Невероятное вокруг нас / Totally Phenomenal», снятый немецкими документалистами студии «Юго-западное ТВ» при непосредственном участии радиостанции «Немецкая волна» рассказывает интересные вещи в сфере повседневной физики, химии, биологии и географии. В каждой 15-минутной серии, представлены увлекательные явления, как натурных съемок, так и при помощи модели 3-D анимации. Сериал интересен и познавателен не только для юных зрителей, но и взрослой аудитории.
12. Следы ДНК / The Trail of the DNA
Жизнь грабителей становится все сложнее. Даже если они сотрут все отпечатки пальцев, все равно остаются следы, которые могут привести к их аресту. Следователи ищут на месте преступления волосы, частички кожи, крошечные капли крови, содержащие неотъемлемый признак каждого человека — генетические «отпечатки пальцев». Сложные методы применяются для описания отдельных сегментов генотипа человека — его ДНК. С их помощью, можно уличить преступника в совершенном преступлении. Генетический «отпечаток пальцев» также дает возможность, например, установить отцовство. Эта серия рассказывает о сложных методах, применяемых для описания отдельных сегментов генотипа человека.

Продолжительность: 00:14:48

Перевод: Одноголосый закадровый, профессиональный

Видеокодек: Xvid
Битрейт видео: ~25.00fps 1688kbps
Размер кадра: 704x528
Качество видео: SATRip
Аудиокодек: MP3
Битрейт аудио: 48000Hz stereo 192kbps
Формат : AVI
Формат/Информация : Audio Video Interleave
Размер файла : 200 Мбайт
Продолжительность : 14 м.
Общий поток : 1891 Кбит/сек
Программа кодирования : VirtualDubMod 1.5.10.2 (build 2540/release)
Библиотека кодирования : VirtualDubMod build 2540/release

Видео
Идентификатор : 0
Формат : MPEG-4 Visual
Профиль формата : Advanced Simple@L5
Параметр BVOP формата : 1
Параметр QPel формата : Нет
Параметр GMC формата : Без точки перехода
Параметр матрицы формата : Default (MPEG)
Идентификатор кодека : XVID
Идентификатор кодека/Подсказка : XviD
Продолжительность : 14 м.
Битрейт : 1689 Кбит/сек
Ширина : 704 пикселя
Высота : 528 пикселей
Соотношение сторон : 4:3
Частота кадров : 25,000 кадров/сек
Цветовое пространство : YUV
Субдискретизация насыщенности : 4:2:0
Битовая глубина : 8 бит
Тип развёртки : Прогрессивная
Метод сжатия : С потерями
Бит/(Пиксели*Кадры) : 0.182
Размер потока : 179 Мбайт (89%)
Библиотека кодирования : XviD 1.2.1 (UTC 2008-12-04)

Аудио
Идентификатор : 1
Формат : MPEG Audio
Версия формата : Version 1
Профиль формата : Layer 3
Идентификатор кодека : 55
Идентификатор кодека/Подсказка : MP3
Продолжительность : 14 м.
Вид битрейта : Постоянный
Битрейт : 192 Кбит/сек
Каналы : 2 канала
Частота : 48,0 КГц
Метод сжатия : С потерями
Размер потока : 20,3 Мбайт (10%)
Выравнивание : Соединение по промежуткам
Продолжительность промежутка : 40 мс. (1,00 видеокадр)
Время предзагрузки промежутка : 504 мс.
Библиотека кодирования : LAME3.98r
Настройки программы : -m s -V 4 -q 2 -lowpass 18.6 -b 192
Выпуски из серии Невероятное вокруг нас

Скриншоты:




Время раздачи: 24/7 ( до первых скачавших, перебои со связью бывают,зависит от провайдера)
[NNM-Club.ru]_12_Totally_Phenomenal_The_Trail_of_the_DNA.avi.torrent
 Торрент: Платиновая раздача  Зарегистрирован
 
Скачать


Примагнититься
 Зарегистрирован:   22 Июл 2012 21:33:42
 Размер:   200 MB  (
 Рейтинг:   4.7 (Голосов: 20)
 Поблагодарили:   67
 Проверка:   Оформление проверено модератором 22 Июл 2012 21:34:37
Как cкачать  ·  Как раздать  ·  Правильно оформить  ·  Поднять ратио!  
Показать сообщения:   
Начать новую тему   Ответить на тему    Торрент-трекер NNM-Club -> Зарубежные TV-бренды -> Da Vinci Learning Часовой пояс: GMT + 3
Страница 1 из 1