Классический форум-трекер
canvas not supported
Нас вместе: 4 114 416

Гарри Поттер и Тайная комната [Расширенная версия] / Harry Potter and the Chamber of Secrets [Extended Cut] (2002) DVDRip


 
 
RSS
Начать новую тему   Ответить на тему    Торрент-трекер NNM-Club -> Архив торрентов -> Архив Видео
Автор Сообщение
FedExe ®
Uploader 300+
Стаж: 9 лет 11 мес.
Сообщений: 9668
Ratio: 390,515
Поблагодарили: 931843
100%
Откуда: LoX - living off experien
Гарри Поттер и Тайная комната [Расширенная версия] / Harry Potter and the Chamber of Secrets [Extended Cut] (2002) DVDRip
«Зло вернулось в Хогвартс»

Русское название: Гарри Поттер и Тайная комната [Расширенная версия]
Оригинальное название: Harry Potter and the Chamber of Secrets [Extended Cut]
Год выпуска: 2002
Жанр: Фэнтези, Приключения, Семейный
Перевод: Дублированный
Субтитры: Отсутствуют

Описание фильма:
Гарри Поттер переходит на второй курс школы "Хогвартс". Эльф Добби предупреждает Гарри об опасности, которая поджидает его там, и просит больше не возвращаться в "Хогвартс". Гарри не следует совету эльфа и становится свидетелем страшных событий, разворачивающихся в школе. Один за другим её обитатели оказываются под воздействием злых чар, превращающих их в окоченевшие статуи. А Гарри всё это время чудится зловещий голос, казалось бы, идущий из ниоткуда...

Режиссер: Крис Коламбус
Актеры: Дэниел Редклифф, Руперт Гринт, Эмма Уотсон, Алан Рикман, Кеннет Брана, Ричард Харрис, Робби Колтрейн, Ричард Гриффитс

Продолжительность: 02:46:13



Дата мировой премьеры: 3 ноября 2002
Дата российской премьеры: 26 декабря 2002, «Каро-Премьер»
Дата выхода DVD релиза: 23 июня 2009, «Юниверсал Пикчерс Рус»
Дата выхода Blu-Ray релиза: 20 января 2009, «Юниверсал Пикчерс Рус»
Видеокодек: Xvid
Битрейт видео: ~993 kbps
Размер кадра: 640x272
Качество видео: DVDRip
Аудиокодек: MP3 2.0
Битрейт аудио: 320 kbps
General
Format : AVI
Format/Info : Audio Video Interleave
File size : 1.54 GiB
Duration : 2h 46mn
Overall bit rate : 1 322 Kbps
Writing library : VirtualDub build 30091/release

Video
ID : 0
Format : MPEG-4 Visual
Format profile : Advanced Simple@L5
Format settings, BVOP : 1
Format settings, QPel : No
Format settings, GMC : No warppoints
Format settings, Matrix : Custom
Codec ID : XVID
Codec ID/Hint : XviD
Duration : 2h 46mn
Bit rate : 993 Kbps
Width : 640 pixels
Height : 272 pixels
Display aspect ratio : 2.35:1
Frame rate : 25.000 fps
Color space : YUV
Chroma subsampling : 4:2:0
Bit depth : 8 bits
Scan type : Progressive
Compression mode : Lossy
Bits/(Pixel*Frame) : 0.228
Stream size : 1.15 GiB (75%)
Writing library : XviD 1.2.1 (UTC 2008-12-04)

Audio
ID : 1
Format : MPEG Audio
Format version : Version 1
Format profile : Layer 3
Mode : Joint stereo
Codec ID : 55
Codec ID/Hint : MP3
Duration : 2h 46mn
Bit rate mode : Constant
Bit rate : 320 Kbps
Channel(s) : 2 channels
Sampling rate : 48.0 KHz
Compression mode : Lossy
Stream size : 380 MiB (24%)
Alignment : Aligned on interleaves
Interleave, duration : 40 ms (1.00 video frame)
Interleave, preload duration : 1008 ms
Writing library : LAME3.98r
Encoding settings : -m j -V 4 -q 2 -lowpass 20.5
Расширенная версия была получена путем врезания удаленных и расширенных сцен на свои места

Скриншоты:



Время раздачи: 24/7 по мере возможности...
[NNM-Club.ru]_[video] Garri.Potter.i.tainaya.komnata.Regiserskaya.versiya.2002.DVDRip Extended.avi.torrent
 Торрент: Платиновая раздача  Зарегистрирован
 
Скачать


Примагнититься
 Зарегистрирован:   25 Июл 2012 16:12:38
 Размер:   1,54 GB  (
 Рейтинг:   4,7 (Голосов: 117)
 Поблагодарили:   431
 Проверка:   Оформление проверено модератором 26 Июл 2012 09:31:23
Как cкачать  ·  Как раздать  ·  Правильно оформить  ·  Поднять ратио!  

_________________

Ну и конечно, данный материал выложен исключительно для ознакомления. После просмотра Вы обязаны удалить все файлы, отформатировать жесткий диск, разбить его молотком, облить кислотой и сжечь остатки в микроволновке.
xkOKCX
Стаж: 8 лет 9 мес.
Сообщений: 2
Ratio: 1,613
61.7%
Даите скорости плз
sharehouse
Стаж: 9 лет 7 мес.
Сообщений: 27
Ratio: 112,718
100%
russia.gif
С картинкой полный порядок, но уровень звука скачет неимоверно.
Diesel88
Стаж: 7 лет 5 мес.
Сообщений: 1604
Ratio: 21,019
100%
ussr.gif
После просмотра первой части действительно втягиваешься в процесс,и хочется знать:что-же ждет этих героев дальше.На их непростом,но интересном пути,полного приключений и опасностей.Благодарю за релиз
Aiq
Стаж: 9 лет 5 мес.
Сообщений: 99
Ratio: 1,84
Раздал: 1,307 TB
100%
russia.gif
Да, со звуком беда. Смотрел ночью. Началось нормально, чуть подбавил громкости, потом как заорало на всю квартиру :D
Топик был перенесен из форума Зарубежные Фильмы (HD*Rip/LQ, DVDRip, SATRip, VHSRip) в форум Архив Видео

Причина переноса: http://nnmclub.to/forum/viewtopic.php?t=670111
Alex_shadow
gopnik313
Стаж: 9 лет 4 мес.
Сообщений: 126
Ratio: 9,989
0.19%
daite skorosti
Показать сообщения:   
Начать новую тему   Ответить на тему    Торрент-трекер NNM-Club -> Архив торрентов -> Архив Видео Часовой пояс: GMT + 3
Страница 1 из 1