Классический форум-трекер
canvas not supported
Нас вместе: 4 233 495

Дурная слава / Notorious (1946) DVDRip + оригинальная звуковая дорожка


 
 
RSS
Начать новую тему   Ответить на тему    Торрент-трекер NNM-Club -> Классика кино и Старые фильмы до 90-х -> Зарубежная Классика (SD)
Автор Сообщение
futura3000 ®
Uploader 100+
Стаж: 16 лет 7 мес.
Сообщений: 5676
Ratio: 328.447
Поблагодарили: 22094
100%
Дурная слава / Notorious (1946) DVDRip
Русское название: Дурная слава
Оригинальное название: Notorious
Год выпуска: 1946
Жанр: Триллер, Драма, Мелодрама
Страна: США
Описание фильма:
1946 г. американский суд приговаривает Иогана Губермана к двадцати годам тюрьмы как германского шпиона за измену Родине. Его дочь Алисия знакомится на вечеринке с агентом ФБР Дэвлином, который получает задание от руководства раскрыть нацистский заговор в Рио де Жанейро. Дэвлин решает воспользоваться помощью девушки для выполнения своего задания, и она принимает его предложение. Так начинается их бурный «шпионский» роман. Они вступают в контакт с нацистским агентом Александром, за которого Алисия должна выйти замуж, чтобы узнать о секретных планах немецкой организации, в которой состоит Александр.
Режиссер: Альфред Хичкок
Актеры: Кэри Грант, Ингрид Бергман, Клод Рейнс, Луи Кэлхерн, Леопольдине Константин, Райнхольд Шюнцель, Морони Олсен, Иван Тризо, Алекс Минотис, Уолли Браун
Продолжительность: 01:37:04
Перевод: Двуголосый закадровый
Субтитры: Нет

Дата мировой премьеры: 15 августа 1946
Ограничения:
12+
Видеокодек: Xvid
Битрейт видео: ~1514 Кбит/с
Размер кадра: 640 x 464
Качество видео: DVDRip
Аудио:
#1: MP3, 2 ch, 128 Кбит/с (Русский)
#2: MP3, 2 ch, 128 Кбит/с (Оригинал)
General
Complete name : D:\Notorious.avi
Format : AVI
Format/Info : Audio Video Interleave
File size : 1.21 GiB
Duration : 1h 37mn
Overall bit rate : 1 785 Kbps
Writing application : VirtualDubMod 1.5.10.2 (build 2540/release)
Writing library : VirtualDubMod build 2540/release

Video
ID : 0
Format : MPEG-4 Visual
Format profile : Advanced Simple@L5
Format settings, BVOP : Yes
Format settings, QPel : No
Format settings, GMC : No warppoints
Format settings, Matrix : Custom
Codec ID : XVID
Codec ID/Hint : XviD
Duration : 1h 37mn
Bit rate : 1 514 Kbps
Width : 640 pixels
Height : 464 pixels
Display aspect ratio : 1.379
Frame rate : 25.000 fps
Resolution : 8 bits
Colorimetry : 4:2:0
Scan type : Progressive
Bits/(Pixel*Frame) : 0.204
Stream size : 1.03 GiB (85%)
Writing library : XviD 1.1.2 (UTC 2006-11-01)

Audio #1
ID : 1
Format : MPEG Audio
Format version : Version 1
Format profile : Layer 3
Mode : Joint stereo
Format_Settings_ModeExtension : MS Stereo
Codec ID : 55
Codec ID/Hint : MP3
Duration : 1h 37mn
Bit rate mode : Constant
Bit rate : 128 Kbps
Channel(s) : 2 channels
Sampling rate : 48.0 KHz
Stream size : 88.9 MiB (7%)
Alignment : Aligned on interleaves
Interleave, duration : 40 ms (1.00 video frame)
Interleave, preload duration : 504 ms
Writing library : LAME3.90.3

Audio #2
ID : 2
Format : MPEG Audio
Format version : Version 1
Format profile : Layer 3
Mode : Joint stereo
Format_Settings_ModeExtension : MS Stereo
Codec ID : 55
Codec ID/Hint : MP3
Duration : 1h 37mn
Bit rate mode : Constant
Bit rate : 128 Kbps
Channel(s) : 2 channels
Sampling rate : 48.0 KHz
Stream size : 88.9 MiB (7%)
Alignment : Aligned on interleaves
Interleave, duration : 40 ms (1.00 video frame)
Interleave, preload duration : 504 ms
Family Plot (1976)
Frenzy (1972)
Topaz (1969)
Torn Curtain (1966)
Marnie (1964)
Birds (1963)
Psycho (1960) и тут
North by Northwest (1959)
Vertigo (1958) и тут
Suspicion (1957)
The Wrong Man (1956)
The Man Who Knew Too Much (1956)
The Trouble with Harry (1955)
To Catch a Thief (1955)
Rear Window (1954)
Dial M for Murder (1954)
I Confess (1953)
Strangers on a Train (1951)
Stage Fright (1950)
Under Capricorn (1949)
Rope (1948)
The Paradine Case (1947)
Notorious (1946) и тут
Spellbound (1945) и тут
Watchtower Over Tomorrow (1945)
Bon Voyage (1944)
Aventure malgache (1944)
Shadow of a Doubt (1943) и тут
Saboteur (1942)
Suspicion (1941)
Mr. & Mrs. Smith (1941)
Foreign Correspondent (1940)
Rebecca (1940) и тут
Jamaica Inn (1939)
The Lady Vanishes (1938)
Young and Innocent (1937)
Sabotage (1936)
Secret Agent (1936) The 39 Steps (1935)
The Man Who Knew Too Much (1934)
Waltzes from Vienna (1934)
Number Seventeen (1932)
Rich and Strange (1931)
Mary (1931)
The Skin Game (1931)
Murder! (1930)
Juno and the Paycock (1930)
An Elastic Affair (1930)
Elstree Calling (1930)
The Manxman (1929)
Blackmail (1929)
Sound Test for Blackmail (1929)
Champagne (1928)
The Farmer's Wife (1928)
Easy Virtue (1928)
Downhill (1927)
The Ring (1927/I)
The Lodger (1927)
The Mountain Eagle (1926)
The Pleasure Garden (1925)
Always Tell Your Wife (1923)
Number 13 (1922)
Скриншоты:



Время раздачи: 24/7 - круглосуточно
Notorious.torrent
 Торрент: Платиновая раздача  Зарегистрирован
 
Скачать


 Зарегистрирован:   10 Дек 2007 07:58:29
 Размер:   1.21 GB  (
 Рейтинг:   4.6 (Голосов: 17)
 Поблагодарили:   67
 Проверка:   Оформление проверено модератором 10 Дек 2007 11:58:54
Как cкачать  ·  Как раздать  ·  Правильно оформить  ·  Поднять ратио!  
Vatson1972
Стаж: 16 лет 5 мес.
Сообщений: 37
Ratio: 1.011
Поблагодарили: 113
13.16%
ukraine.gif
Давно искал этот фильм, спасибо.
shvoloch
Стаж: 17 лет 1 мес.
Сообщений: 164
Ratio: 2.991
Поблагодарили: 39
100%
Откуда: Гобляндия
Вот только пересмотрел топ-250 имдб и подумал, что не хватает некоторых старых
фильмов для коллекции, как тут же наткнулся на этот фильм. Спасибо за раритет!

_________________
Я так люблю свою страну
и ненавижу государство
Александр С
Стаж: 14 лет 3 мес.
Сообщений: 117
Ratio: 1.418
100%
italy.gif
Спасибо!!! Буду смотреть с удовольствием :да:
DonnyBrook
Стаж: 12 лет 11 мес.
Сообщений: 22
Ratio: 2.465
Поблагодарили: 708
78.2%
germany.gif
Огромное спасибо за оригинальную звуковую дорожку.
Не могу смотреть Хичкока в каком-либо переводе.
toucher22
 
Стаж: 13 лет 11 мес.
Сообщений: 54
Ratio: 3.328
100%
Откуда: 169
Оригинальная дорожка действительно очень хорошо. Настоящий трансатлантический английский.
SKVSM
Покровитель талантов
Uploader 100+ Реставратор
Стаж: 13 лет 7 мес.
Сообщений: 2073
Ratio: 569.563
Поблагодарили: 35962
100%
nnm-club.gif

_________________
Das Boot (Uncut version)
Показать сообщения:   
Начать новую тему   Ответить на тему    Торрент-трекер NNM-Club -> Классика кино и Старые фильмы до 90-х -> Зарубежная Классика (SD) Часовой пояс: GMT + 3
Страница 1 из 1