Классический форум-трекер
canvas not supported
Нас вместе: 4 233 255

Иностранный корреспондент / Foreign Correspondent (1940) DVDRip


 
 
RSS
Начать новую тему   Ответить на тему    Торрент-трекер NNM-Club -> Классика кино и Старые фильмы до 90-х -> Зарубежная Классика (SD)
Автор Сообщение
futura3000 ®
Uploader 100+
Стаж: 16 лет 7 мес.
Сообщений: 5676
Ratio: 328.447
Поблагодарили: 22093
100%
Иностранный корреспондент / Foreign Correspondent (1940) DVDRip
Русское название: Иностранный корреспондент
Оригинальное название: Foreign Correspondent
Год выпуска: 1940
Жанр: Триллер, Мелодрама, Военный, Детектив
Страна: США
Описание фильма:
Джон Джонс — американский корреспондент, направленный в Европу, чтобы побольше узнать о голландско-бельгийском договоре, имеющем большое политическое значение накануне предстоящей войны. В Европе он становится свидетелем похищения голландского дипломата Ван Меера, знающего некий тайный пункт в этом договоре.
Режиссер: Альфред Хичкок
Актеры: Джоэл МакКри, Ларейн Дэй, Херберт Маршалл, Джордж Сэндерс, Альберт Бассерманн, Роберт Бенчли, Эдмунд Гвенн, Эдуардо Чианнелли, Гарри Девенпорт, Мартин Кослек
Продолжительность: 02:00:08
Перевод: Двуголосый закадровый
Субтитры: Нет

Дата мировой премьеры: 16 августа 1940
Дата выхода DVD релиза: 15 января 2009, «Мьюзик-Трейд»
Ограничения:
12+
Видеокодек: DivX 5
Битрейт видео: ~1427 Кбит/c
Размер кадра: 544 x 400
Качество видео: DVDRip
Аудио: AC3, 2 ch, 192 Кбит/с
Код: выделить все
General
Complete name                    : D:\Foreign Correspondent.avi
Format                           : AVI
Format/Info                      : Audio Video Interleave
File size                        : 1.37 GiB
Duration                         : 2h 0mn
Overall bit rate                 : 1 629 Kbps
Writing application              : VirtualDubMod 1.5.10.1 (build 2439/release)
Writing library                  : VirtualDubMod build 2439/release

Video
ID                               : 0
Format                           : MPEG-4 Visual
Format settings, BVOP            : Yes
Format settings, QPel            : No
Format settings, GMC             : No warppoints
Format settings, Matrix          : Default (H.263)
Muxing mode                      : Packed bitstream
Codec ID                         : DX50
Codec ID/Hint                    : DivX 5
Duration                         : 2h 0mn
Bit rate                         : 1 427 Kbps
Width                            : 544 pixels
Height                           : 400 pixels
Display aspect ratio             : 4:3
Frame rate                       : 23.976 fps
Resolution                       : 8 bits
Colorimetry                      : 4:2:0
Scan type                        : Progressive
Bits/(Pixel*Frame)               : 0.274
Stream size                      : 1.20 GiB (88%)
Writing library                  : DivX 5.0.5 (UTC 2003-04-24)

Audio
ID                               : 1
Format                           : AC-3
Format/Info                      : Audio Coding 3
Codec ID                         : 2000
Duration                         : 2h 0mn
Bit rate mode                    : Constant
Bit rate                         : 192 Kbps
Channel(s)                       : 2 channels
Channel positions                : Front: L R
Sampling rate                    : 48.0 KHz
Video delay                      : 16ms
Stream size                      : 165 MiB (12%)
Alignment                        : Split accross interleaves
Interleave, duration             : 42 ms (1.00 video frame)
Interleave, preload duration     : 500 ms
Family Plot (1976)
Frenzy (1972)
Topaz (1969)
Torn Curtain (1966)
Marnie (1964)
Birds (1963)
Psycho (1960) и тут
North by Northwest (1959)
Vertigo (1958) и тут
Suspicion (1957)
The Wrong Man (1956)
The Man Who Knew Too Much (1956)
The Trouble with Harry (1955)
To Catch a Thief (1955)
Rear Window (1954)
Dial M for Murder (1954)
I Confess (1953)
Strangers on a Train (1951)
Stage Fright (1950)
Under Capricorn (1949)
Rope (1948)
The Paradine Case (1947)
Notorious (1946) и тут
Spellbound (1945) и тут
Watchtower Over Tomorrow (1945)
Bon Voyage (1944)
Aventure malgache (1944)
Shadow of a Doubt (1943) и тут
Saboteur (1942)
Suspicion (1941)
Mr. & Mrs. Smith (1941)
Foreign Correspondent (1940)
Rebecca (1940) и тут
Jamaica Inn (1939)
The Lady Vanishes (1938)
Young and Innocent (1937)
Sabotage (1936)
Secret Agent (1936) The 39 Steps (1935)
The Man Who Knew Too Much (1934)
Waltzes from Vienna (1934)
Number Seventeen (1932)
Rich and Strange (1931)
Mary (1931)
The Skin Game (1931)
Murder! (1930)
Juno and the Paycock (1930)
An Elastic Affair (1930)
Elstree Calling (1930)
The Manxman (1929)
Blackmail (1929)
Sound Test for Blackmail (1929)
Champagne (1928)
The Farmer's Wife (1928)
Easy Virtue (1928)
Downhill (1927)
The Ring (1927/I)
The Lodger (1927)
The Mountain Eagle (1926)
The Pleasure Garden (1925)
Always Tell Your Wife (1923)
Number 13 (1922)
Скриншоты:



Время раздачи: 24/7
Foreign Correspondent.torrent
 Торрент: Платиновая раздача  Зарегистрирован
 
Скачать


 Зарегистрирован:   11 Дек 2007 19:33:44
 Размер:   1.37 GB  (
 Рейтинг:    (Голосов: 7)
 Поблагодарили:   39
 Проверка:   Оформление проверено модератором 11 Дек 2007 19:54:01
Как cкачать  ·  Как раздать  ·  Правильно оформить  ·  Поднять ратио!  
vombat
Стаж: 16 лет 5 мес.
Сообщений: 6
Ratio: 0.961
Поблагодарили: 35
0.26%
ukraine.gif
Спасибо. Искал. Буду качать.
Александр С
Стаж: 14 лет 3 мес.
Сообщений: 117
Ratio: 1.418
100%
italy.gif
Спасибо! Качаю. :wave:
SKVSM
Покровитель талантов
Uploader 100+ Реставратор
Стаж: 13 лет 7 мес.
Сообщений: 2073
Ratio: 569.55
Поблагодарили: 35935
100%
nnm-club.gif

_________________
Das Boot (Uncut version)
Показать сообщения:   
Начать новую тему   Ответить на тему    Торрент-трекер NNM-Club -> Классика кино и Старые фильмы до 90-х -> Зарубежная Классика (SD) Часовой пояс: GMT + 3
Страница 1 из 1