Классический форум-трекер
canvas not supported
Нас вместе: 4 232 307

Срочное уведомление/Черная метка / Burn Notice сезон 6 [серии 1-4 из 14](2012) WEB-DLRip (FilmGate)


 
 
RSS
Начать новую тему   Ответить на тему    Торрент-трекер NNM-Club -> Архив торрентов -> Архив Сериалов и Архив Старого многосерийного кино до 90-х
Автор Сообщение
bed ®
Стаж: 15 лет 2 мес.
Сообщений: 555
Ratio: 42.93
Поблагодарили: 851
100%
witch.png
Срочное уведомление/Черная метка / Burn Notice сезон 6 (2012) WEB-DLRip [серии 1-4 из 14]
Русское название: Срочное уведомление/Черная метка
Оригинальное название: Burn Notice сезон 6
Год выпуска: 2012
Жанр: Криминал, Детектив

Дата мировой премьеры: 14 июня 2012

Режиссер: Пол Холахан, Джон Т. Кречмер, Джереми С. Чечек
Актеры: Джеффри Донован (Майкл Вестен), Габриел Ануар (Фиона Гленан), Брюс Кэмпбелл (Сэм Экс), Шерон Глесс (Мадлин Вестен)

Описание фильма:
Шпион высокого класса и огромного уровня секретности Майкл Вестен находится на сверхсекретном задании, да вот случилась незадачка — от него по непонятным никому причинам отказалось его руководство, теперь он персона нон-грата во всех возможных спецслужбах, его счета заморожены, документы недействительны и вообще он никто и звать его никак. Майклу случайно удается добраться до Майами, где его уже ждет бывшая девушка-агент Фиона, которая, конечно же, тут же сообщила про приезд Майкла его мамаше — даме, которая ставит себе диагнозы по медицинскому справочнику, прямо как у Джерома Клапки Джерома, и найдет и достанет сына из любой точки планеты, даже самой горячей.

Майкл пытается как-то выжить в Майами, а так как без денег далеко не уйдешь, он начинает подрабатывать частным детективом — накрывает местного шулера, который решил сам себя ограбить. Майклу дают залог, он снимает себе квартиру у ночного клуба у странного русского типа, тут же ввязывается в скандал с наркодиллером местного районого масштаба, устраивает перестрелки, в общем, ведет себя, как и положено шпиону. За ним следит ФБР, ни на шаг не отходя, плюс еще, наверное, пасет пару секретных служб. Майкл постоянно общается с Сэмом — агентом в отставке, который только и делает, что ест, пьет и дает ценные советы всем, кто обращается. Однажды Майкл возвращается домой и находит у себя на полу свои же фотографии, сделанные таким же профессионалом, как он сам. Кто за ним следит? Почему от него отказались спецслужбы? Что вообще происходит?

Перевод: Многоголосый закадровый, любительский
Релиз группа: FilmGate
Язык: рус. \ eng
Озвучка / Автор перевода: ireeda, film45, Proton, zeddicus,zajiga / Николай
Вид субтитров: Отсутствуют

Продолжительность: ~00:44:00
Качество видео: WEB-DLRip

Видеокодек: Xvid
Битрейт видео: ~1100 Kbps
Размер кадра: 656x368 (16/9)
Аудиокодек: MP3
Битрейт аудио: rus: 48 KHz, 2 ch, 192.00 Kbps eng: 48 KHz, 2 ch, 128 Kbps
Сэмпл: Скачать MediaInfo:
Полное имя : C:\Torrent\OUT\Burn Notice - 6 [nnmclub.to]\Burn_Notice.s06e01.WEB-DLRip.avi
Формат : AVI
Формат/Информация : Audio Video Interleave
Размер файла : 422 Мбайт
Продолжительность : 43 м.
Общий поток : 1371 Кбит/сек
Программа кодирования : VirtualDubMod 1.5.10.2 (build 2540/release)
Библиотека кодирования : VirtualDubMod build 2540/release

Видео
Идентификатор : 0
Формат : MPEG-4 Visual
Профиль формата : Advanced Simple@L5
Параметр BVOP формата : 1
Параметр QPel формата : Нет
Параметр GMC формата : Без точки перехода
Параметр матрицы формата : Default (H.263)
Идентификатор кодека : XVID
Идентификатор кодека/Подсказка : XviD
Продолжительность : 43 м.
Битрейт : 1101 Кбит/сек
Ширина : 656 пикселей
Высота : 368 пикселей
Соотношение сторон : 16:9
Частота кадров : 23,976 кадра/сек
Цветовое пространство : YUV
Субдискретизация насыщенности : 4:2:0
Битовая глубина : 8 бит
Тип развёртки : Прогрессивная
Метод сжатия : С потерями
Бит/(Пиксели*Кадры) : 0.190
Размер потока : 339 Мбайт (80%)
Библиотека кодирования : XviD 63

Аудио #1
Идентификатор : 1
Формат : MPEG Audio
Версия формата : Version 1
Профиль формата : Layer 3
Режим : Joint stereo
Расширение режима : MS Stereo
Идентификатор кодека : 55
Идентификатор кодека/Подсказка : MP3
Продолжительность : 43 м.
Вид битрейта : Постоянный
Битрейт : 128 Кбит/сек
Каналы : 2 канала
Частота : 44,1 КГц
Метод сжатия : С потерями
Размер потока : 39,4 Мбайт (9%)
Выравнивание : Разделение по промежуткам
Продолжительность промежутка : 42 мс. (1,00 видеокадр)
Время предзагрузки промежутка : 500 мс.
Библиотека кодирования : LAME3.98r
Настройки программы : -m j -V 4 -q 0 -lowpass 17 -b 128

Аудио #2
Идентификатор : 2
Формат : MPEG Audio
Версия формата : Version 1
Профиль формата : Layer 3
Режим : Joint stereo
Идентификатор кодека : 55
Идентификатор кодека/Подсказка : MP3
Продолжительность : 43 м.
Вид битрейта : Постоянный
Битрейт : 128 Кбит/сек
Каналы : 2 канала
Частота : 48,0 КГц
Метод сжатия : С потерями
Размер потока : 39,4 Мбайт (9%)
Выравнивание : Соединение по промежуткам
Продолжительность промежутка : 42 мс. (1,00 видеокадр)
Время предзагрузки промежутка : 504 мс.
Библиотека кодирования : LAME3.98r
Настройки программы : -m j -V 4 -q 0 -lowpass 17 -b 128
Скриншоты:


Время раздачи: 24/7
Burn Notice - 6 [nnm-club.ru].torrent
 Торрент: Платиновая раздача  Зарегистрирован
 
Скачать


 Зарегистрирован:   13 Авг 2012 19:27:11
 Размер:   1.7 GB  (
 Рейтинг:   4.5 (Голосов: 14)
 Поблагодарили:   56
 Проверка:   Оформление проверено модератором 14 Авг 2012 19:26:48
Как cкачать  ·  Как раздать  ·  Правильно оформить  ·  Поднять ратио!  
incisor
Стаж: 17 лет
Сообщений: 82
Ratio: 6.749
35.45%
yeeessss!
lulu22
Стаж: 12 лет 2 мес.
Сообщений: 10
Ratio: 0.895
40.07%
скажите пожайлуста,а как часто добавляют новые серии????????????
bed ®
Стаж: 15 лет 2 мес.
Сообщений: 555
Ratio: 42.93
Поблагодарили: 851
100%
witch.png
Дальнейшая судьба перевода и озвучки сериала под сомнением - проект FilmGate закрыт его основателем.
Все ждут возможного перехода группы перевода и озвучки в другие проекты.
Пока, к сожалению, ясности нет. :( :незнает:
Pawkovi4
Стаж: 14 лет 8 мес.
Сообщений: 8
Ratio: 6.547
Раздал: 4.945 TB
5.71%
Это уже не первый проект, который набрал денег и закрылся...
bed ®
Стаж: 15 лет 2 мес.
Сообщений: 555
Ratio: 42.93
Поблагодарили: 851
100%
witch.png
Уважаемые господа - почитатели сериала Burn Notice!
В связи с форс-мажорными обстоятельствами разместил альтернативную раздачу шестого сезона.
Перевод Notabenoid, одноголосый любительский.
На сегодня имеются 9 серий.
При возобновлении перевода группой, работавшей с FilmGate, возобновлю данную раздачу.
Добро пожаловать Срочное уведомление (Черная метка) / Burn Notice сезон 6 (2012) WEB-DLRip [серии 1-9 из 18][обновляемая]
:приветствую:
Игорь Щербо
Стаж: 14 лет 6 мес.
Сообщений: 12
Ratio: 6.572
66.67%
russia.gif
Есть новая информация будет ли эта группа дальше переводить? Хочется смотреть с нормальной озвучкой, а то все впечатление портится.
melia73
Стаж: 13 лет 7 мес.
Сообщений: 219
Ratio: 3.722
99.5%
Откуда: Minsk
belarus.gif
Вроде не закрылись .
Оболтус222
Стаж: 14 лет 2 мес.
Сообщений: 101
Ratio: 24.492
100%
russia.gif
Попробовал посмотреть одноголоску, чёт не покатило. Будем ждать с надеждой на лучшее.
bed ®
Стаж: 15 лет 2 мес.
Сообщений: 555
Ratio: 42.93
Поблагодарили: 851
100%
witch.png
Возобновлен показ 6 сезона.Добавлена 11 серия в релизе Срочное уведомление (Черная метка) / Burn Notice сезон 6 [серии 1-11 из 18(2012) WEB-DLRip ][обновляемая]
Игорь Щербо
Стаж: 14 лет 6 мес.
Сообщений: 12
Ratio: 6.572
66.67%
russia.gif
Будет ли продолжена работа по данной озвучке?
men in black
Uploader 500+
Стаж: 14 лет 4 мес.
Сообщений: 334
Ratio: 2475.353
Раздал: 705.7 TB
100%
russia.gif
Это 5-й сезон или 6-й? :(
mativivxv
Стаж: 14 лет
Сообщений: 642
Ratio: 10.316
100%
Откуда: Чудово
russia.gif
Будут ли дальше озвучивать оч интересно ?

_________________
Я дурак мне все можно!!
IRU Home 717 TWR Intel Core i7 9700K/ 64 Гб/ 960 Гб/ GeForce RTX 2080 Ti 11 Гб/ Full-Tower
Win 10
Топик был перенесен из форума Зарубежные сериалы в форум Архив Сериалов

Причина переноса: раздающего не было месяц или более.
Дмитрий Валерьевич
Показать сообщения:   
Начать новую тему   Ответить на тему    Торрент-трекер NNM-Club -> Архив торрентов -> Архив Сериалов и Архив Старого многосерийного кино до 90-х Часовой пояс: GMT + 3
Страница 1 из 1