Классический форум-трекер
canvas not supported
Нас вместе: 4 211 000

Фантоцци против всех / Fantozzi contro tutti (1980) DVDRip


 
 
RSS
Начать новую тему   Ответить на тему    Торрент-трекер NNM-Club -> Классика кино и Старые фильмы до 90-х -> Зарубежная Классика (HD*Rip/LQ, DVDRip, SATRip, VHSRip)
Автор Сообщение
SKVSM ®
Покровитель талантов
Uploader 100+
Стаж: 12 лет 1 мес.
Сообщений: 1301
Ratio: 440.56
Поблагодарили: 23845
100%
nnm-club.gif
Фантоцци против всех / Fantozzi contro tutti (1980) DVDRip
Русское название: Фантоцци против всех
Оригинальное название: Fantozzi contro tutti
Год выпуска: 1980
Жанр: Комедия
Выпущено: Италия / Maura Film s.r.l.

Описание фильма:
Третий фильм о злоключениях бухгалтера Уго Фантоцци. К унижениям на работе, опять добавляются личные проблемы. Ночи, проведенные перед телевизором в поисках какого-нибудь эротического фильма... Забавная слежка за женой, увлеченной брутальным булочником. Существование туповатого Фантоцци - настоящая одиссея грустных, и в тоже время, необычайно смешных событий.

Режиссер: Нери Паренти, Паоло Вилладжо
Актеры: Паоло Вилладжио, Милена Вукотич, Джиджи Редер, Камилло Милли, Пол Мюллер, Плинио Фернандо, Гуэррино Кривелло, Анджело Пеллегрино, Пьетро Дзардини, Диего Абатантуоно, Джузеппе Анатрелли

Продолжительность: 01:33:34
Перевод: Многоголосый закадровый
Субтитры: Нет


Дата выхода DVD релиза: 28 октября 2008, «Мастер Тэйп»

Видеокодек: Xvid
Битрейт видео: ~1894 Кбит/с
Размер кадра: 720x400
Качество видео: DVDRip
Аудиокодек: AC3 2.0
Битрейт аудио: AC3, 2ch, 192 Кбит/с
Сэмпл: Ссылка
General
Complete name : F:\Fantoci protiv vseh.1980.XviD.DVDRip.avi
Format : AVI
Format/Info : Audio Video Interleave
File size : 1.37 GiB
Duration : 1h 33mn
Overall bit rate : 2 092 Kbps
Writing application : VirtualDubMod 1.5.4.1 (build 2178/release)
Writing library : VirtualDubMod build 2178/release

Video
ID : 0
Format : MPEG-4 Visual
Format profile : Advanced Simple@L5
Format settings, BVOP : 1
Format settings, QPel : No
Format settings, GMC : No warppoints
Format settings, Matrix : Custom
Codec ID : XVID
Codec ID/Hint : XviD
Duration : 1h 33mn
Bit rate : 1 894 Kbps
Width : 720 pixels
Height : 400 pixels
Display aspect ratio : 16:9
Frame rate : 25.000 fps
Color space : YUV
Chroma subsampling : 4:2:0
Bit depth : 8 bits
Scan type : Progressive
Compression mode : Lossy
Bits/(Pixel*Frame) : 0.263
Stream size : 1.24 GiB (90%)
Writing library : XviD 1.1.2 (UTC 2006-11-01)

Audio
ID : 1
Format : AC-3
Format/Info : Audio Coding 3
Mode extension : CM (complete main)
Format settings, Endianness : Big
Codec ID : 2000
Duration : 1h 33mn
Bit rate mode : Constant
Bit rate : 192 Kbps
Channel(s) : 2 channels
Channel positions : Front: L R
Sampling rate : 48.0 KHz
Bit depth : 16 bits
Compression mode : Lossy
Stream size : 128 MiB (9%)
Alignment : Split accross interleaves
Interleave, duration : 96 ms (2.40 video frames)
Interleave, preload duration : 96 ms
Language : Russian
Скриншоты:


Время раздачи: 24/7 - круглосуточно
 Торрент: Платиновая раздача  Зарегистрирован
 
Скачать


Примагнититься
 Зарегистрирован:   25 Сен 2012 21:41:42
 Размер:   1.37 GB  (
 Рейтинг:   4.9 (Голосов: 85)
 Поблагодарили:   251
 Проверка:   Оформление проверено модератором 26 Сен 2012 02:42:39
Как cкачать  ·  Как раздать  ·  Правильно оформить  ·  Поднять ратио!  
мурат555
Стаж: 11 лет 10 мес.
Сообщений: 268
Ratio: 3.138
0.2%
russia.gif
побольше бы таких фильмов класссс!! :респект:
Marcel 17
Uploader 100+
Стаж: 12 лет 7 мес.
Сообщений: 284
Ratio: 147.053
100%
Откуда: Стерлитамак
russia.gif
Супер !!! Молодец !!! ещё пожалуйста (II Трагический. Фантоцци)
JONNSS7
Стаж: 11 лет 2 мес.
Сообщений: 270
Ratio: 4.326
Поблагодарили: 2847
100%
pirates.png
А в какой серии они кино "Броненосец Потёмкин" снимали? Точнее их заставили :лол:
SKVSM ®
Покровитель талантов
Uploader 100+
Стаж: 12 лет 1 мес.
Сообщений: 1301
Ratio: 440.56
Поблагодарили: 23845
100%
nnm-club.gif
Diesel88
Стаж: 9 лет 11 мес.
Сообщений: 1732
Ratio: 21.604
100%
ussr.gif
Благодарю и за третью часть этого кинофильма.
SKVSM ®
Покровитель талантов
Uploader 100+
Стаж: 12 лет 1 мес.
Сообщений: 1301
Ratio: 440.56
Поблагодарили: 23845
100%
nnm-club.gif
Потрошитель писал(а): Перейти к сообщению
Благодарю и за третью часть этого кинофильма.


Не за что надеюсь остальные части вас тоже не разочаруют.
Показать сообщения:   
Начать новую тему   Ответить на тему    Торрент-трекер NNM-Club -> Классика кино и Старые фильмы до 90-х -> Зарубежная Классика (HD*Rip/LQ, DVDRip, SATRip, VHSRip) Часовой пояс: GMT + 3
Страница 1 из 1