Классический форум-трекер
canvas not supported
Нас вместе: 4 210 922

Хороший доктор / The Good Doctor (2011) HDRip


 
 
RSS
Начать новую тему   Ответить на тему    Торрент-трекер NNM-Club -> Архив торрентов -> Архив Видео
Автор Сообщение
eXPpectant ®
Стаж: 13 лет
Сообщений: 2457
Ratio: 1628.264
Раздал: 18.08 TB
Поблагодарили: 306127
100%
Откуда: Нижний Тагил + Дмитров
russia.gif
Хороший доктор / The Good Doctor (2011) HDRip
Русское название: Хороший доктор
Оригинальное название: The Good Doctor
Год выпуска: 2011
Страна: США
Жанр: Триллер, Драма
Описание фильма:
Молодой врач стремится произвести впечатление на свое начальство и коллег. Когда в клинику, где он работает, попадает 18-летняя пациентка с инфекцией почек, доктор вмешивается в ее лечение, чтобы надолго оставить девушку в больнице.
Режиссер: Лэнс Дэйли
Актеры: Орландо Блум, Райли Кеох, Тараджи П. Хенсон, Роб Морроу, Майкл Пенья
Продолжительность: 01:30:49
Перевод: Одноголосый закадровый, любительский


Дата мировой премьеры: 23 апреля 2011
Дата российской премьеры: 21 марта 2013, «Другое кино»

Видеокодек: Xvid
Битрейт видео: ~939 kb/s
Размер кадра: 688x368
Качество видео: HDRip
Аудиокодек: MP3 (2 ch)
Битрейт аудио: 128 kb/s
Общее
Полное имя : D:\торрент-раздачи\Horoshyj_doktor_2011_HDRip_700.avi
Формат : AVI
Формат/Информация : Audio Video Interleave
Размер файла : 700 Мбайт
Продолжительность : 1 ч. 30 м.
Общий поток : 1077 Кбит/сек
Программа кодирования : VirtualDubMod 1.5.10.3 | www.virtualdub-fr.org || (build 2550/release)
Библиотека кодирования : VirtualDubMod build 2550/release

Видео
Идентификатор : 0
Формат : MPEG-4 Visual
Профиль формата : Advanced Simple@L5
Параметр BVOP формата : 1
Параметр QPel формата : Нет
Параметр GMC формата : Без точки перехода
Параметр матрицы формата : Default (MPEG)
Идентификатор кодека : XVID
Идентификатор кодека/Подсказка : XviD
Продолжительность : 1 ч. 30 м.
Битрейт : 940 Кбит/сек
Ширина : 688 пикселей
Высота : 368 пикселей
Соотношение сторон : 1,85:1
Частота кадров : 23,976 кадра/сек
Цветовое пространство : YUV
Субдискретизация насыщенности : 4:2:0
Битовая глубина : 8 бит
Тип развёртки : Прогрессивная
Метод сжатия : С потерями
Бит/(Пиксели*Кадры) : 0.155
Размер потока : 610 Мбайт (87%)
Библиотека кодирования : XviD 1.2.1 (UTC 2008-12-04)

Аудио
Идентификатор : 1
Формат : MPEG Audio
Версия формата : Version 1
Профиль формата : Layer 3
Идентификатор кодека : 55
Идентификатор кодека/Подсказка : MP3
Продолжительность : 1 ч. 30 м.
Вид битрейта : Постоянный
Битрейт : 128 Кбит/сек
Каналы : 2 канала
Частота : 48,0 КГц
Метод сжатия : С потерями
Размер потока : 83,1 Мбайт (12%)
Выравнивание : Соединение по промежуткам
Продолжительность промежутка : 42 мс. (1,00 видеокадр)
Время предзагрузки промежутка : 504 мс.
Библиотека кодирования : LAME3.98r
Настройки программы : -m s -V 4 -q 2 -lowpass 17 -b 128
Скриншоты:

Время раздачи: 24/7
 Торрент: Платиновая раздача  Зарегистрирован
 
Скачать


Примагнититься
 Зарегистрирован:   29 Окт 2012 18:36:25
 Размер:   700 MB  (
 Рейтинг:   4.2 (Голосов: 11)
 Поблагодарили:   48
 Проверка:   Оформление проверено модератором 29 Окт 2012 21:55:40
Как cкачать  ·  Как раздать  ·  Правильно оформить  ·  Поднять ратио!  
Топик был перенесен из форума Зарубежные Фильмы (HD*Rip/LQ, DVDRip, SATRip, VHSRip) в форум Архив Видео

Причина переноса: http://nnmclub.to/forum/viewtopic.php?t=647023
Alex_shadow
Показать сообщения:   
Начать новую тему   Ответить на тему    Торрент-трекер NNM-Club -> Архив торрентов -> Архив Видео Часовой пояс: GMT + 3
Страница 1 из 1