Классический форум-трекер
canvas not supported
Нас вместе: 4 233 119

Сергей Маврин - Обратная сторона реальности (2005) [FLAC|Lossless]<Metal>


 
 
RSS
Начать новую тему   Ответить на тему    Торрент-трекер NNM-Club -> Rock, Alternative, Punk, Metal -> Русский Рок (Lossless)
Автор Сообщение
nikchorats ®
Стаж: 11 лет 5 мес.
Сообщений: 5
Ratio: 10.428
Раздал: 88.6 GB
Поблагодарили: 83
94.44%
witch.png
Сергей Маврин - Обратная сторона реальности (2005)
Год: 2005
Издатель (лейбл): Irond Ltd.
Номер по каталогу: IROND CD 05-942
Жанр: Metal
Продолжительность: 26:04

Кодек: FLAC
Тип рипа: image+.cue
Битрейт: lossless

Трек лист:
1. Пророк
2. Здесь и сейчас
3. Город, стоящий у солнца
4. Крылья

Мультимедийная секция - фотоархив

Диск из личной коллекции :клево:
Код: выделить все

Exact Audio Copy V1.0 beta 3 from 29. August 2011

Отчёт EAC об извлечении, выполненном 11. декабря 2012, 15:31

СЕРГЕЙ МАВРИН / ОБРАТНАЯ СТОРОНА РЕАЛЬНОСТИ

Дисковод: TSSTcorpCDDVDW TS-L632H   Adapter: 1  ID: 0

Режим чтения                 : Достоверность
Использование точного потока : Да
Отключение кэша аудио        : Да
Использование указателей C2  : Нет

Коррекция смещения при чтении                     : 6
Способность читать области Lead-in и Lead-out     : Нет
Заполнение пропущенных сэмплов тишиной            : Да
Удаление блоков с тишиной в начале и конце        : Нет
При вычислениях CRC использовались нулевые сэмплы : Да
Интерфейс                                         : Встроенный Win32-интерфейс для Win NT/2000

Выходной формат : Внутренние WAV-операции
Формат сэмплов  : 44.100 Гц; 16 бит; стерео

TOC извлечённого CD

     Трек |   Старт  | Длительность | Начальный сектор | Конечный сектор
    ---------------------------------------------------------------------
       1  |  0:00.00 |    7:35.02   |           0      |      34126
       2  |  7:35.02 |    7:24.26   |       34127      |      67452
       3  | 14:59.28 |    5:19.23   |       67453      |      91400
       4  | 20:18.51 |    5:45.31   |       91401      |     117306
       5  | 28:36.07 |    6:21.22   |      128707      |     157303

Характеристики диапазона извлечения и сообщения об ошибках

Выбранный диапазон

     Имя файла D:\СЕРГЕЙ МАВРИН - ОБРАТНАЯ СТОРОНА РЕАЛЬНОСТИ.wav

     Пиковый уровень 99.9 %
     Скорость извлечения 3.5 X
     Качество диапазона 100.0 %
     CRC теста EA483827
     CRC копии EA483827
     Копирование... OK

Ошибок не произошло

AccurateRip: сводка

Трек  1  точность не определена (достоверность 2)  [170FD8C9], AccurateRip вернул [49585164]  (AR v2)
Трек  2  точность не определена (достоверность 2)  [53896FD3], AccurateRip вернул [92306974]  (AR v2)
Трек  3  точность не определена (достоверность 2)  [DBF89A1E], AccurateRip вернул [FE4F792E]  (AR v2)
Трек  4  точность не определена (достоверность 2)  [43AC751E], AccurateRip вернул [2C36B0E8]  (AR v2)

Ни один трек не прошёл проверки на точность
В вашей базе может быть иной вариант штамповки диска

Конец отчёта

---- CUETools DB Plugin V2.1.4

[CTDB TOCID: LHid8ZTfsFPlXJFuceaQPbXvEI4-] found
Submit result: LHid8ZTfsFPlXJFuceaQPbXvEI4- has been confirmed
Track | CTDB Status
  1   | (3/3) Accurately ripped
  2   | (3/3) Accurately ripped
  3   | (3/3) Accurately ripped
  4   | (3/3) Accurately ripped

==== Контрольная сумма отчёта 1885BDCEDC859C93EBA8A1190061888AE7FFE1C30D4B0B0AA72C8B6E6FA75C49 ====
Код: выделить все
-----------------------

DON'T MODIFY THIS FILE

-----------------------

PERFORMER: auCDtect Task Manager, ver. 1.5.1RC3 build 1.5.1.4
Copyright (c) 2008-2010 y-soft. All rights reserved
http://y-soft.org

ANALYZER: auCDtect: CD records authenticity detector, version 0.8.2
Copyright (c) 2004 Oleg Berngardt. All rights reserved.
Copyright (c) 2004 Alexander Djourik. All rights reserved.

FILE: CD.flac
  Size: 186710812 Hash: 55D715D20077A728B3C698C073899932 Accuracy: -m0
  Conclusion: CDDA 100%
  Signature: F16B833F8518F049326747B7EB104F8E0B408CC9
Код: выделить все

foobar2000 1.1.18 / Dynamic Range Meter 1.1.1
log date: 2012-12-11 17:17:25

--------------------------------------------------------------------------------
Analyzed: СЕРГЕЙ МАВРИН / ОБРАТНАЯ СТОРОНА РЕАЛЬНОСТИ
--------------------------------------------------------------------------------

DR         Peak         RMS     Duration Track
--------------------------------------------------------------------------------
DR6       -0.09 dB    -8.35 dB      7:35 01-Пророк
DR6       -0.09 dB    -7.63 dB      7:24 02-Здесь и сейчас
DR6       -0.09 dB    -9.06 dB      5:19 03-Город, стоящий у солнца
DR6        0.00 dB    -7.54 dB      5:45 04-Крылья
--------------------------------------------------------------------------------

Number of tracks:  4
Official DR value: DR6

Samplerate:        44100 Hz
Channels:          2
Bits per sample:   16
Bitrate:           955 kbps
Codec:             FLAC
================================================================================

Время раздачи: с 17:00 до 22:00


Поглощение/вытеснение
Только с согласия релизера

J_Man
[NNM-Club.ru]_Sergey Mavrin - Obratnaya storona real'nosti.torrent
 Торрент: Платиновая раздача  Зарегистрирован
 
Скачать


Примагнититься
 Зарегистрирован:   14 Апр 2024 04:52:55
 Размер:   279 MB  (
 Рейтинг:   5 (Голосов: 21)
 Поблагодарили:   83
 Проверка:   Оформление проверено модератором 14 Апр 2024 09:04:21
Как cкачать  ·  Как раздать  ·  Правильно оформить  ·  Поднять ратио!  
NorthOn
 
Админ
Стаж: 17 лет 9 мес.
Сообщений: 15804
Ratio: 947.588
Поблагодарили: 15003
100%
nnm-club.gif
Торрент обновлен в рамках акции Включаем DHT в древних раздачах
Просьба к скачавшим ранее и желающим подключиться к раздаче, перекачать торрент-файл.

_________________
Либо я найду путь, либо проложу его...
Показать сообщения:   
Начать новую тему   Ответить на тему    Торрент-трекер NNM-Club -> Rock, Alternative, Punk, Metal -> Русский Рок (Lossless) Часовой пояс: GMT + 3
Страница 1 из 1