Классический форум-трекер
canvas not supported
Нас вместе: 4 233 114

Декабрь - Золото Декабря (2011) [FLAC|Lossless]<Hard Rock/Alternative Rock>


 
 
RSS
Начать новую тему   Ответить на тему    Торрент-трекер NNM-Club -> Rock, Alternative, Punk, Metal -> Русский Рок (Lossless)
Автор Сообщение
Shuran80 ®
Свободный релизер
 
Стаж: 15 лет 1 мес.
Сообщений: 3351
Ratio: 1102.143
Раздал: 87.06 TB
Поблагодарили: 195458
100%
Откуда: Ленинград
ussr.gif
Декабрь - Золото Декабря (2011)
Год: 2011
Жанр: Hard Rock/Alternative Rock
Страна: Россия
Продолжительность: 01:16:09+00:57:30

Издатель: Декабрь?
Номер по каталогу: 007
Кодек: FLAC (image+.cue)
Битрейт: Lossless

Трек лист:
CD 1:
01. Ещё один день (сингл) (3:46)
02. Морская (сингл) (3:54)
03. Дубинушка (3:39)
04. Без тебя (радио) (4:13)
05. Наш рок-н-ролл (4:57)
06. Мы (4:28)
07. Поверь в себя (4:45)
08. Мир из копоти и мин (радио) (3:59)
09. Крылья (4:00)
10. Ушла во мрак (радио) (4:24)
11. Стёкла грязных улиц (4:05)
12. Мама, мы все тяжело больны (4:49)
13. Мы сможем победить (4:34)
14. Раны земли feat. А.Горшенёв (радио) (4:03)
15. Аэробика feat. И.Чёрт (4:15)
16. Крапива (3:44)
17. Землянка (3:37)
18. Герой (акустика) (3:17)
19. Песня большого Муха (1:39)
01. Война (5:18)
02. Боль (5:16)
03. Свет огня (5:03)
04. Сквозь дым (4:16)
05. К огню (5:56)
06. Наша земля (5:35)
07. Вах-Вах feat. Ю.Шевчук и Я.Вева (6:09)
08. Свой плен (3:36)
09. Мама Мария (3:25)
10. Стеклянный дом feat. Лена Тэ (5:27)
11. Дышим (4:14)
12. Маленькая feat. Бешеные огурцы (3:13)
Код: выделить все
Exact Audio Copy V0.99 prebeta 5 from 4. May 2009

Отчёт EAC об извлечении, выполненном 29. сентября 2012, 20:28

Декабрь / Золото Декабря (CD1)

Дисковод: _NEC    DVD_RW ND-4570A   Adapter: 0  ID: 0

Режим чтения                 : Достоверность
Использование точного потока : Да
Отключение кэша аудио        : Да
Использование указателей C2  : Нет

Коррекция смещения при чтении                     : 48
Способность читать области Lead-in и Lead-out     : Нет
Заполнение пропущенных сэмплов тишиной            : Да
Удаление блоков с тишиной в начале и конце        : Нет
При вычислениях CRC использовались нулевые сэмплы : Да
Интерфейс                                         : Установленный внешний ASPI-интерфейс

Выходной формат          : Пользовательский кодировщик
Выбранный битрейт        : 128 kBit/s
Качество                 : Высокий
Добавление ID3-тэга      : Нет
Утилита сжатия           : C:\Program Files\Exact Audio Copy\flac.exe
Дополнительные параметры : -8 -V %s

TOC извлечённого CD

     Трек |   Старт  | Длительность | Начальный сектор | Конечный сектор
    ---------------------------------------------------------------------
       1  |  0:00.00 |    3:45.68   |           0      |      16942
       2  |  3:45.68 |    3:54.28   |       16943      |      34520
       3  |  7:40.21 |    3:38.63   |       34521      |      50933
       4  | 11:19.09 |    4:12.47   |       50934      |      69880
       5  | 15:31.56 |    4:57.20   |       69881      |      92175
       6  | 20:29.01 |    4:28.17   |       92176      |     112292
       7  | 24:57.18 |    4:45.11   |      112293      |     133678
       8  | 29:42.29 |    3:59.14   |      133679      |     151617
       9  | 33:41.43 |    4:00.12   |      151618      |     169629
      10  | 37:41.55 |    4:23.62   |      169630      |     189416
      11  | 42:05.42 |    4:04.64   |      189417      |     207780
      12  | 46:10.31 |    4:48.43   |      207781      |     229423
      13  | 50:58.74 |    4:33.68   |      229424      |     249966
      14  | 55:32.67 |    4:02.69   |      249967      |     268185
      15  | 59:35.61 |    4:15.30   |      268186      |     287340
      16  | 63:51.16 |    3:44.20   |      287341      |     304160
      17  | 67:35.36 |    3:37.10   |      304161      |     320445
      18  | 71:12.46 |    3:17.26   |      320446      |     335246
      19  | 74:29.72 |    1:39.31   |      335247      |     342702

Характеристики диапазона извлечения и сообщения об ошибках

Выбранный диапазон

     Имя файла G:\Shuran80-NNM-Club\Декабрь - Золото Декабря (CD1).wav

     Пиковый уровень 100.0 %
     Качество диапазона 99.9 %
     CRC теста 017CB45E
     CRC копии 017CB45E
     Копирование... OK

Ошибок не произошло

AccurateRip: сводка

Трек  1  нет в базе данных
Трек  2  нет в базе данных
Трек  3  нет в базе данных
Трек  4  нет в базе данных
Трек  5  нет в базе данных
Трек  6  нет в базе данных
Трек  7  нет в базе данных
Трек  8  нет в базе данных
Трек  9  нет в базе данных
Трек 10  нет в базе данных
Трек 11  нет в базе данных
Трек 12  нет в базе данных
Трек 13  нет в базе данных
Трек 14  нет в базе данных
Трек 15  нет в базе данных
Трек 16  нет в базе данных
Трек 17  нет в базе данных
Трек 18  нет в базе данных
Трек 19  нет в базе данных

Ни одного трека нет в базе AccurateRip

Конец отчёта
Код: выделить все
Exact Audio Copy V0.99 prebeta 5 from 4. May 2009

Отчёт EAC об извлечении, выполненном 29. сентября 2012, 21:28

Декабрь / Золото Декабря (CD2)

Дисковод: _NEC    DVD_RW ND-4570A   Adapter: 0  ID: 0

Режим чтения                 : Достоверность
Использование точного потока : Да
Отключение кэша аудио        : Да
Использование указателей C2  : Нет

Коррекция смещения при чтении                     : 48
Способность читать области Lead-in и Lead-out     : Нет
Заполнение пропущенных сэмплов тишиной            : Да
Удаление блоков с тишиной в начале и конце        : Нет
При вычислениях CRC использовались нулевые сэмплы : Да
Интерфейс                                         : Установленный внешний ASPI-интерфейс

Выходной формат          : Пользовательский кодировщик
Выбранный битрейт        : 128 kBit/s
Качество                 : Высокий
Добавление ID3-тэга      : Нет
Утилита сжатия           : C:\Program Files\Exact Audio Copy\flac.exe
Дополнительные параметры : -8 -V %s

TOC извлечённого CD

     Трек |   Старт  | Длительность | Начальный сектор | Конечный сектор
    ---------------------------------------------------------------------
       1  |  0:00.00 |    5:17.40   |           0      |      23814
       2  |  5:17.40 |    5:16.35   |       23815      |      47549
       3  | 10:34.00 |    5:03.21   |       47550      |      70295
       4  | 15:37.21 |    4:15.53   |       70296      |      89473
       5  | 19:52.74 |    5:55.72   |       89474      |     116170
       6  | 25:48.71 |    5:35.03   |      116171      |     141298
       7  | 31:23.74 |    6:09.36   |      141299      |     169009
       8  | 37:33.35 |    3:36.19   |      169010      |     185228
       9  | 41:09.54 |    3:25.10   |      185229      |     200613
      10  | 44:34.64 |    5:27.37   |      200614      |     225175
      11  | 50:02.26 |    4:14.25   |      225176      |     244250
      12  | 54:16.51 |    3:13.36   |      244251      |     258761

Характеристики диапазона извлечения и сообщения об ошибках

Выбранный диапазон

     Имя файла G:\Shuran80-NNM-Club\Декабрь - Золото Декабря (CD2).wav

     Пиковый уровень 99.8 %
     Качество диапазона 99.9 %
     CRC теста 962A84EB
     CRC копии 962A84EB
     Копирование... OK

Ошибок не произошло

AccurateRip: сводка

Трек  1  нет в базе данных
Трек  2  нет в базе данных
Трек  3  нет в базе данных
Трек  4  нет в базе данных
Трек  5  нет в базе данных
Трек  6  нет в базе данных
Трек  7  нет в базе данных
Трек  8  нет в базе данных
Трек  9  нет в базе данных
Трек 10  нет в базе данных
Трек 11  нет в базе данных
Трек 12  нет в базе данных

Ни одного трека нет в базе AccurateRip

Конец отчёта
Код: выделить все

-----------------------

DON'T MODIFY THIS FILE

-----------------------

PERFORMER: auCDtect Task Manager, ver. 1.5.1RC4 build 1.5.1.5
Copyright (c) 2008-2010 y-soft. All rights reserved
http://y-soft.org

ANALYZER: auCDtect: CD records authenticity detector, version 0.8.2
Copyright (c) 2004 Oleg Berngardt. All rights reserved.
Copyright (c) 2004 Alexander Djourik. All rights reserved.

FILE: Декабрь - Золото Декабря (CD2).flac
  Size: 442933405 Hash: CFFFA9EE9AD02511B41D1C5292DF1B79 Accuracy: -m0
  Conclusion: CDDA 100%
  Signature: 78AD7C95095FAB36EC1F8EE3E8E253B7CDDCE1DE
FILE: Декабрь - Золото Декабря (CD1).flac
  Size: 585389879 Hash: 28D2E9834AA1CA36A1C55E04F8D95F95 Accuracy: -m0
  Conclusion: CDDA 100%
  Signature: 3F74109677F8B7980C7F0EF61A3B7CD6BE5A7BDD

Декабрь — российская рок-группа. Стиль «Декабря» сочетает в себе элементы хард-рока, хардкора, альтернативы и панк-рока. Группа образовалась в 1999 году в Санкт-Петербурге на основе распавшегося коллектива «Trauben Kalziumъ». Первый концерт состоялся 21 февраля 1999 года — этот день лидер группы Михаил Семёнов считает датой основания группы.

Релиз «Золото Декабря», является первым официальным сборником лучших песен группы «Декабрь». Эта пластинка выпущена специально ко дню рождения группы и представляет собой подведение итогов за прошедшие 12 лет существования коллектива.

Состав:
Михаил Семёнов — вокал, гитара
Александр Каменский — бас, бэк-вокал
Игорь Юганов — гитара
Степан Красавин — ударные

Оф. сайт группы
Время раздачи: Обычно с 19:00 до 00:00 :спит:
[NNM-Club.ru]_Dekabr' - Zoloto Dekabrya (2011) FLAC.torrent
 Торрент: Платиновая раздача  Зарегистрирован
 
Скачать


Примагнититься
 Зарегистрирован:   14 Апр 2024 10:37:27
 Размер:   992 MB  (
 Рейтинг:   4.6 (Голосов: 16)
 Поблагодарили:   78
 Проверка:   Оформление проверено модератором 14 Апр 2024 10:41:36
Как cкачать  ·  Как раздать  ·  Правильно оформить  ·  Поднять ратио!  

_________________
Внимание! Временно отсутствую на своих раздачах. Просьба понять и простить.
Georgiiy
RG Soft
Реставратор, Модератор Программ, Uploader 300+
Стаж: 10 лет 6 мес.
Сообщений: 13198
Ratio: 4482.031
Раздал: 365.9 TB
Поблагодарили: 921955
100%
Откуда: Київ
ukraine.gif
Торрент обновлен в рамках акции Включаем DHT в древних раздачах.
Теперь вам нужно его скачать и открыть в торрент-клиенте, указав в качестве места сохранения раздаваемый файл или папку.

_________________
Мы прорвёмся сквозь бури наших дней!

Показать сообщения:   
Начать новую тему   Ответить на тему    Торрент-трекер NNM-Club -> Rock, Alternative, Punk, Metal -> Русский Рок (Lossless) Часовой пояс: GMT + 3
Страница 1 из 1