Классический форум-трекер
canvas not supported
Нас вместе: 4 170 915

Волшебное зерно (1941) DVD5


 
 
RSS
Начать новую тему   Ответить на тему    Торрент-трекер NNM-Club -> Видео -> Отечественные Фильмы для детей
Автор Сообщение
Alex_Fors ®
Стаж: 11 лет 2 мес.
Сообщений: 386
Ratio: 102.587
Поблагодарили: 18882
100%
portugal.gif
Волшебное зерно (1941) DVD5
Русское название: Волшебное зерно
Производство: СССР
Год выпуска: 1941
Жанр: Семейный, Сказка

Описание фильма:
Богатырь Мастер На Все Руки дарит Андрейке и Марийке волшебное зерно, которое должно принести людям радость и изобилие, если дети вырастят из него растение…

Режиссер: Фёдор Филиппов, Валентин Кадочников
Актеры: Иван Переверзев, Сергей Мартинсон, Владимир Тумаларьянц, Нина Заварова, Г. Киреевская, Владимир Грибков, Алексей Кельберер, Степан Каюков, Олег Бант, С. Топорова

Продолжительность: 01:22:59
Субтитры: Отсутствуют



Видеокодек: MPEG-2
Битрейт видео: ~6567 kb/s
Размер кадра: 720x576@768x576 (PAL 4:3) VBR
Качество видео: DVD5
Аудиокодек: Dolby AC3, 2 ch
Битрейт аудио: 192 kb/s
СЭМПЛ
Дополнительные материалы: Отсутствуют
Title: Волшебное зерно.1941.DVD5
Size: 4.09 Gb ( 4 293 630,00 KBytes ) - DVD-5
Enabled regions: 1, 2, 3, 4, 5, 6, 7, 8

VTS_01 :
Play Length: 01:22:59
Video: PAL 4:3 (720x576) VBR
Audio:
Russian (Dolby AC3, 2 ch)

* Menus Information *

VIDEO_TS Menu
Video:
PAL 4:3 (720x576) VBR
Audio:
Not specified (Dolby AC3, 2 ch)
Russian Language Unit :
Title Menu

VTS_01 Menu
Video:
PAL 4:3 (720x576) VBR
Audio:
Not specified (Dolby AC3, 2 ch)
Russian Language Unit :
Root Menu
Формат : MPEG-PS
Размер файла : 1024 Мбайт
Продолжительность : 20 м.
Общий поток : 6897 Кбит/сек

Видео
Идентификатор : 224 (0xE0)
Формат : MPEG Video
Версия формата : Version 2
Профиль формата : Main@Main
Параметр BVOP формата : Да
Параметр матрицы формата : По умолчанию
Параметр GOP формата : M=3, N=12
Продолжительность : 20 м.
Вид битрейта : Переменный
Битрейт : 6567 Кбит/сек
Максимальный битрейт : 8000 Кбит/сек
Ширина : 720 пикселей
Высота : 576 пикселей
Соотношение сторон : 4:3
Частота кадров : 25,000 кадров/сек
Стандарт вещания : PAL
Цветовое пространство : YUV
Субдискретизация насыщенности : 4:2:0
Битовая глубина : 8 бит
Тип развёртки : Чересстрочная
Порядок развёртки : Нижнее поле первое
Метод сжатия : С потерями
Бит/(Пиксели*Кадры) : 0.633
Размер потока : 975 Мбайт (95%)

Аудио
Идентификатор : 189 (0xBD)-128 (0x80)
Формат : AC-3
Формат/Информация : Audio Coding 3
Расширение режима : CM (complete main)
Режим смешивания : DVD-Video
Продолжительность : 20 м.
Вид битрейта : Постоянный
Битрейт : 192 Кбит/сек
Каналы : 2 канала
Расположение каналов : Front: L R
Частота : 48,0 КГц
Битовая глубина : 16 бит
Метод сжатия : С потерями
Задержка видео : -192 мс.
Размер потока : 28,5 Мбайт (3%)

Меню
Скриншоты:


Время раздачи: 15:00-20:00
Все релизы Волшебное зерно на NNM-CLUB
[NNM-Club.ru]_Volshebnoe zerno.1941.DVD5.torrent
 Торрент: Платиновая раздача  Зарегистрирован
 
Скачать


Примагнититься
 Зарегистрирован:   15 Апр 2013 10:00:21
 Размер:   4.09 GB  (
 Рейтинг:   4.5 (Голосов: 26)
 Поблагодарили:   75
 Проверка:   Оформление проверено модератором 15 Апр 2013 13:58:40
Как cкачать  ·  Как раздать  ·  Правильно оформить  ·  Поднять ратио!  
Sergey2906
Стаж: 11 лет 9 мес.
Сообщений: 227
Ratio: 200.833
100%
russia.gif
Хорошая детская сказка ! :респект: =)
Показать сообщения:   
Начать новую тему   Ответить на тему    Торрент-трекер NNM-Club -> Видео -> Отечественные Фильмы для детей Часовой пояс: GMT + 3
Страница 1 из 1