Классический форум-трекер
canvas not supported
Нас вместе: 4 166 392

John Lennon - Working Class Hero. The Definitive Lennon (2005) [ALAC|Lossless]<Rock>


 
 
RSS
Начать новую тему   Ответить на тему    Торрент-трекер NNM-Club -> Аудио и Видео -> Музыка Lossless (ALAC)
Автор Сообщение
CafeTea ®
Покровитель талантов
Стаж: 10 лет 3 мес.
Сообщений: 513
Ratio: 6.695
Поблагодарили: 20400
100%
John Lennon - Working Class Hero - The Definitive Lennon (2005)
Год: 2005
Жанр: Rock
Издатель (лейбл): Capitol Records
Источник (релизер): GHOST_Assassin
Страна: UK
Продолжительность: 02:31:15

Кодек: ALAC
Битрейт: Lossless

Треклист:
01. (Just Like) Starting Over
02. Imagine
03. Watching the Wheels
04. Jealous Guy
05. Instant Karma!
06. Stand by Me
07. Working Class Hero
08. Power to the People
09. Oh My Love
10. Oh Yoko!
11. Nobody Loves You (When You're Down And Out)
12. Nobody Told Me
13. Bless You
14. Come Together (Live)
15. New York City
16. I'm Stepping Out
17. You Are Here
18. Borrowed Time
19. Happy Xmas (War Is Over)
01. Woman
02. Mind Games
03. Out the Blue
04. Whatever Gets You thru the Night
05. Love
06. Mother
07. Beautiful Boy (Darling Boy)
08. Woman Is the Nigger of the World
09. God
10. Scared
11. #9 Dream
12. I'm Losing You
13. Isolation
14. Cold Turkey
15. Intuition
16. Gimme Some Truth
17. Give Peace a Chance
18. Real Love
19. Grow Old With Me
Код:

General
Complete name                            : /Users/user/Music/John Lennon/John Lennon - 2005 - Working Class Hero - The Definitive Lennon ALAC/Disc 1/01. (Just Like) Starting Over.m4a
Format                                   : MPEG-4
Format profile                           : Apple audio with iTunes info
Codec ID                                 : M4A
File size                                : 25.1 MiB
Duration                                 : 3mn 57s
Overall bit rate mode                    : Variable
Overall bit rate                         : 889 Kbps
Album                                    : Working Class Hero - The Definitive Lennon (Disc 1)
Album/Performer                          : John Lennon
Track name                               : (Just Like) Starting Over
Track name/Position                      : 1
Performer                                : John Lennon
Genre                                    : Rock
Recorded date                            : 2005
Encoded date                             : UTC 2013-07-21 10:23:06
Tagged date                              : UTC 2013-07-21 10:23:09
Writing application                      : Easy CD-DA Extractor (http://www.poikosoft.com)
Cover                                    : Yes

Audio
ID                                       : 1
Format                                   : ALAC
Codec ID                                 : alac
Codec ID/Info                            : Apple Lossless Audio Codec
Duration                                 : 3mn 57s
Duration_LastFrame                       : -41ms
Bit rate mode                            : Variable
Bit rate                                 : 879 Kbps
Channel(s)                               : 2 channels
Sampling rate                            : 44.1 KHz
Bit depth                                : 16 bits
Stream size                              : 24.9 MiB (99%)
Language                                 : English
Encoded date                             : UTC 2013-07-21 10:23:06
Tagged date                              : UTC 2013-07-21 10:23:09

General
Complete name                            : /Users/user/Music/John Lennon/John Lennon - 2005 - Working Class Hero - The Definitive Lennon ALAC/Disc 1/02. Imagine.m4a
Format                                   : MPEG-4
Format profile                           : Apple audio with iTunes info
Codec ID                                 : M4A
File size                                : 15.6 MiB
Duration                                 : 3mn 2s
Overall bit rate mode                    : Variable
Overall bit rate                         : 715 Kbps
Album                                    : Working Class Hero - The Definitive Lennon (Disc 1)
Album/Performer                          : John Lennon
Track name                               : Imagine
Track name/Position                      : 2
Performer                                : John Lennon
Genre                                    : Rock
Recorded date                            : 2005
Encoded date                             : UTC 2013-07-21 10:23:06
Tagged date                              : UTC 2013-07-21 10:23:08
Writing application                      : Easy CD-DA Extractor (http://www.poikosoft.com)
Cover                                    : Yes

Audio
ID                                       : 1
Format                                   : ALAC
Codec ID                                 : alac
Codec ID/Info                            : Apple Lossless Audio Codec
Duration                                 : 3mn 2s
Duration_LastFrame                       : -41ms
Bit rate mode                            : Variable
Bit rate                                 : 701 Kbps
Channel(s)                               : 2 channels
Sampling rate                            : 44.1 KHz
Bit depth                                : 16 bits
Stream size                              : 15.3 MiB (98%)
Language                                 : English
Encoded date                             : UTC 2013-07-21 10:23:06
Tagged date                              : UTC 2013-07-21 10:23:08

General
Complete name                            : /Users/user/Music/John Lennon/John Lennon - 2005 - Working Class Hero - The Definitive Lennon ALAC/Disc 1/03. Watching The Wheels.m4a
Format                                   : MPEG-4
Format profile                           : Apple audio with iTunes info
Codec ID                                 : M4A
File size                                : 22.9 MiB
Duration                                 : 3mn 31s
Overall bit rate mode                    : Variable
Overall bit rate                         : 911 Kbps
Album                                    : Working Class Hero - The Definitive Lennon (Disc 1)
Album/Performer                          : John Lennon
Track name                               : Watching The Wheels
Track name/Position                      : 3
Performer                                : John Lennon
Genre                                    : Rock
Recorded date                            : 2005
Encoded date                             : UTC 2013-07-21 10:23:08
Tagged date                              : UTC 2013-07-21 10:23:11
Writing application                      : Easy CD-DA Extractor (http://www.poikosoft.com)
Cover                                    : Yes

Audio
ID                                       : 1
Format                                   : ALAC
Codec ID                                 : alac
Codec ID/Info                            : Apple Lossless Audio Codec
Duration                                 : 3mn 31s
Duration_LastFrame                       : -49ms
Bit rate mode                            : Variable
Bit rate                                 : 900 Kbps
Channel(s)                               : 2 channels
Sampling rate                            : 44.1 KHz
Bit depth                                : 16 bits
Stream size                              : 22.6 MiB (99%)
Language                                 : English
Encoded date                             : UTC 2013-07-21 10:23:08
Tagged date                              : UTC 2013-07-21 10:23:11

General
Complete name                            : /Users/user/Music/John Lennon/John Lennon - 2005 - Working Class Hero - The Definitive Lennon ALAC/Disc 1/04. Jealous Guy.m4a
Format                                   : MPEG-4
Format profile                           : Apple audio with iTunes info
Codec ID                                 : M4A
File size                                : 22.9 MiB
Duration                                 : 4mn 13s
Overall bit rate mode                    : Variable
Overall bit rate                         : 756 Kbps
Album                                    : Working Class Hero - The Definitive Lennon (Disc 1)
Album/Performer                          : John Lennon
Track name                               : Jealous Guy
Track name/Position                      : 4
Performer                                : John Lennon
Genre                                    : Rock
Recorded date                            : 2005
Encoded date                             : UTC 2013-07-21 10:23:10
Tagged date                              : UTC 2013-07-21 10:23:13
Writing application                      : Easy CD-DA Extractor (http://www.poikosoft.com)
Cover                                    : Yes

Audio
ID                                       : 1
Format                                   : ALAC
Codec ID                                 : alac
Codec ID/Info                            : Apple Lossless Audio Codec
Duration                                 : 4mn 13s
Duration_LastFrame                       : -28ms
Bit rate mode                            : Variable
Bit rate                                 : 746 Kbps
Channel(s)                               : 2 channels
Sampling rate                            : 44.1 KHz
Bit depth                                : 16 bits
Stream size                              : 22.6 MiB (99%)
Language                                 : English
Encoded date                             : UTC 2013-07-21 10:23:10
Tagged date                              : UTC 2013-07-21 10:23:13

General
Complete name                            : /Users/user/Music/John Lennon/John Lennon - 2005 - Working Class Hero - The Definitive Lennon ALAC/Disc 1/05. Instant Karma! (We All Shine On).m4a
Format                                   : MPEG-4
Format profile                           : Apple audio with iTunes info
Codec ID                                 : M4A
File size                                : 20.9 MiB
Duration                                 : 3mn 21s
Overall bit rate mode                    : Variable
Overall bit rate                         : 869 Kbps
Album                                    : Working Class Hero - The Definitive Lennon (Disc 1)
Album/Performer                          : John Lennon
Track name                               : Instant Karma! (We All Shine On)
Track name/Position                      : 5
Performer                                : John Lennon
Genre                                    : Rock
Recorded date                            : 2005
Encoded date                             : UTC 2013-07-21 10:23:11
Tagged date                              : UTC 2013-07-21 10:23:14
Writing application                      : Easy CD-DA Extractor (http://www.poikosoft.com)
Cover                                    : Yes

Audio
ID                                       : 1
Format                                   : ALAC
Codec ID                                 : alac
Codec ID/Info                            : Apple Lossless Audio Codec
Duration                                 : 3mn 21s
Duration_LastFrame                       : -43ms
Bit rate mode                            : Variable
Bit rate                                 : 857 Kbps
Channel(s)                               : 2 channels
Sampling rate                            : 44.1 KHz
Bit depth                                : 16 bits
Stream size                              : 20.6 MiB (99%)
Language                                 : English
Encoded date                             : UTC 2013-07-21 10:23:11
Tagged date                              : UTC 2013-07-21 10:23:14

General
Complete name                            : /Users/user/Music/John Lennon/John Lennon - 2005 - Working Class Hero - The Definitive Lennon ALAC/Disc 1/06. Stand By Me.m4a
Format                                   : MPEG-4
Format profile                           : Apple audio with iTunes info
Codec ID                                 : M4A
File size                                : 22.9 MiB
Duration                                 : 3mn 26s
Overall bit rate mode                    : Variable
Overall bit rate                         : 928 Kbps
Album                                    : Working Class Hero - The Definitive Lennon (Disc 1)
Album/Performer                          : John Lennon
Track name                               : Stand By Me
Track name/Position                      : 6
Performer                                : John Lennon
Genre                                    : Rock
Recorded date                            : 2005
Encoded date                             : UTC 2013-07-21 10:23:13
Tagged date                              : UTC 2013-07-21 10:23:16
Writing application                      : Easy CD-DA Extractor (http://www.poikosoft.com)
Cover                                    : Yes

Audio
ID                                       : 1
Format                                   : ALAC
Codec ID                                 : alac
Codec ID/Info                            : Apple Lossless Audio Codec
Duration                                 : 3mn 26s
Duration_LastFrame                       : -4ms
Bit rate mode                            : Variable
Bit rate                                 : 916 Kbps
Channel(s)                               : 2 channels
Sampling rate                            : 44.1 KHz
Bit depth                                : 16 bits
Stream size                              : 22.6 MiB (99%)
Language                                 : English
Encoded date                             : UTC 2013-07-21 10:23:13
Tagged date                              : UTC 2013-07-21 10:23:16

General
Complete name                            : /Users/user/Music/John Lennon/John Lennon - 2005 - Working Class Hero - The Definitive Lennon ALAC/Disc 1/07. Working Class Hero.m4a
Format                                   : MPEG-4
Format profile                           : Apple audio with iTunes info
Codec ID                                 : M4A
File size                                : 18.2 MiB
Duration                                 : 3mn 48s
Overall bit rate mode                    : Variable
Overall bit rate                         : 669 Kbps
Album                                    : Working Class Hero - The Definitive Lennon (Disc 1)
Album/Performer                          : John Lennon
Track name                               : Working Class Hero
Track name/Position                      : 7
Performer                                : John Lennon
Genre                                    : Rock
Recorded date                            : 2005
Encoded date                             : UTC 2013-07-21 10:23:14
Tagged date                              : UTC 2013-07-21 10:23:17
Writing application                      : Easy CD-DA Extractor (http://www.poikosoft.com)
Cover                                    : Yes

Audio
ID                                       : 1
Format                                   : ALAC
Codec ID                                 : alac
Codec ID/Info                            : Apple Lossless Audio Codec
Duration                                 : 3mn 48s
Duration_LastFrame                       : -31ms
Bit rate mode                            : Variable
Bit rate                                 : 659 Kbps
Channel(s)                               : 2 channels
Sampling rate                            : 44.1 KHz
Bit depth                                : 16 bits
Stream size                              : 17.9 MiB (98%)
Language                                 : English
Encoded date                             : UTC 2013-07-21 10:23:14
Tagged date                              : UTC 2013-07-21 10:23:17

General
Complete name                            : /Users/user/Music/John Lennon/John Lennon - 2005 - Working Class Hero - The Definitive Lennon ALAC/Disc 1/08. Power To The People.m4a
Format                                   : MPEG-4
Format profile                           : Apple audio with iTunes info
Codec ID                                 : M4A
File size                                : 21.9 MiB
Duration                                 : 3mn 22s
Overall bit rate mode                    : Variable
Overall bit rate                         : 909 Kbps
Album                                    : Working Class Hero - The Definitive Lennon (Disc 1)
Album/Performer                          : John Lennon
Track name                               : Power To The People
Track name/Position                      : 8
Performer                                : John Lennon
Genre                                    : Rock
Recorded date                            : 2005
Encoded date                             : UTC 2013-07-21 10:23:16
Tagged date                              : UTC 2013-07-21 10:23:19
Writing application                      : Easy CD-DA Extractor (http://www.poikosoft.com)
Cover                                    : Yes

Audio
ID                                       : 1
Format                                   : ALAC
Codec ID                                 : alac
Codec ID/Info                            : Apple Lossless Audio Codec
Duration                                 : 3mn 22s
Duration_LastFrame                       : -65ms
Bit rate mode                            : Variable
Bit rate                                 : 897 Kbps
Channel(s)                               : 2 channels
Sampling rate                            : 44.1 KHz
Bit depth                                : 16 bits
Stream size                              : 21.6 MiB (99%)
Language                                 : English
Encoded date                             : UTC 2013-07-21 10:23:16
Tagged date                              : UTC 2013-07-21 10:23:19

General
Complete name                            : /Users/user/Music/John Lennon/John Lennon - 2005 - Working Class Hero - The Definitive Lennon ALAC/Disc 1/09. Oh My Love.m4a
Format                                   : MPEG-4
Format profile                           : Apple audio with iTunes info
Codec ID                                 : M4A
File size                                : 11.9 MiB
Duration                                 : 2mn 44s
Overall bit rate mode                    : Variable
Overall bit rate                         : 609 Kbps
Album                                    : Working Class Hero - The Definitive Lennon (Disc 1)
Album/Performer                          : John Lennon
Track name                               : Oh My Love
Track name/Position                      : 9
Performer                                : John Lennon
Genre                                    : Rock
Recorded date                            : 2005
Encoded date                             : UTC 2013-07-21 10:23:17
Tagged date                              : UTC 2013-07-21 10:23:19
Writing application                      : Easy CD-DA Extractor (http://www.poikosoft.com)
Cover                                    : Yes

Audio
ID                                       : 1
Format                                   : ALAC
Codec ID                                 : alac
Codec ID/Info                            : Apple Lossless Audio Codec
Duration                                 : 2mn 44s
Duration_LastFrame                       : -89ms
Bit rate mode                            : Variable
Bit rate                                 : 594 Kbps
Channel(s)                               : 2 channels
Sampling rate                            : 44.1 KHz
Bit depth                                : 16 bits
Stream size                              : 11.7 MiB (98%)
Language                                 : English
Encoded date                             : UTC 2013-07-21 10:23:17
Tagged date                              : UTC 2013-07-21 10:23:19

General
Complete name                            : /Users/user/Music/John Lennon/John Lennon - 2005 - Working Class Hero - The Definitive Lennon ALAC/Disc 1/10. Oh Yoko!.m4a
Format                                   : MPEG-4
Format profile                           : Apple audio with iTunes info
Codec ID                                 : M4A
File size                                : 28.5 MiB
Duration                                 : 4mn 17s
Overall bit rate mode                    : Variable
Overall bit rate                         : 927 Kbps
Album                                    : Working Class Hero - The Definitive Lennon (Disc 1)
Album/Performer                          : John Lennon
Track name                               : Oh Yoko!
Track name/Position                      : 10
Performer                                : John Lennon
Genre                                    : Rock
Recorded date                            : 2005
Encoded date                             : UTC 2013-07-21 10:23:19
Tagged date                              : UTC 2013-07-21 10:23:22
Writing application                      : Easy CD-DA Extractor (http://www.poikosoft.com)
Cover                                    : Yes

Audio
ID                                       : 1
Format                                   : ALAC
Codec ID                                 : alac
Codec ID/Info                            : Apple Lossless Audio Codec
Duration                                 : 4mn 17s
Duration_LastFrame                       : -74ms
Bit rate mode                            : Variable
Bit rate                                 : 917 Kbps
Channel(s)                               : 2 channels
Sampling rate                            : 44.1 KHz
Bit depth                                : 16 bits
Stream size                              : 28.2 MiB (99%)
Language                                 : English
Encoded date                             : UTC 2013-07-21 10:23:19
Tagged date                              : UTC 2013-07-21 10:23:22

General
Complete name                            : /Users/user/Music/John Lennon/John Lennon - 2005 - Working Class Hero - The Definitive Lennon ALAC/Disc 1/11. Nobody Loves You (When Your're Down And Out).m4a
Format                                   : MPEG-4
Format profile                           : Apple audio with iTunes info
Codec ID                                 : M4A
File size                                : 32.7 MiB
Duration                                 : 5mn 7s
Overall bit rate mode                    : Variable
Overall bit rate                         : 891 Kbps
Album                                    : Working Class Hero - The Definitive Lennon (Disc 1)
Album/Performer                          : John Lennon
Track name                               : Nobody Loves You (When Your're Down And Out)
Track name/Position                      : 11
Performer                                : John Lennon
Genre                                    : Rock
Recorded date                            : 2005
Encoded date                             : UTC 2013-07-21 10:23:19
Tagged date                              : UTC 2013-07-21 10:23:24
Writing application                      : Easy CD-DA Extractor (http://www.poikosoft.com)
Cover                                    : Yes

Audio
ID                                       : 1
Format                                   : ALAC
Codec ID                                 : alac
Codec ID/Info                            : Apple Lossless Audio Codec
Duration                                 : 5mn 7s
Duration_LastFrame                       : -16ms
Bit rate mode                            : Variable
Bit rate                                 : 883 Kbps
Channel(s)                               : 2 channels
Sampling rate                            : 44.1 KHz
Bit depth                                : 16 bits
Stream size                              : 32.4 MiB (99%)
Language                                 : English
Encoded date                             : UTC 2013-07-21 10:23:19
Tagged date                              : UTC 2013-07-21 10:23:24

General
Complete name                            : /Users/user/Music/John Lennon/John Lennon - 2005 - Working Class Hero - The Definitive Lennon ALAC/Disc 1/12. Nobody Told Me.m4a
Format                                   : MPEG-4
Format profile                           : Apple audio with iTunes info
Codec ID                                 : M4A
File size                                : 24.4 MiB
Duration                                 : 3mn 34s
Overall bit rate mode                    : Variable
Overall bit rate                         : 956 Kbps
Album                                    : Working Class Hero - The Definitive Lennon (Disc 1)
Album/Performer                          : John Lennon
Track name                               : Nobody Told Me
Track name/Position                      : 12
Performer                                : John Lennon
Genre                                    : Rock
Recorded date                            : 2005
Encoded date                             : UTC 2013-07-21 10:23:22
Tagged date                              : UTC 2013-07-21 10:23:28
Writing application                      : Easy CD-DA Extractor (http://www.poikosoft.com)
Cover                                    : Yes

Audio
ID                                       : 1
Format                                   : ALAC
Codec ID                                 : alac
Codec ID/Info                            : Apple Lossless Audio Codec
Duration                                 : 3mn 34s
Duration_LastFrame                       : -73ms
Bit rate mode                            : Variable
Bit rate                                 : 944 Kbps
Channel(s)                               : 2 channels
Sampling rate                            : 44.1 KHz
Bit depth                                : 16 bits
Stream size                              : 24.1 MiB (99%)
Language                                 : English
Encoded date                             : UTC 2013-07-21 10:23:22
Tagged date                              : UTC 2013-07-21 10:23:28

General
Complete name                            : /Users/user/Music/John Lennon/John Lennon - 2005 - Working Class Hero - The Definitive Lennon ALAC/Disc 1/13. Bless You.m4a
Format                                   : MPEG-4
Format profile                           : Apple audio with iTunes info
Codec ID                                 : M4A
File size                                : 27.0 MiB
Duration                                 : 4mn 38s
Overall bit rate mode                    : Variable
Overall bit rate                         : 815 Kbps
Album                                    : Working Class Hero - The Definitive Lennon (Disc 1)
Album/Performer                          : John Lennon
Track name                               : Bless You
Track name/Position                      : 13
Performer                                : John Lennon
Genre                                    : Rock
Recorded date                            : 2005
Encoded date                             : UTC 2013-07-21 10:23:24
Tagged date                              : UTC 2013-07-21 10:23:32
Writing application                      : Easy CD-DA Extractor (http://www.poikosoft.com)
Cover                                    : Yes

Audio
ID                                       : 1
Format                                   : ALAC
Codec ID                                 : alac
Codec ID/Info                            : Apple Lossless Audio Codec
Duration                                 : 4mn 38s
Duration_LastFrame                       : -68ms
Bit rate mode                            : Variable
Bit rate                                 : 806 Kbps
Channel(s)                               : 2 channels
Sampling rate                            : 44.1 KHz
Bit depth                                : 16 bits
Stream size                              : 26.7 MiB (99%)
Language                                 : English
Encoded date                             : UTC 2013-07-21 10:23:25
Tagged date                              : UTC 2013-07-21 10:23:31

General
Complete name                            : /Users/user/Music/John Lennon/John Lennon - 2005 - Working Class Hero - The Definitive Lennon ALAC/Disc 1/14. Come Together (Live).m4a
Format                                   : MPEG-4
Format profile                           : Apple audio with iTunes info
Codec ID                                 : M4A
File size                                : 28.4 MiB
Duration                                 : 4mn 23s
Overall bit rate mode                    : Variable
Overall bit rate                         : 904 Kbps
Album                                    : Working Class Hero - The Definitive Lennon (Disc 1)
Album/Performer                          : John Lennon
Track name                               : Come Together (Live)
Track name/Position                      : 14
Performer                                : John Lennon
Genre                                    : Rock
Recorded date                            : 2005
Encoded date                             : UTC 2013-07-21 10:23:28
Tagged date                              : UTC 2013-07-21 10:23:33
Writing application                      : Easy CD-DA Extractor (http://www.poikosoft.com)
Cover                                    : Yes

Audio
ID                                       : 1
Format                                   : ALAC
Codec ID                                 : alac
Codec ID/Info                            : Apple Lossless Audio Codec
Duration                                 : 4mn 23s
Duration_LastFrame                       : -72ms
Bit rate mode                            : Variable
Bit rate                                 : 894 Kbps
Channel(s)                               : 2 channels
Sampling rate                            : 44.1 KHz
Bit depth                                : 16 bits
Stream size                              : 28.1 MiB (99%)
Language                                 : English
Encoded date                             : UTC 2013-07-21 10:23:28
Tagged date                              : UTC 2013-07-21 10:23:33

General
Complete name                            : /Users/user/Music/John Lennon/John Lennon - 2005 - Working Class Hero - The Definitive Lennon ALAC/Disc 1/15. New York City.m4a
Format                                   : MPEG-4
Format profile                           : Apple audio with iTunes info
Codec ID                                 : M4A
File size                                : 32.4 MiB
Duration                                 : 4mn 31s
Overall bit rate mode                    : Variable
Overall bit rate                         : 1 002 Kbps
Album                                    : Working Class Hero - The Definitive Lennon (Disc 1)
Album/Performer                          : John Lennon
Track name                               : New York City
Track name/Position                      : 15
Performer                                : John Lennon
Genre                                    : Rock
Recorded date                            : 2005
Encoded date                             : UTC 2013-07-21 10:23:32
Tagged date                              : UTC 2013-07-21 10:23:40
Writing application                      : Easy CD-DA Extractor (http://www.poikosoft.com)
Cover                                    : Yes

Audio
ID                                       : 1
Format                                   : ALAC
Codec ID                                 : alac
Codec ID/Info                            : Apple Lossless Audio Codec
Duration                                 : 4mn 31s
Duration_LastFrame                       : -8ms
Bit rate mode                            : Variable
Bit rate                                 : 993 Kbps
Channel(s)                               : 2 channels
Sampling rate                            : 44.1 KHz
Bit depth                                : 16 bits
Stream size                              : 32.1 MiB (99%)
Language                                 : English
Encoded date                             : UTC 2013-07-21 10:23:32
Tagged date                              : UTC 2013-07-21 10:23:37

General
Complete name                            : /Users/user/Music/John Lennon/John Lennon - 2005 - Working Class Hero - The Definitive Lennon ALAC/Disc 1/16. I'm Stepping Out.m4a
Format                                   : MPEG-4
Format profile                           : Apple audio with iTunes info
Codec ID                                 : M4A
File size                                : 26.7 MiB
Duration                                 : 4mn 6s
Overall bit rate mode                    : Variable
Overall bit rate                         : 908 Kbps
Album                                    : Working Class Hero - The Definitive Lennon (Disc 1)
Album/Performer                          : John Lennon
Track name                               : I'm Stepping Out
Track name/Position                      : 16
Performer                                : John Lennon
Genre                                    : Rock
Recorded date                            : 2005
Encoded date                             : UTC 2013-07-21 10:23:33
Tagged date                              : UTC 2013-07-21 10:23:38
Writing application                      : Easy CD-DA Extractor (http://www.poikosoft.com)
Cover                                    : Yes

Audio
ID                                       : 1
Format                                   : ALAC
Codec ID                                 : alac
Codec ID/Info                            : Apple Lossless Audio Codec
Duration                                 : 4mn 6s
Duration_LastFrame                       : -90ms
Bit rate mode                            : Variable
Bit rate                                 : 898 Kbps
Channel(s)                               : 2 channels
Sampling rate                            : 44.1 KHz
Bit depth                                : 16 bits
Stream size                              : 26.4 MiB (99%)
Language                                 : English
Encoded date                             : UTC 2013-07-21 10:23:33
Tagged date                              : UTC 2013-07-21 10:23:37

General
Complete name                            : /Users/user/Music/John Lennon/John Lennon - 2005 - Working Class Hero - The Definitive Lennon ALAC/Disc 1/17. You Are Here.m4a
Format                                   : MPEG-4
Format profile                           : Apple audio with iTunes info
Codec ID                                 : M4A
File size                                : 24.6 MiB
Duration                                 : 4mn 8s
Overall bit rate mode                    : Variable
Overall bit rate                         : 830 Kbps
Album                                    : Working Class Hero - The Definitive Lennon (Disc 1)
Album/Performer                          : John Lennon
Track name                               : You Are Here
Track name/Position                      : 17
Performer                                : John Lennon
Genre                                    : Rock
Recorded date                            : 2005
Encoded date                             : UTC 2013-07-21 10:23:38
Tagged date                              : UTC 2013-07-21 10:23:42
Writing application                      : Easy CD-DA Extractor (http://www.poikosoft.com)
Cover                                    : Yes

Audio
ID                                       : 1
Format                                   : ALAC
Codec ID                                 : alac
Codec ID/Info                            : Apple Lossless Audio Codec
Duration                                 : 4mn 8s
Duration_LastFrame                       : -53ms
Bit rate mode                            : Variable
Bit rate                                 : 821 Kbps
Channel(s)                               : 2 channels
Sampling rate                            : 44.1 KHz
Bit depth                                : 16 bits
Stream size                              : 24.3 MiB (99%)
Language                                 : English
Encoded date                             : UTC 2013-07-21 10:23:38
Tagged date                              : UTC 2013-07-21 10:23:42

General
Complete name                            : /Users/user/Music/John Lennon/John Lennon - 2005 - Working Class Hero - The Definitive Lennon ALAC/Disc 1/18. Borrowed Time.m4a
Format                                   : MPEG-4
Format profile                           : Apple audio with iTunes info
Codec ID                                 : M4A
File size                                : 29.8 MiB
Duration                                 : 4mn 30s
Overall bit rate mode                    : Variable
Overall bit rate                         : 925 Kbps
Album                                    : Working Class Hero - The Definitive Lennon (Disc 1)
Album/Performer                          : John Lennon
Track name                               : Borrowed Time
Track name/Position                      : 18
Performer                                : John Lennon
Genre                                    : Rock
Recorded date                            : 2005
Encoded date                             : UTC 2013-07-21 10:23:40
Tagged date                              : UTC 2013-07-21 10:23:44
Writing application                      : Easy CD-DA Extractor (http://www.poikosoft.com)
Cover                                    : Yes

Audio
ID                                       : 1
Format                                   : ALAC
Codec ID                                 : alac
Codec ID/Info                            : Apple Lossless Audio Codec
Duration                                 : 4mn 30s
Duration_LastFrame                       : -1ms
Bit rate mode                            : Variable
Bit rate                                 : 916 Kbps
Channel(s)                               : 2 channels
Sampling rate                            : 44.1 KHz
Bit depth                                : 16 bits
Stream size                              : 29.5 MiB (99%)
Language                                 : English
Encoded date                             : UTC 2013-07-21 10:23:40
Tagged date                              : UTC 2013-07-21 10:23:44

General
Complete name                            : /Users/user/Music/John Lennon/John Lennon - 2005 - Working Class Hero - The Definitive Lennon ALAC/Disc 1/19. Happy Xmas (War Is Over).m4a
Format                                   : MPEG-4
Format profile                           : Apple audio with iTunes info
Codec ID                                 : M4A
File size                                : 24.9 MiB
Duration                                 : 3mn 37s
Overall bit rate mode                    : Variable
Overall bit rate                         : 957 Kbps
Album                                    : Working Class Hero - The Definitive Lennon (Disc 1)
Album/Performer                          : John Lennon
Track name                               : Happy Xmas (War Is Over)
Track name/Position                      : 19
Performer                                : John Lennon
Genre                                    : Rock
Recorded date                            : 2005
Encoded date                             : UTC 2013-07-21 10:23:42
Tagged date                              : UTC 2013-07-21 10:23:46
Writing application                      : Easy CD-DA Extractor (http://www.poikosoft.com)
Cover                                    : Yes

Audio
ID                                       : 1
Format                                   : ALAC
Codec ID                                 : alac
Codec ID/Info                            : Apple Lossless Audio Codec
Duration                                 : 3mn 37s
Duration_LastFrame                       : -43ms
Bit rate mode                            : Variable
Bit rate                                 : 946 Kbps
Channel(s)                               : 2 channels
Sampling rate                            : 44.1 KHz
Bit depth                                : 16 bits
Stream size                              : 24.6 MiB (99%)
Language                                 : English
Encoded date                             : UTC 2013-07-21 10:23:42
Tagged date                              : UTC 2013-07-21 10:23:46

General
Complete name                            : /Users/user/Music/John Lennon/John Lennon - 2005 - Working Class Hero - The Definitive Lennon ALAC/Disc 2/01. Woman.m4a
Format                                   : MPEG-4
Format profile                           : Apple audio with iTunes info
Codec ID                                 : M4A
File size                                : 22.8 MiB
Duration                                 : 3mn 33s
Overall bit rate mode                    : Variable
Overall bit rate                         : 895 Kbps
Album                                    : The Definitive Lennon (Disc2)
Album/Performer                          : John Lennon
Track name                               : Woman
Track name/Position                      : 1
Performer                                : John Lennon
Genre                                    : Rock
Recorded date                            : 2005
Encoded date                             : UTC 2013-07-21 10:27:43
Tagged date                              : UTC 2013-07-21 10:27:46
Writing application                      : Easy CD-DA Extractor (http://www.poikosoft.com)
Cover                                    : Yes

Audio
ID                                       : 1
Format                                   : ALAC
Codec ID                                 : alac
Codec ID/Info                            : Apple Lossless Audio Codec
Duration                                 : 3mn 33s
Duration_LastFrame                       : -38ms
Bit rate mode                            : Variable
Bit rate                                 : 883 Kbps
Channel(s)                               : 2 channels
Sampling rate                            : 44.1 KHz
Bit depth                                : 16 bits
Stream size                              : 22.5 MiB (99%)
Language                                 : English
Encoded date                             : UTC 2013-07-21 10:27:43
Tagged date                              : UTC 2013-07-21 10:27:46

General
Complete name                            : /Users/user/Music/John Lennon/John Lennon - 2005 - Working Class Hero - The Definitive Lennon ALAC/Disc 2/02. Mind Games.m4a
Format                                   : MPEG-4
Format profile                           : Apple audio with iTunes info
Codec ID                                 : M4A
File size                                : 28.5 MiB
Duration                                 : 4mn 12s
Overall bit rate mode                    : Variable
Overall bit rate                         : 949 Kbps
Album                                    : The Definitive Lennon (Disc2)
Album/Performer                          : John Lennon
Track name                               : Mind Games
Track name/Position                      : 2
Performer                                : John Lennon
Genre                                    : Rock
Recorded date                            : 2005
Encoded date                             : UTC 2013-07-21 10:27:43
Tagged date                              : UTC 2013-07-21 10:27:47
Writing application                      : Easy CD-DA Extractor (http://www.poikosoft.com)
Cover                                    : Yes

Audio
ID                                       : 1
Format                                   : ALAC
Codec ID                                 : alac
Codec ID/Info                            : Apple Lossless Audio Codec
Duration                                 : 4mn 12s
Duration_LastFrame                       : -75ms
Bit rate mode                            : Variable
Bit rate                                 : 939 Kbps
Channel(s)                               : 2 channels
Sampling rate                            : 44.1 KHz
Bit depth                                : 16 bits
Stream size                              : 28.2 MiB (99%)
Language                                 : English
Encoded date                             : UTC 2013-07-21 10:27:43
Tagged date                              : UTC 2013-07-21 10:27:46

General
Complete name                            : /Users/user/Music/John Lennon/John Lennon - 2005 - Working Class Hero - The Definitive Lennon ALAC/Disc 2/03. Out The Blue.m4a
Format                                   : MPEG-4
Format profile                           : Apple audio with iTunes info
Codec ID                                 : M4A
File size                                : 21.1 MiB
Duration                                 : 3mn 23s
Overall bit rate mode                    : Variable
Overall bit rate                         : 867 Kbps
Album                                    : The Definitive Lennon (Disc2)
Album/Performer                          : John Lennon
Track name                               : Out The Blue
Track name/Position                      : 3
Performer                                : John Lennon
Genre                                    : Rock
Recorded date                            : 2005
Encoded date                             : UTC 2013-07-21 10:27:47
Tagged date                              : UTC 2013-07-21 10:27:49
Writing application                      : Easy CD-DA Extractor (http://www.poikosoft.com)
Cover                                    : Yes

Audio
ID                                       : 1
Format                                   : ALAC
Codec ID                                 : alac
Codec ID/Info                            : Apple Lossless Audio Codec
Duration                                 : 3mn 23s
Duration_LastFrame                       : -19ms
Bit rate mode                            : Variable
Bit rate                                 : 856 Kbps
Channel(s)                               : 2 channels
Sampling rate                            : 44.1 KHz
Bit depth                                : 16 bits
Stream size                              : 20.8 MiB (99%)
Language                                 : English
Encoded date                             : UTC 2013-07-21 10:27:47
Tagged date                              : UTC 2013-07-21 10:27:49

General
Complete name                            : /Users/user/Music/John Lennon/John Lennon - 2005 - Working Class Hero - The Definitive Lennon ALAC/Disc 2/04. Whatever Gets You Thru The Night.m4a
Format                                   : MPEG-4
Format profile                           : Apple audio with iTunes info
Codec ID                                 : M4A
File size                                : 22.4 MiB
Duration                                 : 3mn 26s
Overall bit rate mode                    : Variable
Overall bit rate                         : 908 Kbps
Album                                    : The Definitive Lennon (Disc2)
Album/Performer                          : John Lennon
Track name                               : Whatever Gets You Thru The Night
Track name/Position                      : 4
Performer                                : John Lennon
Genre                                    : Rock
Recorded date                            : 2005
Encoded date                             : UTC 2013-07-21 10:27:48
Tagged date                              : UTC 2013-07-21 10:27:50
Writing application                      : Easy CD-DA Extractor (http://www.poikosoft.com)
Cover                                    : Yes

Audio
ID                                       : 1
Format                                   : ALAC
Codec ID                                 : alac
Codec ID/Info                            : Apple Lossless Audio Codec
Duration                                 : 3mn 26s
Duration_LastFrame                       : -70ms
Bit rate mode                            : Variable
Bit rate                                 : 896 Kbps
Channel(s)                               : 2 channels
Sampling rate                            : 44.1 KHz
Bit depth                                : 16 bits
Stream size                              : 22.1 MiB (99%)
Language                                 : English
Encoded date                             : UTC 2013-07-21 10:27:48
Tagged date                              : UTC 2013-07-21 10:27:50

General
Complete name                            : /Users/user/Music/John Lennon/John Lennon - 2005 - Working Class Hero - The Definitive Lennon ALAC/Disc 2/05. Love.m4a
Format                                   : MPEG-4
Format profile                           : Apple audio with iTunes info
Codec ID                                 : M4A
File size                                : 12.2 MiB
Duration                                 : 3mn 25s
Overall bit rate mode                    : Variable
Overall bit rate                         : 498 Kbps
Album                                    : The Definitive Lennon (Disc2)
Album/Performer                          : John Lennon
Track name                               : Love
Track name/Position                      : 5
Performer                                : John Lennon
Genre                                    : Rock
Recorded date                            : 2005
Encoded date                             : UTC 2013-07-21 10:27:50
Tagged date                              : UTC 2013-07-21 10:27:52
Writing application                      : Easy CD-DA Extractor (http://www.poikosoft.com)
Cover                                    : Yes

Audio
ID                                       : 1
Format                                   : ALAC
Codec ID                                 : alac
Codec ID/Info                            : Apple Lossless Audio Codec
Duration                                 : 3mn 25s
Duration_LastFrame                       : -88ms
Bit rate mode                            : Variable
Bit rate                                 : 486 Kbps
Channel(s)                               : 2 channels
Sampling rate                            : 44.1 KHz
Bit depth                                : 16 bits
Stream size                              : 11.9 MiB (98%)
Language                                 : English
Encoded date                             : UTC 2013-07-21 10:27:50
Tagged date                              : UTC 2013-07-21 10:27:52

General
Complete name                            : /Users/user/Music/John Lennon/John Lennon - 2005 - Working Class Hero - The Definitive Lennon ALAC/Disc 2/06. Mother.m4a
Format                                   : MPEG-4
Format profile                           : Apple audio with iTunes info
Codec ID                                 : M4A
File size                                : 28.3 MiB
Duration                                 : 5mn 34s
Overall bit rate mode                    : Variable
Overall bit rate                         : 710 Kbps
Album                                    : The Definitive Lennon (Disc2)
Album/Performer                          : John Lennon
Track name                               : Mother
Track name/Position                      : 6
Performer                                : John Lennon
Genre                                    : Rock
Recorded date                            : 2005
Encoded date                             : UTC 2013-07-21 10:27:50
Tagged date                              : UTC 2013-07-21 10:27:55
Writing application                      : Easy CD-DA Extractor (http://www.poikosoft.com)
Cover                                    : Yes

Audio
ID                                       : 1
Format                                   : ALAC
Codec ID                                 : alac
Codec ID/Info                            : Apple Lossless Audio Codec
Duration                                 : 5mn 34s
Duration_LastFrame                       : -45ms
Bit rate mode                            : Variable
Bit rate                                 : 703 Kbps
Channel(s)                               : 2 channels
Sampling rate                            : 44.1 KHz
Bit depth                                : 16 bits
Stream size                              : 28.0 MiB (99%)
Language                                 : English
Encoded date                             : UTC 2013-07-21 10:27:50
Tagged date                              : UTC 2013-07-21 10:27:55

General
Complete name                            : /Users/user/Music/John Lennon/John Lennon - 2005 - Working Class Hero - The Definitive Lennon ALAC/Disc 2/07. Beautiful Boy (Darling Boy).m4a
Format                                   : MPEG-4
Format profile                           : Apple audio with iTunes info
Codec ID                                 : M4A
File size                                : 23.3 MiB
Duration                                 : 4mn 1s
Overall bit rate mode                    : Variable
Overall bit rate                         : 811 Kbps
Album                                    : The Definitive Lennon (Disc2)
Album/Performer                          : John Lennon
Track name                               : Beautiful Boy (Darling Boy)
Track name/Position                      : 7
Performer                                : John Lennon
Genre                                    : Rock
Recorded date                            : 2005
Encoded date                             : UTC 2013-07-21 10:27:52
Tagged date                              : UTC 2013-07-21 10:27:55
Writing application                      : Easy CD-DA Extractor (http://www.poikosoft.com)
Cover                                    : Yes

Audio
ID                                       : 1
Format                                   : ALAC
Codec ID                                 : alac
Codec ID/Info                            : Apple Lossless Audio Codec
Duration                                 : 4mn 1s
Duration_LastFrame                       : -48ms
Bit rate mode                            : Variable
Bit rate                                 : 801 Kbps
Channel(s)                               : 2 channels
Sampling rate                            : 44.1 KHz
Bit depth                                : 16 bits
Stream size                              : 23.0 MiB (99%)
Language                                 : English
Encoded date                             : UTC 2013-07-21 10:27:52
Tagged date                              : UTC 2013-07-21 10:27:55

General
Complete name                            : /Users/user/Music/John Lennon/John Lennon - 2005 - Working Class Hero - The Definitive Lennon ALAC/Disc 2/08. Woman is The Nigger of The World.m4a
Format                                   : MPEG-4
Format profile                           : Apple audio with iTunes info
Codec ID                                 : M4A
File size                                : 37.4 MiB
Duration                                 : 5mn 16s
Overall bit rate mode                    : Variable
Overall bit rate                         : 991 Kbps
Album                                    : The Definitive Lennon (Disc2)
Album/Performer                          : John Lennon
Track name                               : Woman is The Nigger of The World
Track name/Position                      : 8
Performer                                : John Lennon
Genre                                    : Rock
Recorded date                            : 2005
Encoded date                             : UTC 2013-07-21 10:27:55
Tagged date                              : UTC 2013-07-21 10:28:03
Writing application                      : Easy CD-DA Extractor (http://www.poikosoft.com)
Cover                                    : Yes

Audio
ID                                       : 1
Format                                   : ALAC
Codec ID                                 : alac
Codec ID/Info                            : Apple Lossless Audio Codec
Duration                                 : 5mn 16s
Duration_LastFrame                       : -82ms
Bit rate mode                            : Variable
Bit rate                                 : 983 Kbps
Channel(s)                               : 2 channels
Sampling rate                            : 44.1 KHz
Bit depth                                : 16 bits
Stream size                              : 37.1 MiB (99%)
Language                                 : English
Encoded date                             : UTC 2013-07-21 10:27:55
Tagged date                              : UTC 2013-07-21 10:27:58

General
Complete name                            : /Users/user/Music/John Lennon/John Lennon - 2005 - Working Class Hero - The Definitive Lennon ALAC/Disc 2/09. God.m4a
Format                                   : MPEG-4
Format profile                           : Apple audio with iTunes info
Codec ID                                 : M4A
File size                                : 22.4 MiB
Duration                                 : 4mn 10s
Overall bit rate mode                    : Variable
Overall bit rate                         : 748 Kbps
Album                                    : The Definitive Lennon (Disc2)
Album/Performer                          : John Lennon
Track name                               : God
Track name/Position                      : 9
Performer                                : John Lennon
Genre                                    : Rock
Recorded date                            : 2005
Encoded date                             : UTC 2013-07-21 10:28:10
Tagged date                              : UTC 2013-07-21 10:28:13
Writing application                      : Easy CD-DA Extractor (http://www.poikosoft.com)
Cover                                    : Yes

Audio
ID                                       : 1
Format                                   : ALAC
Codec ID                                 : alac
Codec ID/Info                            : Apple Lossless Audio Codec
Duration                                 : 4mn 10s
Duration_LastFrame                       : -43ms
Bit rate mode                            : Variable
Bit rate                                 : 739 Kbps
Channel(s)                               : 2 channels
Sampling rate                            : 44.1 KHz
Bit depth                                : 16 bits
Stream size                              : 22.1 MiB (99%)
Language                                 : English
Encoded date                             : UTC 2013-07-21 10:28:10
Tagged date                              : UTC 2013-07-21 10:28:12

General
Complete name                            : /Users/user/Music/John Lennon/John Lennon - 2005 - Working Class Hero - The Definitive Lennon ALAC/Disc 2/10. Scared.m4a
Format                                   : MPEG-4
Format profile                           : Apple audio with iTunes info
Codec ID                                 : M4A
File size                                : 28.6 MiB
Duration                                 : 4mn 36s
Overall bit rate mode                    : Variable
Overall bit rate                         : 866 Kbps
Album                                    : The Definitive Lennon (Disc2)
Album/Performer                          : John Lennon
Track name                               : Scared
Track name/Position                      : 10
Performer                                : John Lennon
Genre                                    : Rock
Recorded date                            : 2005
Encoded date                             : UTC 2013-07-21 10:28:25
Tagged date                              : UTC 2013-07-21 10:28:29
Writing application                      : Easy CD-DA Extractor (http://www.poikosoft.com)
Cover                                    : Yes

Audio
ID                                       : 1
Format                                   : ALAC
Codec ID                                 : alac
Codec ID/Info                            : Apple Lossless Audio Codec
Duration                                 : 4mn 36s
Duration_LastFrame                       : -62ms
Bit rate mode                            : Variable
Bit rate                                 : 858 Kbps
Channel(s)                               : 2 channels
Sampling rate                            : 44.1 KHz
Bit depth                                : 16 bits
Stream size                              : 28.3 MiB (99%)
Language                                 : English
Encoded date                             : UTC 2013-07-21 10:28:25
Tagged date                              : UTC 2013-07-21 10:28:29

General
Complete name                            : /Users/user/Music/John Lennon/John Lennon - 2005 - Working Class Hero - The Definitive Lennon ALAC/Disc 2/11. #9 Dream.m4a
Format                                   : MPEG-4
Format profile                           : Apple audio with iTunes info
Codec ID                                 : M4A
File size                                : 30.6 MiB
Duration                                 : 4mn 47s
Overall bit rate mode                    : Variable
Overall bit rate                         : 894 Kbps
Album                                    : The Definitive Lennon (Disc2)
Album/Performer                          : John Lennon
Track name                               : #9 Dream
Track name/Position                      : 11
Performer                                : John Lennon
Genre                                    : Rock
Recorded date                            : 2005
Encoded date                             : UTC 2013-07-21 10:28:26
Tagged date                              : UTC 2013-07-21 10:28:29
Writing application                      : Easy CD-DA Extractor (http://www.poikosoft.com)
Cover                                    : Yes

Audio
ID                                       : 1
Format                                   : ALAC
Codec ID                                 : alac
Codec ID/Info                            : Apple Lossless Audio Codec
Duration                                 : 4mn 47s
Duration_LastFrame                       : -91ms
Bit rate mode                            : Variable
Bit rate                                 : 886 Kbps
Channel(s)                               : 2 channels
Sampling rate                            : 44.1 KHz
Bit depth                                : 16 bits
Stream size                              : 30.3 MiB (99%)
Language                                 : English
Encoded date                             : UTC 2013-07-21 10:28:26
Tagged date                              : UTC 2013-07-21 10:28:29

General
Complete name                            : /Users/user/Music/John Lennon/John Lennon - 2005 - Working Class Hero - The Definitive Lennon ALAC/Disc 2/12. I'm Losing You.m4a
Format                                   : MPEG-4
Format profile                           : Apple audio with iTunes info
Codec ID                                 : M4A
File size                                : 26.7 MiB
Duration                                 : 3mn 56s
Overall bit rate mode                    : Variable
Overall bit rate                         : 945 Kbps
Album                                    : The Definitive Lennon (Disc2)
Album/Performer                          : John Lennon
Track name                               : I'm Losing You
Track name/Position                      : 12
Performer                                : John Lennon
Genre                                    : Rock
Recorded date                            : 2005
Encoded date                             : UTC 2013-07-21 10:28:29
Tagged date                              : UTC 2013-07-21 10:28:32
Writing application                      : Easy CD-DA Extractor (http://www.poikosoft.com)
Cover                                    : Yes

Audio
ID                                       : 1
Format                                   : ALAC
Codec ID                                 : alac
Codec ID/Info                            : Apple Lossless Audio Codec
Duration                                 : 3mn 56s
Duration_LastFrame                       : -56ms
Bit rate mode                            : Variable
Bit rate                                 : 935 Kbps
Channel(s)                               : 2 channels
Sampling rate                            : 44.1 KHz
Bit depth                                : 16 bits
Stream size                              : 26.4 MiB (99%)
Language                                 : English
Encoded date                             : UTC 2013-07-21 10:28:29
Tagged date                              : UTC 2013-07-21 10:28:32

General
Complete name                            : /Users/user/Music/John Lennon/John Lennon - 2005 - Working Class Hero - The Definitive Lennon ALAC/Disc 2/13. Isolation.m4a
Format                                   : MPEG-4
Format profile                           : Apple audio with iTunes info
Codec ID                                 : M4A
File size                                : 14.4 MiB
Duration                                 : 2mn 52s
Overall bit rate mode                    : Variable
Overall bit rate                         : 701 Kbps
Album                                    : The Definitive Lennon (Disc2)
Album/Performer                          : John Lennon
Track name                               : Isolation
Track name/Position                      : 13
Performer                                : John Lennon
Genre                                    : Rock
Recorded date                            : 2005
Encoded date                             : UTC 2013-07-21 10:28:29
Tagged date                              : UTC 2013-07-21 10:28:32
Writing application                      : Easy CD-DA Extractor (http://www.poikosoft.com)
Cover                                    : Yes

Audio
ID                                       : 1
Format                                   : ALAC
Codec ID                                 : alac
Codec ID/Info                            : Apple Lossless Audio Codec
Duration                                 : 2mn 52s
Duration_LastFrame                       : -76ms
Bit rate mode                            : Variable
Bit rate                                 : 687 Kbps
Channel(s)                               : 2 channels
Sampling rate                            : 44.1 KHz
Bit depth                                : 16 bits
Stream size                              : 14.2 MiB (98%)
Language                                 : English
Encoded date                             : UTC 2013-07-21 10:28:29
Tagged date                              : UTC 2013-07-21 10:28:31

General
Complete name                            : /Users/user/Music/John Lennon/John Lennon - 2005 - Working Class Hero - The Definitive Lennon ALAC/Disc 2/14. Cold Turkey.m4a
Format                                   : MPEG-4
Format profile                           : Apple audio with iTunes info
Codec ID                                 : M4A
File size                                : 28.4 MiB
Duration                                 : 5mn 3s
Overall bit rate mode                    : Variable
Overall bit rate                         : 785 Kbps
Album                                    : The Definitive Lennon (Disc2)
Album/Performer                          : John Lennon
Track name                               : Cold Turkey
Track name/Position                      : 14
Performer                                : John Lennon
Genre                                    : Rock
Recorded date                            : 2005
Encoded date                             : UTC 2013-07-21 10:28:32
Tagged date                              : UTC 2013-07-21 10:28:36
Writing application                      : Easy CD-DA Extractor (http://www.poikosoft.com)
Cover                                    : Yes

Audio
ID                                       : 1
Format                                   : ALAC
Codec ID                                 : alac
Codec ID/Info                            : Apple Lossless Audio Codec
Duration                                 : 5mn 3s
Duration_LastFrame                       : -36ms
Bit rate mode                            : Variable
Bit rate                                 : 777 Kbps
Channel(s)                               : 2 channels
Sampling rate                            : 44.1 KHz
Bit depth                                : 16 bits
Stream size                              : 28.1 MiB (99%)
Language                                 : English
Encoded date                             : UTC 2013-07-21 10:28:32
Tagged date                              : UTC 2013-07-21 10:28:36

General
Complete name                            : /Users/user/Music/John Lennon/John Lennon - 2005 - Working Class Hero - The Definitive Lennon ALAC/Disc 2/15. Intuition.m4a
Format                                   : MPEG-4
Format profile                           : Apple audio with iTunes info
Codec ID                                 : M4A
File size                                : 20.5 MiB
Duration                                 : 3mn 9s
Overall bit rate mode                    : Variable
Overall bit rate                         : 909 Kbps
Album                                    : The Definitive Lennon (Disc2)
Album/Performer                          : John Lennon
Track name                               : Intuition
Track name/Position                      : 15
Performer                                : John Lennon
Genre                                    : Rock
Recorded date                            : 2005
Encoded date                             : UTC 2013-07-21 10:28:32
Tagged date                              : UTC 2013-07-21 10:28:35
Writing application                      : Easy CD-DA Extractor (http://www.poikosoft.com)
Cover                                    : Yes

Audio
ID                                       : 1
Format                                   : ALAC
Codec ID                                 : alac
Codec ID/Info                            : Apple Lossless Audio Codec
Duration                                 : 3mn 9s
Duration_LastFrame                       : -50ms
Bit rate mode                            : Variable
Bit rate                                 : 896 Kbps
Channel(s)                               : 2 channels
Sampling rate                            : 44.1 KHz
Bit depth                                : 16 bits
Stream size                              : 20.2 MiB (99%)
Language                                 : English
Encoded date                             : UTC 2013-07-21 10:28:32
Tagged date                              : UTC 2013-07-21 10:28:35

General
Complete name                            : /Users/user/Music/John Lennon/John Lennon - 2005 - Working Class Hero - The Definitive Lennon ALAC/Disc 2/16. Gimme Some Truth.m4a
Format                                   : MPEG-4
Format profile                           : Apple audio with iTunes info
Codec ID                                 : M4A
File size                                : 21.4 MiB
Duration                                 : 3mn 15s
Overall bit rate mode                    : Variable
Overall bit rate                         : 918 Kbps
Album                                    : The Definitive Lennon (Disc2)
Album/Performer                          : John Lennon
Track name                               : Gimme Some Truth
Track name/Position                      : 16
Performer                                : John Lennon
Genre                                    : Rock
Recorded date                            : 2005
Encoded date                             : UTC 2013-07-21 10:28:36
Tagged date                              : UTC 2013-07-21 10:28:38
Writing application                      : Easy CD-DA Extractor (http://www.poikosoft.com)
Cover                                    : Yes

Audio
ID                                       : 1
Format                                   : ALAC
Codec ID                                 : alac
Codec ID/Info                            : Apple Lossless Audio Codec
Duration                                 : 3mn 15s
Duration_LastFrame                       : -20ms
Bit rate mode                            : Variable
Bit rate                                 : 906 Kbps
Channel(s)                               : 2 channels
Sampling rate                            : 44.1 KHz
Bit depth                                : 16 bits
Stream size                              : 21.1 MiB (99%)
Language                                 : English
Encoded date                             : UTC 2013-07-21 10:28:36
Tagged date                              : UTC 2013-07-21 10:28:38

General
Complete name                            : /Users/user/Music/John Lennon/John Lennon - 2005 - Working Class Hero - The Definitive Lennon ALAC/Disc 2/17. Give Peace A Chance.m4a
Format                                   : MPEG-4
Format profile                           : Apple audio with iTunes info
Codec ID                                 : M4A
File size                                : 33.9 MiB
Duration                                 : 4mn 50s
Overall bit rate mode                    : Variable
Overall bit rate                         : 978 Kbps
Album                                    : The Definitive Lennon (Disc2)
Album/Performer                          : John Lennon
Track name                               : Give Peace A Chance
Track name/Position                      : 17
Performer                                : John Lennon
Genre                                    : Rock
Recorded date                            : 2005
Encoded date                             : UTC 2013-07-21 10:28:36
Tagged date                              : UTC 2013-07-21 10:28:41
Writing application                      : Easy CD-DA Extractor (http://www.poikosoft.com)
Cover                                    : Yes

Audio
ID                                       : 1
Format                                   : ALAC
Codec ID                                 : alac
Codec ID/Info                            : Apple Lossless Audio Codec
Duration                                 : 4mn 50s
Duration_LastFrame                       : -59ms
Bit rate mode                            : Variable
Bit rate                                 : 970 Kbps
Channel(s)                               : 2 channels
Sampling rate                            : 44.1 KHz
Bit depth                                : 16 bits
Stream size                              : 33.6 MiB (99%)
Language                                 : English
Encoded date                             : UTC 2013-07-21 10:28:36
Tagged date                              : UTC 2013-07-21 10:28:41

General
Complete name                            : /Users/user/Music/John Lennon/John Lennon - 2005 - Working Class Hero - The Definitive Lennon ALAC/Disc 2/18. Real Love.m4a
Format                                   : MPEG-4
Format profile                           : Apple audio with iTunes info
Codec ID                                 : M4A
File size                                : 19.5 MiB
Duration                                 : 4mn 12s
Overall bit rate mode                    : Variable
Overall bit rate                         : 649 Kbps
Album                                    : The Definitive Lennon (Disc2)
Album/Performer                          : John Lennon
Track name                               : Real Love
Track name/Position                      : 18
Performer                                : John Lennon
Genre                                    : Rock
Recorded date                            : 2005
Encoded date                             : UTC 2013-07-21 10:28:39
Tagged date                              : UTC 2013-07-21 10:28:42
Writing application                      : Easy CD-DA Extractor (http://www.poikosoft.com)
Cover                                    : Yes

Audio
ID                                       : 1
Format                                   : ALAC
Codec ID                                 : alac
Codec ID/Info                            : Apple Lossless Audio Codec
Duration                                 : 4mn 12s
Duration_LastFrame                       : -74ms
Bit rate mode                            : Variable
Bit rate                                 : 639 Kbps
Channel(s)                               : 2 channels
Sampling rate                            : 44.1 KHz
Bit depth                                : 16 bits
Stream size                              : 19.2 MiB (99%)
Language                                 : English
Encoded date                             : UTC 2013-07-21 10:28:39
Tagged date                              : UTC 2013-07-21 10:28:42

General
Complete name                            : /Users/user/Music/John Lennon/John Lennon - 2005 - Working Class Hero - The Definitive Lennon ALAC/Disc 2/19. Grow Old With Me.m4a
Format                                   : MPEG-4
Format profile                           : Apple audio with iTunes info
Codec ID                                 : M4A
File size                                : 17.4 MiB
Duration                                 : 3mn 20s
Overall bit rate mode                    : Variable
Overall bit rate                         : 730 Kbps
Album                                    : The Definitive Lennon (Disc2)
Album/Performer                          : John Lennon
Track name                               : Grow Old With Me
Track name/Position                      : 19
Performer                                : John Lennon
Genre                                    : Rock
Recorded date                            : 2005
Encoded date                             : UTC 2013-07-21 10:28:42
Tagged date                              : UTC 2013-07-21 10:28:45
Writing application                      : Easy CD-DA Extractor (http://www.poikosoft.com)
Cover                                    : Yes

Audio
ID                                       : 1
Format                                   : ALAC
Codec ID                                 : alac
Codec ID/Info                            : Apple Lossless Audio Codec
Duration                                 : 3mn 20s
Duration_LastFrame                       : -34ms
Bit rate mode                            : Variable
Bit rate                                 : 718 Kbps
Channel(s)                               : 2 channels
Sampling rate                            : 44.1 KHz
Bit depth                                : 16 bits
Stream size                              : 17.2 MiB (98%)
Language                                 : English
Encoded date                             : UTC 2013-07-21 10:28:42
Tagged date                              : UTC 2013-07-21 10:28:45
Код:
-----------------------

DON'T MODIFY THIS FILE

-----------------------

PERFORMER: auCDtect Task Manager, ver. 1.5.1RC3 build 1.5.1.4
Copyright (c) 2008-2010 y-soft. All rights reserved
http://y-soft.org

ANALYZER: auCDtect: CD records authenticity detector, version 0.8.2
Copyright (c) 2004 Oleg Berngardt. All rights reserved.
Copyright (c) 2004 Alexander Djourik. All rights reserved.

FILE: 19. Happy Xmas (War Is Over).m4a
  Size: 26060446 Hash: B54A981AF810CF7524AE6108D2301C6D Accuracy: -m0
  Conclusion: CDDA 100%
  Signature: CB2ECB8C2E7605ACB99CFD2BAEA296D68983A16D
FILE: 18. Borrowed Time.m4a
  Size: 31239926 Hash: F7E776EDBB33D1AD194424E9AAB027EF Accuracy: -m0
  Conclusion: CDDA 100%
  Signature: 33CE0E34A12D49A8C7A0210F03853268AF482909
FILE: 17. You Are Here.m4a
  Size: 25793008 Hash: 8CCC75C5F7F87A868825C4F67FCB81DE Accuracy: -m0
  Conclusion: CDDA 100%
  Signature: E10B93DE6FC87E5605D2E0C5DE6824990EE39855
FILE: 16. I'm Stepping Out.m4a
  Size: 27960399 Hash: 8EC205BE7448DF5E2E05EF807DD7FAF7 Accuracy: -m0
  Conclusion: CDDA 99%
  Signature: 96F664481604E3E6B56E7A54A777C22673F44294
FILE: 15. New York City.m4a
  Size: 33974434 Hash: FC5D123E3A4A5C6788FB714B0A72CFF9 Accuracy: -m0
  Conclusion: CDDA 100%
  Signature: 64B41F88B1162FD4E1C0A0AF9BD281DDDE179B6F
FILE: 14. Come Together (Live).m4a
  Size: 29796628 Hash: 83A4043E9366385E42B81C54D562DEB4 Accuracy: -m0
  Conclusion: CDDA 100%
  Signature: A055C3369ADBBE37E2E124F376E94DCE9526526F
FILE: 13. Bless You.m4a
  Size: 28339702 Hash: 8EA03E8E3F7D222C8301256B4397A5D7 Accuracy: -m0
  Conclusion: CDDA 99%
  Signature: F4CA0BF391DFF32785D359031EB81B058FE622DE
FILE: 12. Nobody Told Me.m4a
  Size: 25610664 Hash: 127881DFAB6B58A01E40729D3842E5C8 Accuracy: -m0
  Conclusion: CDDA 99%
  Signature: 03A3DED7112458272EA275B57F2FE655A8EBF380
FILE: 11. Nobody Loves You (When Your're Down And Out).m4a
  Size: 34304689 Hash: 55550B63F299B58A50A60090AB861F87 Accuracy: -m0
  Conclusion: CDDA 100%
  Signature: 8FAA8E18CD6E5BD56778A2B71FC7D97E0F2E3D9C
FILE: 10. Oh Yoko!.m4a
  Size: 29858154 Hash: CDF614138C533688D5625DA1620D18B3 Accuracy: -m0
  Conclusion: CDDA 100%
  Signature: 1605D1F2838961CA6C01D5AEA8AE6586D43300B0
FILE: 09. Oh My Love.m4a
  Size: 12527665 Hash: 103AB6878A85464AD6906A719B8F1341 Accuracy: -m0
  Conclusion: MPEG 100%
  Signature: A2BB487153CE95138E9A70BC8469F05717782406
FILE: 08. Power To The People.m4a
  Size: 22991802 Hash: 7B16558C9335A007B41DD4B7AB7E502A Accuracy: -m0
  Conclusion: CDDA 100%
  Signature: F692CEE7FAA2134DDC42AAEF83E9785883BA3B5D
FILE: 07. Working Class Hero.m4a
  Size: 19115745 Hash: 26E3A83514B0C27BF21B1C67BF2D07D6 Accuracy: -m0
  Conclusion: CDDA 100%
  Signature: C679D102D208AA5B8B5DE28F1C572F48BFF2D514
FILE: 06. Stand By Me.m4a
  Size: 23972183 Hash: 212E6C0BA8F580BB3BE7A11557FEB82A Accuracy: -m0
  Conclusion: CDDA 100%
  Signature: 032934B306B309302796A40F67C04145134BE40E
FILE: 05. Instant Karma! (We All Shine On).m4a
  Size: 21868662 Hash: AF157247BFD5F1AC6428579F66B38FBF Accuracy: -m0
  Conclusion: CDDA 100%
  Signature: 5D9E093BC1A16343DA8C00B64E7B652143064EA1
FILE: 04. Jealous Guy.m4a
  Size: 23964034 Hash: 5E49A03AADA206EA42F3766647DE5C9C Accuracy: -m0
  Conclusion: CDDA 99%
  Signature: 0DA50CAAF9ADDEAE491AC5ABF5705601603E563A
FILE: 03. Watching The Wheels.m4a
  Size: 24049348 Hash: 06553402C5917D5B44242CA51A510D4C Accuracy: -m0
  Conclusion: CDDA 100%
  Signature: 2DEFD230CEBC56C233894979AD964F6C4AA92D68
FILE: 02. Imagine.m4a
  Size: 16323470 Hash: 1B021617B6D30AD3271F3FC8EE13639F Accuracy: -m0
  Conclusion: CDDA 94%
  Signature: 17A4C52471FA468C1F75776EF2B6194CFD949472
FILE: 01. (Just Like) Starting Over.m4a
  Size: 26364568 Hash: 095FB2D7F8416777C4F3747310835858 Accuracy: -m0
  Conclusion: CDDA 100%
  Signature: 8D7579F0CAC7242FB3D5C2FB94DAEE2D6815DE90
Код:
-----------------------

DON'T MODIFY THIS FILE

-----------------------

PERFORMER: auCDtect Task Manager, ver. 1.5.1RC3 build 1.5.1.4
Copyright (c) 2008-2010 y-soft. All rights reserved
http://y-soft.org

ANALYZER: auCDtect: CD records authenticity detector, version 0.8.2
Copyright (c) 2004 Oleg Berngardt. All rights reserved.
Copyright (c) 2004 Alexander Djourik. All rights reserved.

FILE: 19. Grow Old With Me.m4a
  Size: 18286806 Hash: 7A88920B770C6D2FA164CD64ED5AD2B7 Accuracy: -m0
  Conclusion: CDDA 99%
  Signature: B3B91C230B57B97647A3B8FE812315E4B12C1C36
FILE: 18. Real Love.m4a
  Size: 20470432 Hash: 8C3EB44B8BBA16948458B98D4F09CA36 Accuracy: -m0
  Conclusion: CDDA 100%
  Signature: 528ACBC896D6FD87045E9F72DBE18052DCECDA00
FILE: 17. Give Peace A Chance.m4a
  Size: 35566321 Hash: 1E8AE508EB0FE6E5D4E29E2DAEC1C9FB Accuracy: -m0
  Conclusion: CDDA 100%
  Signature: C9D466E440D9E8922B00657F339EBB4329718496
FILE: 16. Gimme Some Truth.m4a
  Size: 22397256 Hash: 6D4ADB07FA4297D9FE01DFCB6AD930C5 Accuracy: -m0
  Conclusion: CDDA 99%
  Signature: C1EB637EE7F7F3D507B094A9C0F952DDB52EF817
FILE: 15. Intuition.m4a
  Size: 21486287 Hash: 7F2598EF2172CA00A22557A32ADF5A94 Accuracy: -m0
  Conclusion: CDDA 99%
  Signature: FFE07993F0D70BBEF8E97235AB1717B4677F3F4C
FILE: 14. Cold Turkey.m4a
  Size: 29801201 Hash: 4ECE85C808AF3E79934353B0BC418EA7 Accuracy: -m0
  Conclusion: CDDA 99%
  Signature: 76723F7826E26A0059EECE8BD4FDF0976CEF2FE0
FILE: 13. Isolation.m4a
  Size: 15148142 Hash: F1682E685F1BCAB00F50D7846594C7E9 Accuracy: -m0
  Conclusion: CDDA 92%
  Signature: B1DBE87D8805E42D762CE1E3A8476E39C3F624CF
FILE: 12. I'm Losing You.m4a
  Size: 27988607 Hash: C3CBA8A81A1CE919ECF480B54315BA12 Accuracy: -m0
  Conclusion: CDDA 100%
  Signature: F851CEE5669E606615BC5BF5985C9974A45B82D1
FILE: 11. #9 Dream.m4a
  Size: 32092314 Hash: C37E264FDE9C7FF5C7263BBBE2C9DC10 Accuracy: -m0
  Conclusion: CDDA 100%
  Signature: B49FE18A0481AD0584EB3F9CE02DEC77B2640A73
FILE: 10. Scared.m4a
  Size: 29955986 Hash: C07EE23B51401F0FAD7BF25CF1883589 Accuracy: -m0
  Conclusion: CDDA 99%
  Signature: B17B11A6ABA4C606D15B6386F7B259BA686EBAB6
FILE: 09. God.m4a
  Size: 23438890 Hash: 3FFF95C259A7D0CAC7137959084C4A32 Accuracy: -m0
  Conclusion: CDDA 100%
  Signature: C02D81284AEEEA41793EABAC800BDBFC2ECEF9C9
FILE: 08. Woman is The Nigger of The World.m4a
  Size: 39165391 Hash: EDBFEEAF63E0E12CEF6C9ED616C89E40 Accuracy: -m0
  Conclusion: CDDA 100%
  Signature: 61307B983D755DADB648083A92DD270A304BF235
FILE: 07. Beautiful Boy (Darling Boy).m4a
  Size: 24464653 Hash: A85EEA56682A6C5F3082474EA20BC74C Accuracy: -m0
  Conclusion: CDDA 99%
  Signature: 48C0AEF2614C739AA401C899B608068956C8D3DE
FILE: 06. Mother.m4a
  Size: 29710492 Hash: 7F950264D681974155745FA351096ECC Accuracy: -m0
  Conclusion: CDDA 100%
  Signature: B4B4E9F4D2D33F403A94EC99625E6F1C33DE8CEC
FILE: 05. Love.m4a
  Size: 12809517 Hash: 20B2F9723BE9DA0514CEA5EB77C3ABD5 Accuracy: -m0
  Conclusion: CDDA 87%
  Signature: 75B8448D522FF2C4E53E56BF48C1A57CE0CACC27
FILE: 04. Whatever Gets You Thru The Night.m4a
  Size: 23464539 Hash: 46BFC8392B5AB9F3E1ED66877A6CBC6E Accuracy: -m0
  Conclusion: CDDA 100%
  Signature: C8C677B1BB8C8AF4C045CD3B53A879D31146B712
FILE: 03. Out The Blue.m4a
  Size: 22080464 Hash: F3B48367904C9B981C2F3FA4E32CCC59 Accuracy: -m0
  Conclusion: CDDA 100%
  Signature: 98988EC5AE32F203305F3DD9C1235151EE6541E1
FILE: 02. Mind Games.m4a
  Size: 29897668 Hash: CF2F48B74955AA52DC999BA872CAB7C0 Accuracy: -m0
  Conclusion: CDDA 100%
  Signature: 276028D716D47CA0D8B2A65E43D25DFB0BC3BD0C
FILE: 01. Woman.m4a
  Size: 23862909 Hash: ACED502200E9516F2B2B4EBEF6578FB7 Accuracy: -m0
  Conclusion: CDDA 100%
  Signature: 32791C2C84338AD493A1E48D8A6A86EE807D3CD5
Working Class Hero: The Definitive Lennon (рус. Герой рабочего класса: Наиболее полный сборник Леннона) — двухдисковый альбом-сборник песен Джона Леннона, выпущенный лейблом Capitol Records 3 октября 2005 года (номер по каталогу CDP 0946 3 40391 2 3), в ознаменование 65-летия Леннона. Сборник содержит версии песен Джона Леннона, ремикшированные и ремастированные под контролем его вдовы Йоко Оно в период с 2000 по 2005 годы. Сборник был очень хорошо встречен публикой и критиками и достиг 11-го места в чарте альбомов Великобритании; заметно меньше был успех сборника в США, где в чарте альбомов Billboard 200 он стартовал на 135-м месте 22 октября 2005, продержавшись в чарте только три недели.
38 вошедших в сборник треков охватывают всю сольную карьеру Леннона; в сборник вошли все его песни, выходившие на синглах, за исключением посмертно выпущенной «Every Man Has A Woman Who Loves Him», но не всегда в той же версии или в той же редакции, в которой песня выпускалась первоначально. Представлены песни со всех восьми студийных альбомов Леннона, выпущенных с 1970 по 1984 год, а также в подборку входят все песни, выпущенные на ранее изданном сборнике Lennon Legend, и все (за исключением одной), выпущенные на сборнике The John Lennon Collection — но иногда не совсем в той же версии, чем выпускавшаяся раньше.
Время раздачи: 24/7 до 3 скачавших
[NNM-Club.ru]_John Lennon - 2005 - Working Class Hero - The Definitive Lennon ALAC.torrent
 Торрент: Платиновая раздача  Зарегистрирован
 
Скачать


 Зарегистрирован:   21 Июл 2013 14:19:44
 Размер:   922 MB  (
 Рейтинг:    (Голосов: 8)
 Поблагодарили:   35
 Проверка:   Оформление проверено модератором 22 Июл 2013 11:27:34
Как cкачать  ·  Как раздать  ·  Правильно оформить  ·  Поднять ратио!  
Puzun
Стаж: 10 лет 8 мес.
Сообщений: 69
Ratio: 48.921
Поблагодарили: 443
100%
Откуда: из СССР
ussr.gif
Как раз искал на днях это издание!

_________________

cherkeson
Стаж: 9 лет 3 мес.
Сообщений: 12
Ratio: 13.37
100%
Люди, ну дайте скачать, пожалуйста!!!
Показать сообщения:   
Начать новую тему   Ответить на тему    Торрент-трекер NNM-Club -> Аудио и Видео -> Музыка Lossless (ALAC) Часовой пояс: GMT + 3
Страница 1 из 1