Классический форум-трекер
canvas not supported
Нас вместе: 4 232 307

Матрица: Трилогия / The Matrix: Trilogy (1999-2003) HDDVDRip [H.264/720p-LQ] [Hi10P]


 
 
RSS
Начать новую тему   Ответить на тему    Торрент-трекер NNM-Club -> Архив торрентов -> Архив Видео. Кино, Театра
Автор Сообщение
sinteros ®
Стаж: 15 лет 2 мес.
Сообщений: 562
Ratio: 65.893
Поблагодарили: 62268
100%
Матрица: Трилогия / The Matrix: Trilogy (1999-2003) HDDVDRip [H.264/720p-LQ] [Hi10P]


Производство: США
Год выпуска: 1999-2003
Жанр: Фантастика, Боевик, Приключения
Продолжительность: 02:17:05, 02:18:17, 02:09:15
Перевод: Профессиональный (дублированный), Профессиональный (многоголосый, закадровый), Профессиональный (двухголосый, закадровый), Авторский (одноголосый закадровый)
Режиссер: Энди Вачовски, Ларри Вачовски
Актеры: Киану Ривз, Лоуренс Фишборн, Кэрри-Энн Мосс, Моника Беллуччи, Хьюго Уивинг, Глория Фостер, Джо Пантолиано, Маркус Чонг, Джулиан Араханга, Мэтт Доран, Белинда МакКлори, Энтони Рэй Паркер, Пол Годдар, Роберт Тейлор, Дэвид Эстон, Марк Грэй, Ада Никодему, Денни Гордон, Роуэн Уитт, Эленор Уитт, Тамара Браун, Яная Пендер, Джада Пинкетт Смит, Рэй Энтони, Кристин Ану, Энди Арнесс,Алима Эштон-Шейбу, Гельмут Бакаитис, Стив Бастони, Дон Бейти, Дэниэл Бернхард, Валери Берри, Йен Блисс, Лилиана Богатко, Майкл Бадд, Стоуни Бурк, Келли Батлер, Мэри Элис, Танвир К. Атвал, Кейт Бихан, Френсин Белл, Рэйчел Блэкман, Генри Блейсингейм, Дэвид Бауэрс, Зик Кастелли, Колин Чоу, Эсси Дэвис, Нона М. Гайе, Дион Хорстман, Лейчи Халм, Кристофер Кирби
Описание фильма: Мир Матрицы - это иллюзия, существующая только в бесконечном сне обреченного человечества. Холодный мир будущего, в котором люди - всего лишь батарейки в компьютерных системах.
<<<<< >>>>>
Вся Трилогия весит 8,22гб с учетом одной звуковой дорожки на каждый MKV контейнер!
Аниматрица / The Animatrix (2003)
Матрица / The Matrix (1999) HDDVDRip [H.264/720p-LQ] [Hi10P]
Год выпуска: 1999
Производство: США, Австралия
Жанр: Фантастика, Боевик, Приключения
Перевoд: Профессиональный (дублированный), Профессиональный (многоголосый, закадровый)x2, Профессиональный (двухголосый, закадровый), Авторский (одноголосый закадровый)x8
Оригинальная аудиодорожка: Английская + Коментарии
Язык субтитров: Русский(HDDVD), Русский(Blu-Ray CEE),Украинский, Английский(HDDVD), Английский(Blu-Ray CEE)
Вид субтитров: Вшитые

Режиссeр: Энди Вачовски, Ларри Вачовски

В рoлях: Киану Ривз, Лоуренс Фишборн, Кэрри-Энн Мосс, Хьюго Уивинг, Глория Фостер, Джо Пантолиано, Маркус Чонг, Джулиан Араханга, Мэтт Доран, Белинда МакКлори, Энтони Рэй Паркер, Пол Годдар, Роберт Тейлор, Дэвид Эстон, Марк Грэй, Ада Никодему, Денни Гордон, Роуэн Уитт, Эленор Уитт, Тамара Браун, Яная Пендер

Описаниe: Жизнь Томаса Андерсона разделена на две части: днём он самый обычный офисный работник, получающий нагоняи от начальства, а ночью превращается в хакера по имени Нео, и нет места в сети, куда он не смог бы дотянуться. Но однажды всё меняется — герой, сам того не желая, узнаёт страшную правду: всё, что его окружает — не более, чем иллюзия, Матрица, а люди — всего лишь источник питания для искусственного интеллекта, поработившего человечество. И только Нео под силу изменить расстановку сил в этом ставшем вдруг чужом и страшном мире.



Продолжительнoсть: 02:17:05
Качество: HDDVDRip
Формат: MKV

Видео: MPEG-4 AVC/H.264, 1280x528(2,40:1), 23,976fps, 2242 Кbps, 0.138bit/pixel
Аудио 1: DUB Russian, AC3, 6ch, 48 kHz, 448 kbps, (Дубляж)
Аудио 2: MVO Russian, AC3, 6ch, 48 kHz, 448 kbps, (Многоголосый) - Отдельным файлом
Аудио 3: MVO Russian, AC3, 2ch, 48 kHz, 192 kbps, (Многоголосый - НТВ&РТР) - Отдельным файлом
Аудио 4: DVO Russian, AC3, 6ch, 48 kHz, 448 kbps, (Двухголосый - Гланц и Королёва) - Отдельным файлом
Аудио 5: AVO Russian, AC3, 6ch, 48 kHz, 448 kbps, (Одноголосый - Диктор CDV) - Отдельным файлом
Аудио 6: AVO Russian, AC3, 6ch, 48 kHz, 448 kbps, (Одноголосый - Гаврилов) - Отдельным файлом
Аудио 7: AVO Russian, AC3, 6ch, 48 kHz, 448 kbps, (Одноголосый - Живов) - Отдельным файлом
Аудио 8: AVO Russian, AC3, 6ch, 48 kHz, 448 kbps, (Одноголосый - Пучков) - Отдельным файлом
Аудио 9: AVO Russian, AC3, 6ch, 48 kHz, 448 kbps, (Одноголосый - Пучков шутливый перевод) - Отдельным файлом
Аудио 10: AVO Russian, AC3, 2ch, 48 kHz, 192 kbps, (Одноголосый - Кашкин) - Отдельным файлом
Аудио 11: AVO Russian, AC3, 2ch, 48 kHz, 192 kbps, (Одноголосый - Дольский поздний) - Отдельным файлом
Аудио 12: AVO Russian, AC3, 1ch, 48 kHz, 128 kbps, (Одноголосый - Дольский ранний) - Отдельным файлом
Аудио 13: MVO Ukranian, AC3, 6ch, 48 kHz, 384 kbps, (Многоголосый) - Отдельным файлом
Аудио 14: English, AC3, 6ch, 48 kHz, 448 kbps, (Оригинал) - Отдельным файлом
Аудио 15: English, AC3, 2ch, 48 kHz, 128 kbps, (Commentary 1) - Отдельным файлом
Аудио 16: English, AC3, 2ch, 48 kHz, 128 kbps, (Commentary 2) - Отдельным файлом
Аудио 17: English, AC3, 2ch, 48 kHz, 128 kbps, (Commentary 3) - Отдельным файлом
Общее
Полное имя : Матрица 1 (1999) HDDVDRip-AVC.mkv
Формат : Matroska
Версия формата : Version 4 / Version 2
Размер файла : 7,42 Гбайт
Продолжительность : 2 ч. 17 м.
Общий поток : 7753 Кбит/сек
Название фильма : Матрица / The Matrix (1999) HDDVDRip-AVC (Sinteros)
Программа кодирования : mkvmerge v6.6.0 ('The Edge Of The In Between') built on Dec 1 2013 17:55:00
Библиотека кодирования : libebml v1.3.0 + libmatroska v1.4.1
Attachment : Yes

Видео
Идентификатор : 1
Формат : AVC
Формат/Информация : Advanced Video Codec
Профиль формата : High 10@L4.1
Параметр CABAC формата : Да
Параметр ReFrames формата : 11 кадров
Идентификатор кодека : V_MPEG4/ISO/AVC
Продолжительность : 2 ч. 17 м.
Битрейт : 2242 Кбит/сек
Ширина : 1280 пикселей
Высота : 528 пикселей
Соотношение сторон : 2,40:1
Режим частоты кадров : Постоянный
Частота кадров : 23,976 кадра/сек
Цветовое пространство : YUV
Субдискретизация насыщенности : 4:2:0
Битовая глубина : 10 бит
Тип развёртки : Прогрессивная
Бит/(Пиксели*Кадры) : 0.138
Размер потока : 2,01 Гбайт (27%)
Заголовок : MPEG-4 AVC/H.264, 1280x528(2,40:1), 23,976fps, 2242 Кbps, 0.138bit/pixel
Библиотека кодирования : x264 core 133 r2334 a3ac64b
Настройки программы : cabac=1 / ref=11 / deblock=1:-1:-1 / analyse=0x3:0x133 / me=tesa / subme=10 / psy=1 / psy_rd=1.00:0.15 / mixed_ref=1 / me_range=24 / chroma_me=1 / trellis=2 / 8x8dct=1 / cqm=0 / deadzone=21,11 / fast_pskip=1 / chroma_qp_offset=-3 / threads=12 / lookahead_threads=1 / sliced_threads=0 / nr=0 / decimate=1 / interlaced=0 / bluray_compat=0 / constrained_intra=0 / bframes=6 / b_pyramid=2 / b_adapt=2 / b_bias=0 / direct=3 / weightb=1 / open_gop=0 / weightp=2 / keyint=250 / keyint_min=23 / scenecut=40 / intra_refresh=0 / rc_lookahead=60 / rc=crf / mbtree=1 / crf=18.0 / qcomp=0.60 / qpmin=0 / qpmax=81 / qpstep=4 / ip_ratio=1.40 / aq=1:1.00
Язык : English
Default : Да
Forced : Нет

Аудио #1
Идентификатор : 2
Формат : AC-3
Формат/Информация : Audio Coding 3
Расширение режима : CM (complete main)
Параметр Endianness формата : Big
Идентификатор кодека : A_AC3
Продолжительность : 2 ч. 17 м.
Вид битрейта : Постоянный
Битрейт : 448 Кбит/сек
Каналы : 6 каналов
Расположение каналов : Front: L C R, Side: L R, LFE
Частота : 48,0 КГц
Битовая глубина : 16 бит
Метод сжатия : С потерями
Размер потока : 439 Мбайт (6%)
Заголовок : DUB Russian, AC3, 6ch, 48 kHz, 448 kbps, (Дубляж)
Язык : Russian
Default : Да
Forced : Нет

Аудио #2 - Отдельным файлом
Идентификатор : 3
Формат : AC-3
Формат/Информация : Audio Coding 3
Расширение режима : CM (complete main)
Параметр Endianness формата : Big
Идентификатор кодека : A_AC3
Продолжительность : 2 ч. 17 м.
Вид битрейта : Постоянный
Битрейт : 448 Кбит/сек
Каналы : 6 каналов
Расположение каналов : Front: L C R, Side: L R, LFE
Частота : 48,0 КГц
Битовая глубина : 16 бит
Метод сжатия : С потерями
Размер потока : 439 Мбайт (6%)
Заголовок : MVO Russian, AC3, 6ch, 48 kHz, 448 kbps, (Многоголосый) - Отдельным файлом
Язык : Russian
Default : Нет
Forced : Нет

Аудио #3 - Отдельным файлом
Идентификатор : 4
Формат : AC-3
Формат/Информация : Audio Coding 3
Расширение режима : CM (complete main)
Параметр Endianness формата : Big
Идентификатор кодека : A_AC3
Продолжительность : 2 ч. 17 м.
Вид битрейта : Постоянный
Битрейт : 192 Кбит/сек
Каналы : 2 канала
Расположение каналов : Front: L R
Частота : 48,0 КГц
Битовая глубина : 16 бит
Метод сжатия : С потерями
Размер потока : 188 Мбайт (2%)
Заголовок : MVO Russian, AC3, 2ch, 48 kHz, 192 kbps, (Многоголосый - НТВ&РТР) - Отдельным файлом
Язык : Russian
Default : Нет
Forced : Нет

Аудио #4 - Отдельным файлом
Идентификатор : 5
Формат : AC-3
Формат/Информация : Audio Coding 3
Расширение режима : CM (complete main)
Параметр Endianness формата : Big
Идентификатор кодека : A_AC3
Продолжительность : 2 ч. 17 м.
Вид битрейта : Постоянный
Битрейт : 448 Кбит/сек
Каналы : 6 каналов
Расположение каналов : Front: L C R, Side: L R, LFE
Частота : 48,0 КГц
Битовая глубина : 16 бит
Метод сжатия : С потерями
Размер потока : 439 Мбайт (6%)
Заголовок : DVO Russian, AC3, 6ch, 48 kHz, 448 kbps, (Двухголосый - Гланц и Королёва) - Отдельным файлом
Язык : Russian
Default : Нет
Forced : Нет

Аудио #5 - Отдельным файлом
Идентификатор : 6
Формат : AC-3
Формат/Информация : Audio Coding 3
Расширение режима : CM (complete main)
Параметр Endianness формата : Big
Идентификатор кодека : A_AC3
Продолжительность : 2 ч. 17 м.
Вид битрейта : Постоянный
Битрейт : 448 Кбит/сек
Каналы : 6 каналов
Расположение каналов : Front: L C R, Side: L R, LFE
Частота : 48,0 КГц
Битовая глубина : 16 бит
Метод сжатия : С потерями
Размер потока : 439 Мбайт (6%)
Заголовок : AVO Russian, AC3, 6ch, 48 kHz, 448 kbps, (Одноголосый - Диктор CDV) - Отдельным файлом
Язык : Russian
Default : Нет
Forced : Нет

Аудио #6 - Отдельным файлом
Идентификатор : 7
Формат : AC-3
Формат/Информация : Audio Coding 3
Расширение режима : CM (complete main)
Параметр Endianness формата : Big
Идентификатор кодека : A_AC3
Продолжительность : 2 ч. 17 м.
Вид битрейта : Постоянный
Битрейт : 448 Кбит/сек
Каналы : 6 каналов
Расположение каналов : Front: L C R, Side: L R, LFE
Частота : 48,0 КГц
Битовая глубина : 16 бит
Метод сжатия : С потерями
Размер потока : 439 Мбайт (6%)
Заголовок : AVO Russian, AC3, 6ch, 48 kHz, 448 kbps, (Одноголосый - Гаврилов) - Отдельным файлом
Язык : Russian
Default : Нет
Forced : Нет

Аудио #7 - Отдельным файлом
Идентификатор : 8
Формат : AC-3
Формат/Информация : Audio Coding 3
Расширение режима : CM (complete main)
Параметр Endianness формата : Big
Идентификатор кодека : A_AC3
Продолжительность : 2 ч. 17 м.
Вид битрейта : Постоянный
Битрейт : 448 Кбит/сек
Каналы : 6 каналов
Расположение каналов : Front: L C R, Side: L R, LFE
Частота : 48,0 КГц
Битовая глубина : 16 бит
Метод сжатия : С потерями
Размер потока : 439 Мбайт (6%)
Заголовок : AVO Russian, AC3, 6ch, 48 kHz, 448 kbps, (Одноголосый - Живов) - Отдельным файлом
Язык : Russian
Default : Нет
Forced : Нет

Аудио #8 - Отдельным файлом
Идентификатор : 9
Формат : AC-3
Формат/Информация : Audio Coding 3
Расширение режима : CM (complete main)
Параметр Endianness формата : Big
Идентификатор кодека : A_AC3
Продолжительность : 2 ч. 17 м.
Вид битрейта : Постоянный
Битрейт : 448 Кбит/сек
Каналы : 6 каналов
Расположение каналов : Front: L C R, Side: L R, LFE
Частота : 48,0 КГц
Битовая глубина : 16 бит
Метод сжатия : С потерями
Размер потока : 439 Мбайт (6%)
Заголовок : AVO Russian, AC3, 6ch, 48 kHz, 448 kbps, (Одноголосый - Пучков) - Отдельным файлом
Язык : Russian
Default : Нет
Forced : Нет

Аудио #9 - Отдельным файлом
Идентификатор : 10
Формат : AC-3
Формат/Информация : Audio Coding 3
Расширение режима : CM (complete main)
Параметр Endianness формата : Big
Идентификатор кодека : A_AC3
Продолжительность : 2 ч. 17 м.
Вид битрейта : Постоянный
Битрейт : 448 Кбит/сек
Каналы : 6 каналов
Расположение каналов : Front: L C R, Side: L R, LFE
Частота : 48,0 КГц
Битовая глубина : 16 бит
Метод сжатия : С потерями
Размер потока : 439 Мбайт (6%)
Заголовок : AVO Russian, AC3, 6ch, 48 kHz, 448 kbps, (Одноголосый - Пучков шутливый перевод) - Отдельным файлом
Язык : Russian
Default : Нет
Forced : Нет

Аудио #10 - Отдельным файлом
Идентификатор : 11
Формат : AC-3
Формат/Информация : Audio Coding 3
Расширение режима : CM (complete main)
Параметр Endianness формата : Big
Идентификатор кодека : A_AC3
Продолжительность : 2 ч. 17 м.
Вид битрейта : Постоянный
Битрейт : 192 Кбит/сек
Каналы : 2 канала
Расположение каналов : Front: L R
Частота : 48,0 КГц
Битовая глубина : 16 бит
Метод сжатия : С потерями
Размер потока : 188 Мбайт (2%)
Заголовок : AVO Russian, AC3, 2ch, 48 kHz, 192 kbps, (Одноголосый - Кашкин) - Отдельным файлом
Язык : Russian
Default : Нет
Forced : Нет

Аудио #11 - Отдельным файлом
Идентификатор : 12
Формат : AC-3
Формат/Информация : Audio Coding 3
Расширение режима : CM (complete main)
Параметр Endianness формата : Big
Идентификатор кодека : A_AC3
Продолжительность : 2 ч. 17 м.
Вид битрейта : Постоянный
Битрейт : 192 Кбит/сек
Каналы : 2 канала
Расположение каналов : Front: L R
Частота : 48,0 КГц
Битовая глубина : 16 бит
Метод сжатия : С потерями
Размер потока : 188 Мбайт (2%)
Заголовок : AVO Russian, AC3, 2ch, 48 kHz, 192 kbps, (Одноголосый - Дольский поздний) - Отдельным файлом
Язык : Russian
Default : Нет
Forced : Нет

Аудио #12 - Отдельным файлом
Идентификатор : 13
Формат : AC-3
Формат/Информация : Audio Coding 3
Расширение режима : CM (complete main)
Параметр Endianness формата : Big
Идентификатор кодека : A_AC3
Продолжительность : 2 ч. 17 м.
Вид битрейта : Постоянный
Битрейт : 128 Кбит/сек
Каналы : 1 канал
Расположение каналов : Front: C
Частота : 48,0 КГц
Битовая глубина : 16 бит
Метод сжатия : С потерями
Размер потока : 126 Мбайт (2%)
Заголовок : AVO Russian, AC3, 1ch, 48 kHz, 128 kbps, (Одноголосый - Дольский ранний) - Отдельным файлом
Язык : Russian
Default : Нет
Forced : Нет

Аудио #13 - Отдельным файлом
Идентификатор : 14
Формат : AC-3
Формат/Информация : Audio Coding 3
Расширение режима : CM (complete main)
Параметр Endianness формата : Big
Идентификатор кодека : A_AC3
Продолжительность : 2 ч. 17 м.
Вид битрейта : Постоянный
Битрейт : 384 Кбит/сек
Каналы : 6 каналов
Расположение каналов : Front: L C R, Side: L R, LFE
Частота : 48,0 КГц
Битовая глубина : 16 бит
Метод сжатия : С потерями
Размер потока : 377 Мбайт (5%)
Заголовок : MVO Ukranian, AC3, 6ch, 48 kHz, 384 kbps, (Многоголосый) - Отдельным файлом
Язык : Ukrainian
Default : Нет
Forced : Нет

Аудио #14 - Отдельным файлом
Идентификатор : 15
Формат : AC-3
Формат/Информация : Audio Coding 3
Расширение режима : CM (complete main)
Параметр Endianness формата : Big
Идентификатор кодека : A_AC3
Продолжительность : 2 ч. 17 м.
Вид битрейта : Постоянный
Битрейт : 448 Кбит/сек
Каналы : 6 каналов
Расположение каналов : Front: L C R, Side: L R, LFE
Частота : 48,0 КГц
Битовая глубина : 16 бит
Метод сжатия : С потерями
Размер потока : 439 Мбайт (6%)
Заголовок : English, AC3, 6ch, 48 kHz, 448 kbps, (Оригинал) - Отдельным файлом
Язык : English
Default : Нет
Forced : Нет

Аудио #15 - Отдельным файлом
Идентификатор : 16
Формат : AC-3
Формат/Информация : Audio Coding 3
Расширение режима : CM (complete main)
Параметр Endianness формата : Big
Идентификатор кодека : A_AC3
Продолжительность : 2 ч. 17 м.
Вид битрейта : Постоянный
Битрейт : 128 Кбит/сек
Каналы : 2 канала
Расположение каналов : Front: L R
Частота : 48,0 КГц
Битовая глубина : 16 бит
Метод сжатия : С потерями
Размер потока : 126 Мбайт (2%)
Заголовок : English, AC3, 2ch, 48 kHz, 128 kbps, (Commentary 1) - Отдельным файлом
Язык : English
Default : Нет
Forced : Нет

Аудио #16 - Отдельным файлом
Идентификатор : 17
Формат : AC-3
Формат/Информация : Audio Coding 3
Расширение режима : CM (complete main)
Параметр Endianness формата : Big
Идентификатор кодека : A_AC3
Продолжительность : 2 ч. 17 м.
Вид битрейта : Постоянный
Битрейт : 128 Кбит/сек
Каналы : 2 канала
Расположение каналов : Front: L R
Частота : 48,0 КГц
Битовая глубина : 16 бит
Метод сжатия : С потерями
Размер потока : 126 Мбайт (2%)
Заголовок : English, AC3, 2ch, 48 kHz, 128 kbps, (Commentary 2) - Отдельным файлом
Язык : English
Default : Нет
Forced : Нет

Аудио #17 - Отдельным файлом
Идентификатор : 18
Формат : AC-3
Формат/Информация : Audio Coding 3
Профиль формата : Dolby Digital
Расширение режима : CM (complete main)
Параметр Endianness формата : Big
Идентификатор кодека : A_AC3
Продолжительность : 2 ч. 17 м.
Вид битрейта : Постоянный
Битрейт : 128 Кбит/сек
Каналы : 2 канала
Расположение каналов : Front: L R
Частота : 48,0 КГц
Битовая глубина : 16 бит
Метод сжатия : С потерями
Размер потока : 126 Мбайт (2%)
Заголовок : English, AC3, 2ch, 48 kHz, 128 kbps, (Commentary 3) - Отдельным файлом
Язык : English
Default : Нет
Forced : Нет

Текст #1
Идентификатор : 19
Формат : PGS
Режим смешивания : zlib
Идентификатор кодека : S_HDMV/PGS
Идентификатор кодека/Информация : The same subtitle format used on BDs/HD-DVDs
Язык : Russian
Default : Нет
Forced : Нет

Текст #2
Идентификатор : 20
Формат : PGS
Режим смешивания : zlib
Идентификатор кодека : S_HDMV/PGS
Идентификатор кодека/Информация : The same subtitle format used on BDs/HD-DVDs
Язык : Russian
Default : Нет
Forced : Нет

Текст #3
Идентификатор : 21
Формат : UTF-8
Идентификатор кодека : S_TEXT/UTF8
Идентификатор кодека/Информация : UTF-8 Plain Text
Язык : Ukrainian
Default : Нет
Forced : Нет

Текст #4
Идентификатор : 22
Формат : PGS
Режим смешивания : zlib
Идентификатор кодека : S_HDMV/PGS
Идентификатор кодека/Информация : The same subtitle format used on BDs/HD-DVDs
Язык : English
Default : Нет
Forced : Нет

Текст #5
Идентификатор : 23
Формат : PGS
Режим смешивания : zlib
Идентификатор кодека : S_HDMV/PGS
Идентификатор кодека/Информация : The same subtitle format used on BDs/HD-DVDs
Язык : English
Default : Нет
Forced : Нет

Меню
00:00:00.000 : :Chapter 01
00:05:00.000 : :Chapter 02
00:10:00.000 : :Chapter 03
00:15:00.000 : :Chapter 04
00:20:00.000 : :Chapter 05
00:25:00.000 : :Chapter 06
00:30:00.000 : :Chapter 07
00:35:00.000 : :Chapter 08
00:40:00.000 : :Chapter 09
00:45:00.000 : :Chapter 10
00:50:00.000 : :Chapter 11
00:55:00.000 : :Chapter 12
01:00:00.000 : :Chapter 13
01:05:00.000 : :Chapter 14
01:10:00.000 : :Chapter 15
01:15:00.000 : :Chapter 16
01:20:00.000 : :Chapter 17
01:25:00.000 : :Chapter 18
01:30:00.000 : :Chapter 19
01:35:00.000 : :Chapter 20
01:40:00.000 : :Chapter 21
01:45:00.000 : :Chapter 22
01:50:00.000 : :Chapter 23
01:55:00.000 : :Chapter 24
02:00:00.000 : :Chapter 25
02:05:00.000 : :Chapter 26
02:10:00.000 : :Chapter 27
02:15:00.000 : :Chapter 28
Скриншоты:
Матрица: Перезагрузка / The Matrix Reloaded (2003) HDDVDRip [H.264/720p-LQ] [Hi10P]
Год выпуска: 2003
Производство: США, Австралия
Жанр: Фантастика, Боевик, Приключения
Перевoд: Профессиональный (дублированный), Профессиональный (двухголосый, закадровый)x3, Авторский (одноголосый закадровый)x3
Оригинальная аудиодорожка: Английская + Коментарии
Язык субтитров: Русский(HDDVD), Русский(Blu-Ray CEE),Украинский, Английский(HDDVD), Английский(Blu-Ray CEE)
Вид субтитров: Вшитые

Режиссeр: Энди Вачовски, Ларри Вачовски

В рoлях: Киану Ривз, Кэрри-Энн Мосс, Лоуренс Фишборн, Хьюго Уивинг, Джада Пинкетт Смит, Глория Фостер, Моника Беллуччи, Рэй Энтони, Кристин Ану, Энди Арнесс, Алима Эштон-Шейбу, Гельмут Бакаитис, Стив Бастони, Дон Бейти, Дэниэл Бернхард, Валери Берри, Йен Блисс, Лилиана Богатко, Майкл Бадд, Стоуни Бурк, Келли Батлер

Описаниe: Борцы за свободу Нео, Тринити и Морфеус продолжают руководить восстанием людей против Армии Машин. Для уничтожения системы репрессий и эксплуатации они вынуждены прибегнуть не только к арсеналу превосходного оружия, но и к своим выдающимся навыкам.
Участие в миссии по спасению человеческой расы от ее полного истребления приносит им более глубокое понимание конструкции Матрицы и осознание центральной роли Нео в судьбе человечества.



Продолжительнoсть: 02:18:17
Качество: HDDVDRip
Формат: MKV

Видео: MPEG-4 AVC/H.264, 1280x528(2,40:1), 23,976fps, 2240 Кbps, 0.138bit/pixel
Аудио 1: DUB Russian, AC3, 6ch, 48 kHz, 448 kbps, (Дубляж)
Аудио 2: DVO Russian, AC3, 6ch, 48 kHz, 448 kbps, (Двухголосый) - Отдельным файлом
Аудио 3: DVO Russian, AC3, 6ch, 48 kHz, 448 kbps, (Двухголосый - Гланц и Королёва ранний) - Отдельным файлом
Аудио 4: DVO Russian, AC3, 6ch, 48 kHz, 448 kbps, (Двухголосый - Гланц и Королёва поздний) - Отдельным файлом
Аудио 5: AVO Russian, AC3, 6ch, 48 kHz, 448 kbps, (Одноголосый - Гаврилов) - Отдельным файлом
Аудио 6: AVO Russian, AC3, 6ch, 48 kHz, 448 kbps, (Одноголосый - Живов) - Отдельным файлом
Аудио 7: AVO Russian, AC3, 6ch, 48 kHz, 448 kbps, (Одноголосый - Рудой) - Отдельным файлом
Аудио 8: MVO Ukranian, AC3, 6ch, 48 kHz, 384 kbps, (Многоголосый) - Отдельным файлом
Аудио 9: English, AC3, 6ch, 48 kHz, 448 kbps, (Оригинал) - Отдельным файлом
Аудио 10: English, AC3, 2ch, 48 kHz, 128 kbps, (Commentary 1) - Отдельным файлом
Аудио 11: English, AC3, 2ch, 48 kHz, 128 kbps, (Commentary 2) - Отдельным файлом
Общее
Полное имя : Матрица 2 (2003) HDDVDRip-AVC.mkv
Формат : Matroska
Версия формата : Version 4 / Version 2
Размер файла : 6,30 Гбайт
Продолжительность : 2 ч. 18 м.
Общий поток : 6520 Кбит/сек
Название фильма : Матрица: Перезагрузка / The Matrix Reloaded (2003) HDDVDRip-AVC (Sinteros)
Программа кодирования : mkvmerge v6.6.0 ('The Edge Of The In Between') built on Dec 1 2013 17:55:00
Библиотека кодирования : libebml v1.3.0 + libmatroska v1.4.1
Attachment : Yes

Видео
Идентификатор : 1
Формат : AVC
Формат/Информация : Advanced Video Codec
Профиль формата : High 10@L4.1
Параметр CABAC формата : Да
Параметр ReFrames формата : 11 кадров
Идентификатор кодека : V_MPEG4/ISO/AVC
Продолжительность : 2 ч. 18 м.
Битрейт : 2240 Кбит/сек
Ширина : 1280 пикселей
Высота : 528 пикселей
Соотношение сторон : 2,40:1
Режим частоты кадров : Постоянный
Частота кадров : 23,976 кадра/сек
Цветовое пространство : YUV
Субдискретизация насыщенности : 4:2:0
Битовая глубина : 10 бит
Тип развёртки : Прогрессивная
Бит/(Пиксели*Кадры) : 0.138
Размер потока : 2,09 Гбайт (33%)
Заголовок : MPEG-4 AVC/H.264, 1280x528(2,40:1), 23,976fps, 2240 Кbps, 0.138bit/pixel
Библиотека кодирования : x264 core 133 r2334 a3ac64b
Настройки программы : cabac=1 / ref=11 / deblock=1:-1:-1 / analyse=0x3:0x133 / me=tesa / subme=10 / psy=1 / psy_rd=1.00:0.15 / mixed_ref=1 / me_range=24 / chroma_me=1 / trellis=2 / 8x8dct=1 / cqm=0 / deadzone=21,11 / fast_pskip=1 / chroma_qp_offset=-3 / threads=12 / lookahead_threads=1 / sliced_threads=0 / nr=0 / decimate=1 / interlaced=0 / bluray_compat=0 / constrained_intra=0 / bframes=6 / b_pyramid=2 / b_adapt=2 / b_bias=0 / direct=3 / weightb=1 / open_gop=0 / weightp=2 / keyint=250 / keyint_min=23 / scenecut=40 / intra_refresh=0 / rc_lookahead=60 / rc=crf / mbtree=1 / crf=18.0 / qcomp=0.60 / qpmin=0 / qpmax=81 / qpstep=4 / ip_ratio=1.40 / aq=1:1.00
Язык : English
Default : Да
Forced : Нет

Аудио #1
Идентификатор : 2
Формат : AC-3
Формат/Информация : Audio Coding 3
Расширение режима : CM (complete main)
Параметр Endianness формата : Big
Идентификатор кодека : A_AC3
Продолжительность : 2 ч. 18 м.
Вид битрейта : Постоянный
Битрейт : 448 Кбит/сек
Каналы : 6 каналов
Расположение каналов : Front: L C R, Side: L R, LFE
Частота : 48,0 КГц
Битовая глубина : 16 бит
Метод сжатия : С потерями
Размер потока : 443 Мбайт (7%)
Заголовок : DUB Russian, AC3, 6ch, 48 kHz, 448 kbps, (Дубляж)
Язык : Russian
Default : Да
Forced : Нет

Аудио #2 - Отдельным файлом
Идентификатор : 3
Формат : AC-3
Формат/Информация : Audio Coding 3
Расширение режима : CM (complete main)
Параметр Endianness формата : Big
Идентификатор кодека : A_AC3
Продолжительность : 2 ч. 18 м.
Вид битрейта : Постоянный
Битрейт : 448 Кбит/сек
Каналы : 6 каналов
Расположение каналов : Front: L C R, Side: L R, LFE
Частота : 48,0 КГц
Битовая глубина : 16 бит
Метод сжатия : С потерями
Размер потока : 443 Мбайт (7%)
Заголовок : DVO Russian, AC3, 6ch, 48 kHz, 448 kbps, (Двухголосый) - Отдельным файлом
Язык : Russian
Default : Нет
Forced : Нет

Аудио #3 - Отдельным файлом
Идентификатор : 4
Формат : AC-3
Формат/Информация : Audio Coding 3
Расширение режима : CM (complete main)
Параметр Endianness формата : Big
Идентификатор кодека : A_AC3
Продолжительность : 2 ч. 18 м.
Вид битрейта : Постоянный
Битрейт : 448 Кбит/сек
Каналы : 6 каналов
Расположение каналов : Front: L C R, Side: L R, LFE
Частота : 48,0 КГц
Битовая глубина : 16 бит
Метод сжатия : С потерями
Размер потока : 443 Мбайт (7%)
Заголовок : DVO Russian, AC3, 6ch, 48 kHz, 448 kbps, (Двухголосый - Гланц и Королёва ранний) - Отдельным файлом
Язык : Russian
Default : Нет
Forced : Нет

Аудио #4 - Отдельным файлом
Идентификатор : 5
Формат : AC-3
Формат/Информация : Audio Coding 3
Расширение режима : CM (complete main)
Параметр Endianness формата : Big
Идентификатор кодека : A_AC3
Продолжительность : 2 ч. 18 м.
Вид битрейта : Постоянный
Битрейт : 448 Кбит/сек
Каналы : 6 каналов
Расположение каналов : Front: L C R, Side: L R, LFE
Частота : 48,0 КГц
Битовая глубина : 16 бит
Метод сжатия : С потерями
Размер потока : 443 Мбайт (7%)
Заголовок : DVO Russian, AC3, 6ch, 48 kHz, 448 kbps, (Двухголосый - Гланц и Королёва поздний) - Отдельным файлом
Язык : Russian
Default : Нет
Forced : Нет

Аудио #5 - Отдельным файлом
Идентификатор : 6
Формат : AC-3
Формат/Информация : Audio Coding 3
Расширение режима : CM (complete main)
Параметр Endianness формата : Big
Идентификатор кодека : A_AC3
Продолжительность : 2 ч. 18 м.
Вид битрейта : Постоянный
Битрейт : 448 Кбит/сек
Каналы : 6 каналов
Расположение каналов : Front: L C R, Side: L R, LFE
Частота : 48,0 КГц
Битовая глубина : 16 бит
Метод сжатия : С потерями
Размер потока : 443 Мбайт (7%)
Заголовок : AVO Russian, AC3, 6ch, 48 kHz, 448 kbps, (Одноголосый - Гаврилов) - Отдельным файлом
Язык : Russian
Default : Нет
Forced : Нет

Аудио #6 - Отдельным файлом
Идентификатор : 7
Формат : AC-3
Формат/Информация : Audio Coding 3
Расширение режима : CM (complete main)
Параметр Endianness формата : Big
Идентификатор кодека : A_AC3
Продолжительность : 2 ч. 18 м.
Вид битрейта : Постоянный
Битрейт : 448 Кбит/сек
Каналы : 6 каналов
Расположение каналов : Front: L C R, Side: L R, LFE
Частота : 48,0 КГц
Битовая глубина : 16 бит
Метод сжатия : С потерями
Размер потока : 443 Мбайт (7%)
Заголовок : AVO Russian, AC3, 6ch, 48 kHz, 448 kbps, (Одноголосый - Живов) - Отдельным файлом
Язык : Russian
Default : Нет
Forced : Нет

Аудио #7 - Отдельным файлом
Идентификатор : 8
Формат : AC-3
Формат/Информация : Audio Coding 3
Расширение режима : CM (complete main)
Параметр Endianness формата : Big
Идентификатор кодека : A_AC3
Продолжительность : 2 ч. 18 м.
Вид битрейта : Постоянный
Битрейт : 448 Кбит/сек
Каналы : 6 каналов
Расположение каналов : Front: L C R, Side: L R, LFE
Частота : 48,0 КГц
Битовая глубина : 16 бит
Метод сжатия : С потерями
Размер потока : 443 Мбайт (7%)
Заголовок : AVO Russian, AC3, 6ch, 48 kHz, 448 kbps, (Одноголосый - Рудой) - Отдельным файлом
Язык : Russian
Default : Нет
Forced : Нет

Аудио #8 - Отдельным файлом
Идентификатор : 9
Формат : AC-3
Формат/Информация : Audio Coding 3
Расширение режима : CM (complete main)
Параметр Endianness формата : Big
Идентификатор кодека : A_AC3
Продолжительность : 2 ч. 18 м.
Вид битрейта : Постоянный
Битрейт : 384 Кбит/сек
Каналы : 6 каналов
Расположение каналов : Front: L C R, Side: L R, LFE
Частота : 48,0 КГц
Битовая глубина : 16 бит
Метод сжатия : С потерями
Размер потока : 380 Мбайт (6%)
Заголовок : MVO Ukranian, AC3, 6ch, 48 kHz, 384 kbps, (Многоголосый) - Отдельным файлом
Язык : Ukrainian
Default : Нет
Forced : Нет

Аудио #9 - Отдельным файлом
Идентификатор : 10
Формат : AC-3
Формат/Информация : Audio Coding 3
Расширение режима : CM (complete main)
Параметр Endianness формата : Big
Идентификатор кодека : A_AC3
Продолжительность : 2 ч. 18 м.
Вид битрейта : Постоянный
Битрейт : 448 Кбит/сек
Каналы : 6 каналов
Расположение каналов : Front: L C R, Side: L R, LFE
Частота : 48,0 КГц
Битовая глубина : 16 бит
Метод сжатия : С потерями
Размер потока : 443 Мбайт (7%)
Заголовок : English, AC3, 6ch, 48 kHz, 448 kbps, (Оригинал) - Отдельным файлом
Язык : English
Default : Нет
Forced : Нет

Аудио #10 - Отдельным файлом
Идентификатор : 11
Формат : AC-3
Формат/Информация : Audio Coding 3
Расширение режима : CM (complete main)
Параметр Endianness формата : Big
Идентификатор кодека : A_AC3
Продолжительность : 2 ч. 18 м.
Вид битрейта : Постоянный
Битрейт : 128 Кбит/сек
Каналы : 2 канала
Расположение каналов : Front: L R
Частота : 48,0 КГц
Битовая глубина : 16 бит
Метод сжатия : С потерями
Размер потока : 127 Мбайт (2%)
Заголовок : English, AC3, 2ch, 48 kHz, 128 kbps, (Commentary 1) - Отдельным файлом
Язык : English
Default : Нет
Forced : Нет

Аудио #11 - Отдельным файлом
Идентификатор : 12
Формат : AC-3
Формат/Информация : Audio Coding 3
Расширение режима : CM (complete main)
Параметр Endianness формата : Big
Идентификатор кодека : A_AC3
Продолжительность : 2 ч. 18 м.
Вид битрейта : Постоянный
Битрейт : 128 Кбит/сек
Каналы : 2 канала
Расположение каналов : Front: L R
Частота : 48,0 КГц
Битовая глубина : 16 бит
Метод сжатия : С потерями
Размер потока : 127 Мбайт (2%)
Заголовок : English, AC3, 2ch, 48 kHz, 128 kbps, (Commentary 2) - Отдельным файлом
Язык : English
Default : Нет
Forced : Нет

Текст #1
Идентификатор : 13
Формат : PGS
Режим смешивания : zlib
Идентификатор кодека : S_HDMV/PGS
Идентификатор кодека/Информация : The same subtitle format used on BDs/HD-DVDs
Язык : Russian
Default : Нет
Forced : Нет

Текст #2
Идентификатор : 14
Формат : PGS
Режим смешивания : zlib
Идентификатор кодека : S_HDMV/PGS
Идентификатор кодека/Информация : The same subtitle format used on BDs/HD-DVDs
Язык : Russian
Default : Нет
Forced : Нет

Текст #3
Идентификатор : 15
Формат : UTF-8
Идентификатор кодека : S_TEXT/UTF8
Идентификатор кодека/Информация : UTF-8 Plain Text
Язык : Ukrainian
Default : Нет
Forced : Нет

Текст #4
Идентификатор : 16
Формат : PGS
Режим смешивания : zlib
Идентификатор кодека : S_HDMV/PGS
Идентификатор кодека/Информация : The same subtitle format used on BDs/HD-DVDs
Язык : English
Default : Нет
Forced : Нет

Текст #5
Идентификатор : 17
Формат : PGS
Режим смешивания : zlib
Идентификатор кодека : S_HDMV/PGS
Идентификатор кодека/Информация : The same subtitle format used on BDs/HD-DVDs
Язык : English
Default : Нет
Forced : Нет

Меню
00:00:00.000 : :Chapter 01
00:03:50.229 : :Chapter 02
00:08:55.367 : :Chapter 03
00:12:16.903 : :Chapter 04
00:16:24.317 : :Chapter 05
00:19:43.182 : :Chapter 06
00:23:29.407 : :Chapter 07
00:27:26.811 : :Chapter 08
00:32:01.252 : :Chapter 09
00:33:43.188 : :Chapter 10
00:37:57.442 : :Chapter 11
00:40:55.619 : :Chapter 12
00:43:44.956 : :Chapter 13
00:50:42.706 : :Chapter 14
00:55:08.472 : :Chapter 15
01:00:03.099 : :Chapter 16
01:02:49.766 : :Chapter 17
01:08:52.295 : :Chapter 18
01:13:06.881 : :Chapter 19
01:16:21.408 : :Chapter 20
01:20:31.827 : :Chapter 21
01:22:47.128 : :Chapter 22
01:26:12.501 : :Chapter 23
01:29:52.886 : :Chapter 24
01:32:50.899 : :Chapter 25
01:37:10.823 : :Chapter 26
01:40:51.378 : :Chapter 27
01:44:57.791 : :Chapter 28
01:48:12.152 : :Chapter 29
01:52:25.572 : :Chapter 30
01:55:42.935 : :Chapter 31
01:57:37.550 : :Chapter 32
02:01:51.470 : :Chapter 33
02:04:18.451 : :Chapter 34
02:07:04.115 : :Chapter 35
02:16:29.680 : :Chapter 36
Скриншоты:
Матрица: Революция / The Matrix Revolutions (2003) HDDVDRip [H.264/720p-LQ] [Hi10P]
Год выпуска: 2003
Производство: США, Австралия
Жанр: Фантастика, Боевик, Приключения
Перевoд: Профессиональный (дублированный), Профессиональный (многоголосый, закадровый), Профессиональный (двухголосый, закадровый), Авторский (одноголосый закадровый)x2
Оригинальная аудио дорожка: Английская + Коментарии
Язык субтитров: Русский(HDDVD), Русский(Blu-Ray CEE),Украинский, Английский(HDDVD), Английский(Blu-Ray CEE)
Вид субтитров: Вшитые

Режиссeр: Энди Вачовски, Ларри Вачовски

В рoлях: Киану Ривз, Кэрри-Энн Мосс, Хьюго Уивинг, Лоуренс Фишборн, Моника Беллуччи, Мэри Элис, Танвир К. Атвал, Гельмут Бакаитис, Кейт Бихан, Френсин Белл, Рэйчел Блэкман, Генри Блейсингейм, Йен Блисс, Дэвид Бауэрс, Зик Кастелли, Колин Чоу, Эсси Дэвис, Нона М. Гайе, Дион Хорстман, Лейчи Халм, Кристофер Кирби

Описаниe: Пока армия Машин пытается уничтожить Зион, его жители из последних сил держат оборону. Но удастся ли им предотвратить полное вторжение в город кишащей орды беспощадных машин до того, как Нео соберет все свои силы и положит конец войне?



Продолжительнoсть: 02:09:15
Качество: HDDVDRip
Формат: MKV

Видео: MPEG-4 AVC/H.264, 1280x528(2,40:1), 23,976fps, 2769 Кbps, 0.171bit/pixel
Аудио 1: DUB Russian, AC3, 6ch, 48 kHz, 448 kbps, (Дубляж)
Аудио 2: MVO Russian, AC3, 6ch, 48 kHz, 448 kbps, (Многоголосый) - Отдельным файлом
Аудио 4: DVO Russian, AC3, 6ch, 48 kHz, 448 kbps, (Двухголосый - Гланц и Королёва) - Отдельным файлом
Аудио 5: AVO Russian, AC3, 6ch, 48 kHz, 448 kbps, (Одноголосый - Гаврилов) - Отдельным файлом
Аудио 6: AVO Russian, AC3, 6ch, 48 kHz, 448 kbps, (Одноголосый - Живов) - Отдельным файлом
Аудио 8: MVO Ukranian, AC3, 6ch, 48 kHz, 384 kbps, (Многоголосый) - Отдельным файлом
Аудио 9: English, AC3, 6ch, 48 kHz, 448 kbps, (Оригинал) - Отдельным файлом
Аудио 10: English, AC3, 2ch, 48 kHz, 128 kbps, (Commentary 1) - Отдельным файлом
Аудио 11: English, AC3, 2ch, 48 kHz, 128 kbps, (Commentary 2) - Отдельным файлом
Общее

Полное имя : Матрица 3 (2003) HDDVDRip-AVC.mkv
Формат : Matroska
Версия формата : Version 4 / Version 2
Размер файла : 5,57 Гбайт
Продолжительность : 2 ч. 9 м.
Общий поток : 6165 Кбит/сек
Название фильма : Матрица 3: Революция / The Matrix Revolutions (2003) HDDVDRip-AVC (Sinteros)
Программа кодирования : mkvmerge v6.6.0 ('The Edge Of The In Between') built on Dec 1 2013 17:55:00
Библиотека кодирования : libebml v1.3.0 + libmatroska v1.4.1
Attachment : Yes

Видео
Идентификатор : 1
Формат : AVC
Формат/Информация : Advanced Video Codec
Профиль формата : High 10@L4.1
Параметр CABAC формата : Да
Параметр ReFrames формата : 11 кадров
Идентификатор кодека : V_MPEG4/ISO/AVC
Продолжительность : 2 ч. 9 м.
Битрейт : 2769 Кбит/сек
Ширина : 1280 пикселей
Высота : 528 пикселей
Соотношение сторон : 2,40:1
Режим частоты кадров : Постоянный
Частота кадров : 23,976 кадра/сек
Цветовое пространство : YUV
Субдискретизация насыщенности : 4:2:0
Битовая глубина : 10 бит
Тип развёртки : Прогрессивная
Бит/(Пиксели*Кадры) : 0.171
Размер потока : 2,45 Гбайт (44%)
Заголовок : MPEG-4 AVC/H.264, 1280x528(2,40:1), 23,976fps, 2769 Кbps, 0.171bit/pixel
Библиотека кодирования : x264 core 133 r2334 a3ac64b
Настройки программы : cabac=1 / ref=11 / deblock=1:-1:-1 / analyse=0x3:0x133 / me=tesa / subme=10 / psy=1 / psy_rd=1.00:0.15 / mixed_ref=1 / me_range=24 / chroma_me=1 / trellis=2 / 8x8dct=1 / cqm=0 / deadzone=21,11 / fast_pskip=1 / chroma_qp_offset=-3 / threads=12 / lookahead_threads=1 / sliced_threads=0 / nr=0 / decimate=1 / interlaced=0 / bluray_compat=0 / constrained_intra=0 / bframes=6 / b_pyramid=2 / b_adapt=2 / b_bias=0 / direct=3 / weightb=1 / open_gop=0 / weightp=2 / keyint=250 / keyint_min=23 / scenecut=40 / intra_refresh=0 / rc_lookahead=60 / rc=crf / mbtree=1 / crf=18.0 / qcomp=0.60 / qpmin=0 / qpmax=81 / qpstep=4 / ip_ratio=1.40 / aq=1:1.00
Язык : English
Default : Да
Forced : Нет

Аудио #1
Идентификатор : 2
Формат : AC-3
Формат/Информация : Audio Coding 3
Расширение режима : CM (complete main)
Параметр Endianness формата : Big
Идентификатор кодека : A_AC3
Продолжительность : 2 ч. 9 м.
Вид битрейта : Постоянный
Битрейт : 448 Кбит/сек
Каналы : 6 каналов
Расположение каналов : Front: L C R, Side: L R, LFE
Частота : 48,0 КГц
Битовая глубина : 16 бит
Метод сжатия : С потерями
Размер потока : 414 Мбайт (7%)
Заголовок : DUB Russian, AC3, 6ch, 48 kHz, 448 kbps, (Дубляж)
Язык : Russian
Default : Да
Forced : Нет

Аудио #2 - Отдельным файлом
Идентификатор : 3
Формат : AC-3
Формат/Информация : Audio Coding 3
Расширение режима : CM (complete main)
Параметр Endianness формата : Big
Идентификатор кодека : A_AC3
Продолжительность : 2 ч. 9 м.
Вид битрейта : Постоянный
Битрейт : 448 Кбит/сек
Каналы : 6 каналов
Расположение каналов : Front: L C R, Side: L R, LFE
Частота : 48,0 КГц
Битовая глубина : 16 бит
Метод сжатия : С потерями
Размер потока : 414 Мбайт (7%)
Заголовок : MVO Russian, AC3, 6ch, 48 kHz, 448 kbps, (Многоголосый) - Отдельным файлом
Язык : Russian
Default : Нет
Forced : Нет

Аудио #3 - Отдельным файлом
Идентификатор : 4
Формат : AC-3
Формат/Информация : Audio Coding 3
Расширение режима : CM (complete main)
Параметр Endianness формата : Big
Идентификатор кодека : A_AC3
Продолжительность : 2 ч. 9 м.
Вид битрейта : Постоянный
Битрейт : 448 Кбит/сек
Каналы : 6 каналов
Расположение каналов : Front: L C R, Side: L R, LFE
Частота : 48,0 КГц
Битовая глубина : 16 бит
Метод сжатия : С потерями
Размер потока : 414 Мбайт (7%)
Заголовок : DVO Russian, AC3, 6ch, 48 kHz, 448 kbps, (Двухголосый - Гланц и Королёва) - Отдельным файлом
Язык : Russian
Default : Нет
Forced : Нет

Аудио #4 - Отдельным файлом
Идентификатор : 5
Формат : AC-3
Формат/Информация : Audio Coding 3
Расширение режима : CM (complete main)
Параметр Endianness формата : Big
Идентификатор кодека : A_AC3
Продолжительность : 2 ч. 9 м.
Вид битрейта : Постоянный
Битрейт : 448 Кбит/сек
Каналы : 6 каналов
Расположение каналов : Front: L C R, Side: L R, LFE
Частота : 48,0 КГц
Битовая глубина : 16 бит
Метод сжатия : С потерями
Размер потока : 414 Мбайт (7%)
Заголовок : AVO Russian, AC3, 6ch, 48 kHz, 448 kbps, (Одноголосый - Гаврилов) - Отдельным файлом
Язык : Russian
Default : Нет
Forced : Нет

Аудио #5 - Отдельным файлом
Идентификатор : 6
Формат : AC-3
Формат/Информация : Audio Coding 3
Расширение режима : CM (complete main)
Параметр Endianness формата : Big
Идентификатор кодека : A_AC3
Продолжительность : 2 ч. 9 м.
Вид битрейта : Постоянный
Битрейт : 448 Кбит/сек
Каналы : 6 каналов
Расположение каналов : Front: L C R, Side: L R, LFE
Частота : 48,0 КГц
Битовая глубина : 16 бит
Метод сжатия : С потерями
Размер потока : 414 Мбайт (7%)
Заголовок : AVO Russian, AC3, 6ch, 48 kHz, 448 kbps, (Одноголосый - Живов) - Отдельным файлом
Язык : Russian
Default : Нет
Forced : Нет

Аудио #6 - Отдельным файлом
Идентификатор : 7
Формат : AC-3
Формат/Информация : Audio Coding 3
Расширение режима : CM (complete main)
Параметр Endianness формата : Big
Идентификатор кодека : A_AC3
Продолжительность : 2 ч. 9 м.
Вид битрейта : Постоянный
Битрейт : 384 Кбит/сек
Каналы : 6 каналов
Расположение каналов : Front: L C R, Side: L R, LFE
Частота : 48,0 КГц
Битовая глубина : 16 бит
Метод сжатия : С потерями
Размер потока : 355 Мбайт (6%)
Заголовок : MVO Ukranian, AC3, 6ch, 48 kHz, 384 kbps, (Многоголосый) - Отдельным файлом
Язык : Ukrainian
Default : Нет
Forced : Нет

Аудио #7 - Отдельным файлом
Идентификатор : 8
Формат : AC-3
Формат/Информация : Audio Coding 3
Расширение режима : CM (complete main)
Параметр Endianness формата : Big
Идентификатор кодека : A_AC3
Продолжительность : 2 ч. 9 м.
Вид битрейта : Постоянный
Битрейт : 448 Кбит/сек
Каналы : 6 каналов
Расположение каналов : Front: L C R, Side: L R, LFE
Частота : 48,0 КГц
Битовая глубина : 16 бит
Метод сжатия : С потерями
Размер потока : 414 Мбайт (7%)
Заголовок : English, AC3, 6ch, 48 kHz, 448 kbps, (Оригинал) - Отдельным файлом
Язык : English
Default : Нет
Forced : Нет

Аудио #8 - Отдельным файлом
Идентификатор : 9
Формат : AC-3
Формат/Информация : Audio Coding 3
Расширение режима : CM (complete main)
Параметр Endianness формата : Big
Идентификатор кодека : A_AC3
Продолжительность : 2 ч. 9 м.
Вид битрейта : Постоянный
Битрейт : 128 Кбит/сек
Каналы : 2 канала
Расположение каналов : Front: L R
Частота : 48,0 КГц
Битовая глубина : 16 бит
Метод сжатия : С потерями
Размер потока : 118 Мбайт (2%)
Заголовок : English, AC3, 2ch, 48 kHz, 128 kbps, (Commentary 1) - Отдельным файлом
Язык : English
Default : Нет
Forced : Нет

Аудио #9 - Отдельным файлом
Идентификатор : 10
Формат : AC-3
Формат/Информация : Audio Coding 3
Расширение режима : CM (complete main)
Параметр Endianness формата : Big
Идентификатор кодека : A_AC3
Продолжительность : 2 ч. 9 м.
Вид битрейта : Постоянный
Битрейт : 128 Кбит/сек
Каналы : 2 канала
Расположение каналов : Front: L R
Частота : 48,0 КГц
Битовая глубина : 16 бит
Метод сжатия : С потерями
Размер потока : 118 Мбайт (2%)
Заголовок : English, AC3, 2ch, 48 kHz, 128 kbps, (Commentary 2) - Отдельным файлом
Язык : English
Default : Нет
Forced : Нет

Текст #1
Идентификатор : 11
Формат : PGS
Режим смешивания : zlib
Идентификатор кодека : S_HDMV/PGS
Идентификатор кодека/Информация : The same subtitle format used on BDs/HD-DVDs
Язык : Russian
Default : Нет
Forced : Нет

Текст #2
Идентификатор : 12
Формат : PGS
Режим смешивания : zlib
Идентификатор кодека : S_HDMV/PGS
Идентификатор кодека/Информация : The same subtitle format used on BDs/HD-DVDs
Язык : Russian
Default : Нет
Forced : Нет

Текст #3
Идентификатор : 13
Формат : UTF-8
Идентификатор кодека : S_TEXT/UTF8
Идентификатор кодека/Информация : UTF-8 Plain Text
Язык : Ukrainian
Default : Нет
Forced : Нет

Текст #4
Идентификатор : 14
Формат : PGS
Режим смешивания : zlib
Идентификатор кодека : S_HDMV/PGS
Идентификатор кодека/Информация : The same subtitle format used on BDs/HD-DVDs
Язык : English
Default : Нет
Forced : Нет

Текст #5
Идентификатор : 15
Формат : PGS
Режим смешивания : zlib
Идентификатор кодека : S_HDMV/PGS
Идентификатор кодека/Информация : The same subtitle format used on BDs/HD-DVDs
Язык : English
Default : Нет
Forced : Нет

Меню
00:00:00.000 : :Chapter 01
00:03:54.984 : :Chapter 02
00:07:32.034 : :Chapter 03
00:10:19.535 : :Chapter 04
00:14:43.883 : :Chapter 05
00:17:58.743 : :Chapter 06
00:23:33.244 : :Chapter 07
00:30:06.304 : :Chapter 08
00:35:35.632 : :Chapter 09
00:39:34.205 : :Chapter 10
00:42:58.576 : :Chapter 11
00:46:42.549 : :Chapter 12
00:49:01.688 : :Chapter 13
00:51:52.901 : :Chapter 14
00:58:00.476 : :Chapter 15
01:00:18.448 : :Chapter 16
01:02:29.746 : :Chapter 17
01:08:00.910 : :Chapter 18
01:10:29.225 : :Chapter 19
01:14:33.218 : :Chapter 20
01:18:23.365 : :Chapter 21
01:23:08.984 : :Chapter 22
01:25:54.816 : :Chapter 23
01:29:13.347 : :Chapter 24
01:31:51.506 : :Chapter 25
01:36:50.638 : :Chapter 26
01:41:55.067 : :Chapter 27
01:44:53.120 : :Chapter 28
01:48:06.396 : :Chapter 29
01:51:30.684 : :Chapter 30
01:55:05.899 : :Chapter 31
01:57:30.710 : :Chapter 32
02:00:11.787 : :Chapter 33
Скриншоты:

Примечание: Рип в High 10 Profile, в настоящее время не поддерживается большинством аппаратных проигрывателей, поэтому предназначен исключительно для воспроизведения на ПК. Для корректного воспроизведения может потребоваться обновление ПО.

Матрица, Матрица: Перезагрузка, Матрица: Революция на NNM-club

Время раздачи: 24/7 (жду до 10-15 скачавших а дальше могу уйти с радачи)
[NNM-Club.me]_Matritsa - Trilogiya (1999-2003) HDDVDRip-AVC.torrent
 Торрент: Платиновая раздача  Зарегистрирован
 
Скачать


Примагнититься
 Зарегистрирован:   24 Дек 2013 17:00:06
 Размер:   19.3 GB  (
 Рейтинг:   4.8 (Голосов: 141)
 Поблагодарили:   402
 Проверка:   Оформление проверено модератором 25 Дек 2013 10:28:51
Как cкачать  ·  Как раздать  ·  Правильно оформить  ·  Поднять ратио!  
lolik2707
Стаж: 10 лет 3 мес.
Сообщений: 119
Ratio: 160.817
Поблагодарили: 682
100%
ukraine.gif
спасибо, один из любимых фильмов
Knazev
Стаж: 12 лет 4 мес.
Сообщений: 91
Ratio: 2.508
Раздал: 868 GB
100%
офигенно низкое качество видео!! DEL
get81
Стаж: 14 лет 2 мес.
Сообщений: 11
Ratio: 7.382
34.69%
Самсунги не поддерживают.
sinteros ®
Стаж: 15 лет 2 мес.
Сообщений: 562
Ratio: 65.893
Поблагодарили: 62268
100%
Knazev писал(а): Перейти к сообщению
офигенно низкое качество видео!! DEL

Похоже вы ошиблись разделом на трекере. Вам туда где раздают BDRemux и Blu-ray.
FoxWeld
Стаж: 12 лет 3 мес.
Сообщений: 58
Ratio: 21.484
Поблагодарили: 1845
100%
ussr.gif
sinteros писал(а): Перейти к сообщению
Knazev писал(а): Перейти к сообщению
офигенно низкое качество видео!! DEL

Похоже вы ошиблись разделом на трекере. Вам туда где раздают BDRemux и Blu-ray.

Нет, человек не ошибся :подмигивание:
Качество убогое:
Видео: MPEG-4 AVC/H.264, 1280x528(2,40:1), 23,976fps, 2242 Кbps, 0.138bit/pixel
Этим все сказано :да:

_________________
sinteros ®
Стаж: 15 лет 2 мес.
Сообщений: 562
Ratio: 65.893
Поблагодарили: 62268
100%
FoxWeld писал(а): Перейти к сообщению
sinteros писал(а): Перейти к сообщению
Knazev писал(а): Перейти к сообщению
офигенно низкое качество видео!! DEL

Похоже вы ошиблись разделом на трекере. Вам туда где раздают BDRemux и Blu-ray.

Нет, человек не ошибся :подмигивание:
Качество убогое:
Видео: MPEG-4 AVC/H.264, 1280x528(2,40:1), 23,976fps, 2242 Кbps, 0.138bit/pixel
Этим все сказано :да:


Хотел отписаться обо всем этом но пожалуй не буду. Остается только посмеяться и не читать некоторые коментарии.
FoxWeld
Стаж: 12 лет 3 мес.
Сообщений: 58
Ratio: 21.484
Поблагодарили: 1845
100%
ussr.gif
sinteros писал(а): Перейти к сообщению
FoxWeld писал(а): Перейти к сообщению
sinteros писал(а): Перейти к сообщению
Knazev писал(а): Перейти к сообщению
офигенно низкое качество видео!! DEL

Похоже вы ошиблись разделом на трекере. Вам туда где раздают BDRemux и Blu-ray.

Нет, человек не ошибся :подмигивание:
Качество убогое:
Видео: MPEG-4 AVC/H.264, 1280x528(2,40:1), 23,976fps, 2242 Кbps, 0.138bit/pixel
Этим все сказано :да:


Хотел отписаться обо всем этом но пожалуй не буду. Остается только посмеяться и не читать некоторые коментарии.
Правильно, не стоит :да:
Просто напишите реальную ошибку аспектов, и, каким образом Вы умудрились уложить картинку в 2500.

Добавлено спустя 1 час 20 минут 24 секунды:

Звук чем убивали? Предположу, Хвидом?
http://screenshotcomparison.com/comparison/83101
Видео тоже сравню, исходник на руках :) Или не стоит?
Все-таки сравнил:
http://screenshotcomparison.com/comparison/83344
Тихий ужас
Совет: Перестаньте издеваться над фильмами.

_________________
sinteros ®
Стаж: 15 лет 2 мес.
Сообщений: 562
Ratio: 65.893
Поблагодарили: 62268
100%
FoxWeld писал(а): Перейти к сообщению

Звук чем убивали? Предположу, Хвидом?
http://screenshotcomparison.com/comparison/83101
Видео тоже сравню, исходник на руках :) Или не стоит?
Все-таки сравнил:
http://screenshotcomparison.com/comparison/83344
Тихий ужас
Совет: Перестаньте издеваться над фильмами.


По поводу дорожек дак частично я кодирую их сам а частично беру из других релизов дабы не тратить время. Кто кодировал данную дорожку которую вы сравнили просто не помню.

Видео тут разговор отдельный. Вполне возможно немного переборщил с шарпингом а может исходники у нас разные. Ибо в интернете их несколько.

И не пойму что вы так возбудились. Даже сделали рип в доказательство своей правоты и постеры мои взяли.
Такое впечатление что на ру трекере все такие обозленные. Уже несколько раз довелось пообщаться с релизерами того трекера.
Один насколько помню очень сильно расстроился что у меня получилось сделать фильм лучше чем у него и началась прям истерика.
Потом чувствовал как-то себя не уютно. Как будто у ребенка конфетку отобрал.

Мой рип немного проигрывает на некорых сценах перед а вашим. Но выигрывает по остальным.
http://screenshotcomparison.com/comparison/83854/picture:0

Все на этом пожалуй нашу беседу следует завершить а то кто его знает чем все закончится. Приятно было пообщаться. Спасибо за ваши комментарии. Они пойдут мне на пользу.
FoxWeld
Стаж: 12 лет 3 мес.
Сообщений: 58
Ratio: 21.484
Поблагодарили: 1845
100%
ussr.gif
Исходника два всего, в доступе свободном. БД и ХДДВД. Трансферы видео одинаковые в обоих вариантах.

sinteros писал(а): Перейти к сообщению
Мой рип немного проигрывает на некорых сценах перед а вашим. Но выигрывает по остальным.

На будущее :)
Если хотите серьезно сравнить качество, выбирайте одинаковые фреймы. Для того, чтобы обосновать свои доводы, используйте функцию ОСД, которая включается в настройках ffdshow
ЗЫ:
sinteros писал(а): Перейти к сообщению
Даже сделали рип в доказательство своей правоты и постеры мои взяли.

Рип я сделал только потому, что не нашел ничего стоящего :подмигивание: В Вашем варианте рипа, ошибка аспектов катастрофически недопустимая, плюс глобальная нехватка битрейта. Для обоснования качества своего рипа, я делал сравнение с исходной картинкой, которую Вы наверняка смотрели. Вам тоже рекомендую сравнивать с исходником свои творения, дабы избежать такие, как сейчас, разговоры. Для сравнения берите пи, би фреймы, тогда Вас поймут.
Постеры стянул с Вашей раздачи, за это отдельно сапибо :да:

_________________
Топик был перенесен из форума Зарубежные Фильмы (HD*Rip/LQ, DVDRip, SATRip, VHSRip) в форум Архив Видео

Причина переноса: http://nnmclub.to/forum/viewtopic.php?t=821762
ra3wa
Показать сообщения:   
Начать новую тему   Ответить на тему    Торрент-трекер NNM-Club -> Архив торрентов -> Архив Видео. Кино, Театра Часовой пояс: GMT + 3
Страница 1 из 1