Классический форум-трекер
canvas not supported
Нас вместе: 4 232 305

Матрица: Трилогия / The Matrix: Trilogy (1999-2003) HDDVDRip [H.264/1080p-LQ] [10-bit]


 
 
RSS
Начать новую тему   Ответить на тему    Торрент-трекер NNM-Club -> Коллекции / *логии -> Зарубежное кино (коллекции / *логии)
Автор Сообщение
sinteros ®
Стаж: 15 лет 2 мес.
Сообщений: 562
Ratio: 65.893
Поблагодарили: 62257
100%
Матрица: Трилогия / The Matrix: Trilogy (1999-2003)
HDDVDRip [H.264/1080p-LQ] [Hi10P]



Производство: США
Жанр: Фантастика, Боевик, Приключения
Продолжительность: 02:17:05, 02:18:17, 02:09:15
Перевод: Дублированный, Многоголосый, Двухголосый, Авторский, Любительский
Режиссер: Энди Вачовски, Ларри Вачовски
Актеры: Киану Ривз, Лоуренс Фишборн, Кэрри-Энн Мосс, Моника Беллуччи, Хьюго Уивинг, Глория Фостер, Джо Пантолиано, Маркус Чонг, Джулиан Араханга, Мэтт Доран, Белинда МакКлори, Энтони Рэй Паркер, Пол Годдар, Роберт Тейлор, Дэвид Эстон, Марк Грэй, Ада Никодему, Денни Гордон, Роуэн Уитт, Эленор Уитт, Тамара Браун, Яная Пендер, Джада Пинкетт Смит, Рэй Энтони, Кристин Ану, Энди Арнесс,Алима Эштон-Шейбу, Гельмут Бакаитис, Стив Бастони, Дон Бейти, Дэниэл Бернхард, Валери Берри, Йен Блисс, Лилиана Богатко, Майкл Бадд, Стоуни Бурк, Келли Батлер, Мэри Элис, Танвир К. Атвал, Кейт Бихан, Френсин Белл, Рэйчел Блэкман, Генри Блейсингейм, Дэвид Бауэрс, Зик Кастелли, Колин Чоу, Эсси Дэвис, Нона М. Гайе, Дион Хорстман, Лейчи Халм, Кристофер Кирби
Описание фильма: Мир Матрицы - это иллюзия, существующая только в бесконечном сне обреченного человечества. Холодный мир будущего, в котором люди - всего лишь батарейки в компьютерных системах.
<<<<< >>>>>
Вся Трилогия весит 15,8гб с учетом одной звуковой дорожки на каждый MKV контейнер!
Аниматрица / The Animatrix (2003) HDDVDRip [H.264/720p-LQ] [Hi10P]
Матрица: Трилогия / The Matrix: Trilogy (1999-2003) HDDVDRip [H.264/720p-LQ] [Hi10P]
Матрица / The Matrix (1999) HDDVDRip [H.264/1080-LQ] [Hi10P]
Год выпуска: 1999
Производство: США, Австралия
Жанр: Фантастика, Боевик, Приключения
Перевoд: Дублированный, Многоголосый x2, Двухголосый, Авторский x9, Любительский x2
Оригинальная аудиодорожка: Английская + Коментарии x3
Язык субтитров: Русский x3, Украинский, Английский x2
Вид субтитров: Вшитые

Режиссeр: Энди Вачовски, Ларри Вачовски

В рoлях: Киану Ривз, Лоуренс Фишборн, Кэрри-Энн Мосс, Хьюго Уивинг, Глория Фостер, Джо Пантолиано, Маркус Чонг, Джулиан Араханга, Мэтт Доран, Белинда МакКлори, Энтони Рэй Паркер, Пол Годдар, Роберт Тейлор, Дэвид Эстон, Марк Грэй, Ада Никодему, Денни Гордон, Роуэн Уитт, Эленор Уитт, Тамара Браун, Яная Пендер

Описаниe: Жизнь Томаса Андерсона разделена на две части: днём он самый обычный офисный работник, получающий нагоняи от начальства, а ночью превращается в хакера по имени Нео, и нет места в сети, куда он не смог бы дотянуться. Но однажды всё меняется — герой, сам того не желая, узнаёт страшную правду: всё, что его окружает — не более, чем иллюзия, Матрица, а люди — всего лишь источник питания для искусственного интеллекта, поработившего человечество. И только Нео под силу изменить расстановку сил в этом ставшем вдруг чужом и страшном мире.



Продолжительнoсть: 02:17:05
Качество: HDDVDRip
Формат: MKV

Видео: MPEG-4 AVC/H.264, 1920x798(2,40:1), 23,976fps, 5384 Кbps, 0.147bit/pixel
Аудио 1: DUB Russian, AC3, 6ch, 48 kHz, 448 kbps, (Дубляж)
Аудио 2: MVO Russian, AC3, 6ch, 48 kHz, 448 kbps, (Многоголосый) - Отдельным файлом
Аудио 3: MVO Russian, AC3, 2ch, 48 kHz, 192 kbps, (Многоголосый - НТВ&РТР) - Отдельным файлом
Аудио 4: DVO Russian, AC3, 6ch, 48 kHz, 448 kbps, (Двухголосый - Гланц и Королёва) - Отдельным файлом
Аудио 5: DVO Russian, AC3, 2ch, 48 kHz, 192 kbps, (Двухголосый - TV1000) - Отдельным файлом
Аудио 6: AVO Russian, AC3, 6ch, 48 kHz, 448 kbps, (Одноголосый - Гоблин) - Отдельным файлом
Аудио 7: AVO Russian, AC3, 6ch, 48 kHz, 448 kbps, (Одноголосый - Гоблин шутливый перевод) - Отдельным файлом
Аудио 8: AVO Russian, AC3, 6ch, 48 kHz, 448 kbps, (Одноголосый - Гаврилов) - Отдельным файлом
Аудио 9: AVO Russian, AC3, 6ch, 48 kHz, 448 kbps, (Одноголосый - Живов) - Отдельным файлом
Аудио 10: AVO Russian, AC3, 2ch, 48 kHz, 192 kbps, (Одноголосый - Визгунов) - Отдельным файлом
Аудио 11: AVO Russian, AC3, 2ch, 48 kHz, 192 kbps, (Одноголосый - Дольский поздний) - Отдельным файлом
Аудио 12: AVO Russian, AC3, 1ch, 48 kHz, 128 kbps, (Одноголосый - Дольский ранний) - Отдельным файлом
Аудио 13: AVO Russian, AC3, 6ch, 48 kHz, 448 kbps, (Одноголосый - Диктор CDV) - Отдельным файлом
Аудио 14: AVO Russian, AC3, 2ch, 48 kHz, 192 kbps, (Одноголосый - Кашкин) - Отдельным файлом
Аудио 15: VO Russian, AC3, 6ch, 48 kHz, 384 kbps, (Одноголосый - Нурмухаметов поздний) - Отдельным файлом
Аудио 16: VO Russian, AC3, 6ch, 48 kHz, 384 kbps, (Одноголосый - Нурмухаметов ранний) - Отдельным файлом
Аудио 17: MVO Ukranian, AC3, 6ch, 48 kHz, 384 kbps, (Многоголосый - 1+1) - Отдельным файлом
Аудио 18: English, AC3, 6ch, 48 kHz, 448 kbps, (Оригинал) - Отдельным файлом
Аудио 19: English, AC3, 2ch, 48 kHz, 128 kbps, (Commentary 1) - Отдельным файлом
Аудио 20: English, AC3, 2ch, 48 kHz, 128 kbps, (Commentary 2) - Отдельным файлом
Аудио 21: English, AC3, 2ch, 48 kHz, 128 kbps, (Commentary 3) - Отдельным файлом
Общее
Полное имя : Матрица 1 (1999) HDDVDRip-AVC 1080p.mkv
Формат : Matroska
Версия формата : Version 4 / Version 2
Размер файла : 11,9 Гбайт
Продолжительность : 2 ч. 17 м.
Общий поток : 12,4 Мбит/сек
Название фильма : Матрица / The Matrix (1999) HDDVDRip-AVC 1080p (Sinteros)
Attachment : Yes

Видео
Идентификатор : 1
Формат : AVC
Формат/Информация : Advanced Video Codec
Профиль формата : High 10@L4.1
Параметр CABAC формата : Да
Параметр ReFrames формата : 11 кадров
Идентификатор кодека : V_MPEG4/ISO/AVC
Продолжительность : 2 ч. 17 м.
Битрейт : 5384 Кбит/сек
Ширина : 1920 пикселей
Высота : 798 пикселей
Соотношение сторон : 2,40:1
Режим частоты кадров : Постоянный
Частота кадров : 23,976 кадра/сек
Цветовое пространство : YUV
Субдискретизация насыщенности : 4:2:0
Битовая глубина : 10 бит
Тип развёртки : Прогрессивная
Бит/(Пиксели*Кадры) : 0.147
Размер потока : 4,96 Гбайт (42%)
Заголовок : MPEG-4 AVC/H.264, 1920x798(2,40:1), 23,976fps, 5384 Кbps, 0.147bit/pixel
Библиотека кодирования : x264 core 133 r2334 a3ac64b
Настройки программы : cabac=1 / ref=11 / deblock=1:-1:-1 / analyse=0x3:0x133 / me=tesa / subme=9 / psy=1 / psy_rd=1.00:0.00 / mixed_ref=1 / me_range=24 / chroma_me=1 / trellis=0 / 8x8dct=1 / cqm=0 / deadzone=21,11 / fast_pskip=1 / chroma_qp_offset=-2 / threads=4 / lookahead_threads=1 / sliced_threads=0 / nr=0 / decimate=1 / interlaced=0 / bluray_compat=0 / constrained_intra=0 / bframes=6 / b_pyramid=2 / b_adapt=2 / b_bias=0 / direct=1 / weightb=1 / open_gop=0 / weightp=2 / keyint=250 / keyint_min=50 / scenecut=40 / intra_refresh=0 / rc_lookahead=50 / rc=crf / mbtree=1 / crf=21.0 / qcomp=0.60 / qpmin=1 / qpmax=51 / qpstep=11 / ip_ratio=1.40 / aq=1:0.90
Язык : English
Default : Да
Forced : Нет

Аудио #1
Идентификатор : 2
Формат : AC-3
Формат/Информация : Audio Coding 3
Расширение режима : CM (complete main)
Параметр Endianness формата : Big
Идентификатор кодека : A_AC3
Продолжительность : 2 ч. 17 м.
Вид битрейта : Постоянный
Битрейт : 448 Кбит/сек
Каналы : 6 каналов
Расположение каналов : Front: L C R, Side: L R, LFE
Частота : 48,0 КГц
Битовая глубина : 16 бит
Метод сжатия : С потерями
Размер потока : 439 Мбайт (4%)
Заголовок : DUB Russian, AC3, 6ch, 48 kHz, 448 kbps, (Дубляж)
Язык : Russian
Default : Нет
Forced : Нет

Аудио #2 - Отдельным файлом
Идентификатор : 3
Формат : AC-3
Формат/Информация : Audio Coding 3
Расширение режима : CM (complete main)
Параметр Endianness формата : Big
Идентификатор кодека : A_AC3
Продолжительность : 2 ч. 17 м.
Вид битрейта : Постоянный
Битрейт : 448 Кбит/сек
Каналы : 6 каналов
Расположение каналов : Front: L C R, Side: L R, LFE
Частота : 48,0 КГц
Битовая глубина : 16 бит
Метод сжатия : С потерями
Размер потока : 439 Мбайт (4%)
Заголовок : MVO Russian, AC3, 6ch, 48 kHz, 448 kbps, (Многоголосый) - Отдельным файлом
Язык : Russian
Default : Нет
Forced : Нет

Аудио #3 - Отдельным файлом
Идентификатор : 4
Формат : AC-3
Формат/Информация : Audio Coding 3
Расширение режима : CM (complete main)
Параметр Endianness формата : Big
Идентификатор кодека : A_AC3
Продолжительность : 2 ч. 17 м.
Вид битрейта : Постоянный
Битрейт : 192 Кбит/сек
Каналы : 2 канала
Расположение каналов : Front: L R
Частота : 48,0 КГц
Битовая глубина : 16 бит
Метод сжатия : С потерями
Размер потока : 188 Мбайт (2%)
Заголовок : MVO Russian, AC3, 2ch, 48 kHz, 192 kbps, (Многоголосый - НТВ&РТР) - Отдельным файлом
Язык : Russian
Default : Нет
Forced : Нет

Аудио #4 - Отдельным файлом
Идентификатор : 5
Формат : AC-3
Формат/Информация : Audio Coding 3
Расширение режима : CM (complete main)
Параметр Endianness формата : Big
Идентификатор кодека : A_AC3
Продолжительность : 2 ч. 17 м.
Вид битрейта : Постоянный
Битрейт : 448 Кбит/сек
Каналы : 6 каналов
Расположение каналов : Front: L C R, Side: L R, LFE
Частота : 48,0 КГц
Битовая глубина : 16 бит
Метод сжатия : С потерями
Размер потока : 439 Мбайт (4%)
Заголовок : DVO Russian, AC3, 6ch, 48 kHz, 448 kbps, (Двухголосый - Гланц и Королёва) - Отдельным файлом
Язык : Russian
Default : Нет
Forced : Нет

Аудио #5 - Отдельным файлом
Идентификатор : 6
Формат : AC-3
Формат/Информация : Audio Coding 3
Расширение режима : CM (complete main)
Параметр Endianness формата : Big
Идентификатор кодека : A_AC3
Продолжительность : 2 ч. 17 м.
Вид битрейта : Постоянный
Битрейт : 192 Кбит/сек
Каналы : 2 канала
Расположение каналов : Front: L R
Частота : 48,0 КГц
Битовая глубина : 16 бит
Метод сжатия : С потерями
Размер потока : 188 Мбайт (2%)
Заголовок : DVO Russian, AC3, 2ch, 48 kHz, 192 kbps, (Двухголосый - TV1000) - Отдельным файлом
Язык : Russian
Default : Да
Forced : Нет

Аудио #6 - Отдельным файлом
Идентификатор : 7
Формат : AC-3
Формат/Информация : Audio Coding 3
Расширение режима : CM (complete main)
Параметр Endianness формата : Big
Идентификатор кодека : A_AC3
Продолжительность : 2 ч. 17 м.
Вид битрейта : Постоянный
Битрейт : 448 Кбит/сек
Каналы : 6 каналов
Расположение каналов : Front: L C R, Side: L R, LFE
Частота : 48,0 КГц
Битовая глубина : 16 бит
Метод сжатия : С потерями
Размер потока : 439 Мбайт (4%)
Заголовок : AVO Russian, AC3, 6ch, 48 kHz, 448 kbps, (Одноголосый - Гоблин) - Отдельным файлом
Язык : Russian
Default : Нет
Forced : Нет

Аудио #7 - Отдельным файлом
Идентификатор : 8
Формат : AC-3
Формат/Информация : Audio Coding 3
Расширение режима : CM (complete main)
Параметр Endianness формата : Big
Идентификатор кодека : A_AC3
Продолжительность : 2 ч. 17 м.
Вид битрейта : Постоянный
Битрейт : 448 Кбит/сек
Каналы : 6 каналов
Расположение каналов : Front: L C R, Side: L R, LFE
Частота : 48,0 КГц
Битовая глубина : 16 бит
Метод сжатия : С потерями
Размер потока : 439 Мбайт (4%)
Заголовок : AVO Russian, AC3, 6ch, 48 kHz, 448 kbps, (Одноголосый - Гоблин шутливый перевод) - Отдельным файлом
Язык : Russian
Default : Нет
Forced : Нет

Аудио #8 - Отдельным файлом
Идентификатор : 9
Формат : AC-3
Формат/Информация : Audio Coding 3
Расширение режима : CM (complete main)
Параметр Endianness формата : Big
Идентификатор кодека : A_AC3
Продолжительность : 2 ч. 17 м.
Вид битрейта : Постоянный
Битрейт : 448 Кбит/сек
Каналы : 6 каналов
Расположение каналов : Front: L C R, Side: L R, LFE
Частота : 48,0 КГц
Битовая глубина : 16 бит
Метод сжатия : С потерями
Размер потока : 439 Мбайт (4%)
Заголовок : AVO Russian, AC3, 6ch, 48 kHz, 448 kbps, (Одноголосый - Гаврилов) - Отдельным файлом
Язык : Russian
Default : Нет
Forced : Нет

Аудио #9 - Отдельным файлом
Идентификатор : 10
Формат : AC-3
Формат/Информация : Audio Coding 3
Расширение режима : CM (complete main)
Параметр Endianness формата : Big
Идентификатор кодека : A_AC3
Продолжительность : 2 ч. 17 м.
Вид битрейта : Постоянный
Битрейт : 448 Кбит/сек
Каналы : 6 каналов
Расположение каналов : Front: L C R, Side: L R, LFE
Частота : 48,0 КГц
Битовая глубина : 16 бит
Метод сжатия : С потерями
Размер потока : 439 Мбайт (4%)
Заголовок : AVO Russian, AC3, 6ch, 48 kHz, 448 kbps, (Одноголосый - Живов) - Отдельным файлом
Язык : Russian
Default : Нет
Forced : Нет

Аудио #10 - Отдельным файлом
Идентификатор : 11
Формат : AC-3
Формат/Информация : Audio Coding 3
Расширение режима : CM (complete main)
Параметр Endianness формата : Big
Идентификатор кодека : A_AC3
Продолжительность : 2 ч. 17 м.
Вид битрейта : Постоянный
Битрейт : 192 Кбит/сек
Каналы : 2 канала
Расположение каналов : Front: L R
Частота : 48,0 КГц
Битовая глубина : 16 бит
Метод сжатия : С потерями
Размер потока : 188 Мбайт (2%)
Заголовок : AVO Russian, AC3, 2ch, 48 kHz, 192 kbps, (Одноголосый - Визгунов) - Отдельным файлом
Язык : Russian
Default : Нет
Forced : Нет

Аудио #11 - Отдельным файлом
Идентификатор : 12
Формат : AC-3
Формат/Информация : Audio Coding 3
Расширение режима : CM (complete main)
Параметр Endianness формата : Big
Идентификатор кодека : A_AC3
Продолжительность : 2 ч. 17 м.
Вид битрейта : Постоянный
Битрейт : 192 Кбит/сек
Каналы : 2 канала
Расположение каналов : Front: L R
Частота : 48,0 КГц
Битовая глубина : 16 бит
Метод сжатия : С потерями
Размер потока : 188 Мбайт (2%)
Заголовок : AVO Russian, AC3, 2ch, 48 kHz, 192 kbps, (Одноголосый - Дольский поздний) - Отдельным файлом
Язык : Russian
Default : Нет
Forced : Нет

Аудио #12 - Отдельным файлом
Идентификатор : 13
Формат : AC-3
Формат/Информация : Audio Coding 3
Расширение режима : CM (complete main)
Параметр Endianness формата : Big
Идентификатор кодека : A_AC3
Продолжительность : 2 ч. 17 м.
Вид битрейта : Постоянный
Битрейт : 192 Кбит/сек
Каналы : 1 канал
Расположение каналов : Front: C
Частота : 48,0 КГц
Битовая глубина : 16 бит
Метод сжатия : С потерями
Размер потока : 188 Мбайт (2%)
Заголовок : AVO Russian, AC3, 1ch, 48 kHz, 128 kbps, (Одноголосый - Дольский ранний) - Отдельным файлом
Язык : Russian
Default : Нет
Forced : Нет

Аудио #13 - Отдельным файлом
Идентификатор : 14
Формат : AC-3
Формат/Информация : Audio Coding 3
Расширение режима : CM (complete main)
Параметр Endianness формата : Big
Идентификатор кодека : A_AC3
Продолжительность : 2 ч. 17 м.
Вид битрейта : Постоянный
Битрейт : 448 Кбит/сек
Каналы : 6 каналов
Расположение каналов : Front: L C R, Side: L R, LFE
Частота : 48,0 КГц
Битовая глубина : 16 бит
Метод сжатия : С потерями
Размер потока : 439 Мбайт (4%)
Заголовок : AVO Russian, AC3, 6ch, 48 kHz, 448 kbps, (Одноголосый - Диктор CDV) - Отдельным файлом
Язык : Russian
Default : Нет
Forced : Нет

Аудио #14 - Отдельным файлом
Идентификатор : 15
Формат : AC-3
Формат/Информация : Audio Coding 3
Расширение режима : CM (complete main)
Параметр Endianness формата : Big
Идентификатор кодека : A_AC3
Продолжительность : 2 ч. 17 м.
Вид битрейта : Постоянный
Битрейт : 448 Кбит/сек
Каналы : 2 канала
Расположение каналов : Front: L R
Частота : 48,0 КГц
Битовая глубина : 16 бит
Метод сжатия : С потерями
Размер потока : 439 Мбайт (4%)
Заголовок : AVO Russian, AC3, 2ch, 48 kHz, 192 kbps, (Одноголосый - Кашкин) - Отдельным файлом
Язык : Russian
Default : Нет
Forced : Нет

Аудио #15 - Отдельным файлом
Идентификатор : 16
Формат : AC-3
Формат/Информация : Audio Coding 3
Расширение режима : CM (complete main)
Параметр Endianness формата : Big
Идентификатор кодека : A_AC3
Продолжительность : 2 ч. 17 м.
Вид битрейта : Постоянный
Битрейт : 384 Кбит/сек
Каналы : 6 каналов
Расположение каналов : Front: L C R, Side: L R, LFE
Частота : 48,0 КГц
Битовая глубина : 16 бит
Метод сжатия : С потерями
Размер потока : 377 Мбайт (3%)
Заголовок : VO Russian, AC3, 6ch, 48 kHz, 384 kbps, (Одноголосый - Нурмухаметов поздний) - Отдельным файлом
Язык : Russian
Default : Нет
Forced : Нет

Аудио #16 - Отдельным файлом
Идентификатор : 17
Формат : AC-3
Формат/Информация : Audio Coding 3
Расширение режима : CM (complete main)
Параметр Endianness формата : Big
Идентификатор кодека : A_AC3
Продолжительность : 2 ч. 17 м.
Вид битрейта : Постоянный
Битрейт : 384 Кбит/сек
Каналы : 6 каналов
Расположение каналов : Front: L C R, Side: L R, LFE
Частота : 48,0 КГц
Битовая глубина : 16 бит
Метод сжатия : С потерями
Размер потока : 377 Мбайт (3%)
Заголовок : VO Russian, AC3, 6ch, 48 kHz, 384 kbps, (Одноголосый - Нурмухаметов ранний) - Отдельным файлом
Язык : Russian
Default : Нет
Forced : Нет

Аудио #17 - Отдельным файлом
Идентификатор : 18
Формат : AC-3
Формат/Информация : Audio Coding 3
Расширение режима : CM (complete main)
Параметр Endianness формата : Big
Идентификатор кодека : A_AC3
Продолжительность : 2 ч. 17 м.
Вид битрейта : Постоянный
Битрейт : 384 Кбит/сек
Каналы : 6 каналов
Расположение каналов : Front: L C R, Side: L R, LFE
Частота : 48,0 КГц
Битовая глубина : 16 бит
Метод сжатия : С потерями
Размер потока : 377 Мбайт (3%)
Заголовок : MVO Ukranian, AC3, 6ch, 48 kHz, 384 kbps, (Многоголосый) - Отдельным файлом
Язык : Ukrainian
Default : Нет
Forced : Нет

Аудио #18 - Отдельным файлом
Идентификатор : 19
Формат : AC-3
Формат/Информация : Audio Coding 3
Расширение режима : CM (complete main)
Параметр Endianness формата : Big
Идентификатор кодека : A_AC3
Продолжительность : 2 ч. 17 м.
Вид битрейта : Постоянный
Битрейт : 448 Кбит/сек
Каналы : 6 каналов
Расположение каналов : Front: L C R, Side: L R, LFE
Частота : 48,0 КГц
Битовая глубина : 16 бит
Метод сжатия : С потерями
Размер потока : 439 Мбайт (4%)
Заголовок : English, AC3, 6ch, 48 kHz, 448 kbps, (Оригинал) - Отдельным файлом
Язык : English
Default : Нет
Forced : Нет

Аудио #19 - Отдельным файлом
Идентификатор : 20
Формат : AC-3
Формат/Информация : Audio Coding 3
Расширение режима : CM (complete main)
Параметр Endianness формата : Big
Идентификатор кодека : A_AC3
Продолжительность : 2 ч. 17 м.
Вид битрейта : Постоянный
Битрейт : 128 Кбит/сек
Каналы : 2 канала
Расположение каналов : Front: L R
Частота : 48,0 КГц
Битовая глубина : 16 бит
Метод сжатия : С потерями
Размер потока : 126 Мбайт (1%)
Заголовок : English, AC3, 2ch, 48 kHz, 128 kbps, (Commentary 1) - Отдельным файлом
Язык : English
Default : Нет
Forced : Нет

Аудио #20 - Отдельным файлом
Идентификатор : 21
Формат : AC-3
Формат/Информация : Audio Coding 3
Расширение режима : CM (complete main)
Параметр Endianness формата : Big
Идентификатор кодека : A_AC3
Продолжительность : 2 ч. 17 м.
Вид битрейта : Постоянный
Битрейт : 128 Кбит/сек
Каналы : 2 канала
Расположение каналов : Front: L R
Частота : 48,0 КГц
Битовая глубина : 16 бит
Метод сжатия : С потерями
Размер потока : 126 Мбайт (1%)
Заголовок : English, AC3, 2ch, 48 kHz, 128 kbps, (Commentary 2) - Отдельным файлом
Язык : English
Default : Нет
Forced : Нет

Аудио #21 - Отдельным файлом
Идентификатор : 22
Формат : AC-3
Формат/Информация : Audio Coding 3
Профиль формата : Dolby Digital
Расширение режима : CM (complete main)
Параметр Endianness формата : Big
Идентификатор кодека : A_AC3
Продолжительность : 2 ч. 17 м.
Вид битрейта : Постоянный
Битрейт : 128 Кбит/сек
Каналы : 2 канала
Расположение каналов : Front: L R
Частота : 48,0 КГц
Битовая глубина : 16 бит
Метод сжатия : С потерями
Размер потока : 126 Мбайт (1%)
Заголовок : English, AC3, 2ch, 48 kHz, 128 kbps, (Commentary 3) - Отдельным файлом
Язык : English
Default : Нет
Forced : Нет

Текст #1
Идентификатор : 23
Формат : UTF-8
Идентификатор кодека : S_TEXT/UTF8
Идентификатор кодека/Информация : UTF-8 Plain Text
Заголовок : HD-DVD
Язык : Russian
Default : Нет
Forced : Нет

Текст #2
Идентификатор : 24
Формат : UTF-8
Идентификатор кодека : S_TEXT/UTF8
Идентификатор кодека/Информация : UTF-8 Plain Text
Заголовок : Blu-Ray CEE
Язык : Russian
Default : Нет
Forced : Нет

Текст #3
Идентификатор : 25
Формат : UTF-8
Идентификатор кодека : S_TEXT/UTF8
Идентификатор кодека/Информация : UTF-8 Plain Text
Заголовок : Нурмухаметов (Поздний перевод)
Язык : Russian
Default : Нет
Forced : Нет

Текст #4
Идентификатор : 26
Формат : UTF-8
Идентификатор кодека : S_TEXT/UTF8
Идентификатор кодека/Информация : UTF-8 Plain Text
Язык : Ukrainian
Default : Нет
Forced : Нет

Текст #5
Идентификатор : 27
Формат : UTF-8
Идентификатор кодека : S_TEXT/UTF8
Идентификатор кодека/Информация : UTF-8 Plain Text
Заголовок : HD-DVD
Язык : English
Default : Нет
Forced : Нет

Текст #6
Идентификатор : 28
Формат : UTF-8
Идентификатор кодека : S_TEXT/UTF8
Идентификатор кодека/Информация : UTF-8 Plain Text
Заголовок : Blu-Ray CEE
Язык : English
Default : Нет
Forced : Нет

Меню
00:00:00.000 : en:
00:05:00.000 : en:
00:10:00.000 : en:
00:15:00.000 : en:
00:20:00.000 : en:
00:25:00.000 : en:
00:30:00.000 : en:
00:35:00.000 : en:
00:40:00.000 : en:
00:45:00.000 : en:
00:50:00.000 : en:
00:55:00.000 : en:
01:00:00.000 : en:
01:05:00.000 : en:
01:10:00.000 : en:
01:15:00.000 : en:
01:20:00.000 : en:
01:25:00.000 : en:
01:30:00.000 : en:
01:35:00.000 : en:
01:40:00.000 : en:
01:45:00.000 : en:
01:50:00.000 : en:
01:55:00.000 : en:
02:00:00.000 : en:
02:05:00.000 : en:
02:10:00.000 : en:
02:15:00.000 : en:
Скриншоты:

Матрица: Перезагрузка / The Matrix Reloaded (2003) HDDVDRip [H.264/1080p-LQ] [Hi10P]
Год выпуска: 2003
Производство: США, Австралия
Жанр: Фантастика, Боевик, Приключения
Перевoд: Дублированный, Двухголосый x4, Авторский x3 Любительский
Оригинальная аудиодорожка: Английская + Коментарии x2
Язык субтитров: Русский x2, Украинский, Английский x2
Вид субтитров: Вшитые

Режиссeр: Энди Вачовски, Ларри Вачовски

В рoлях: Киану Ривз, Кэрри-Энн Мосс, Лоуренс Фишборн, Хьюго Уивинг, Джада Пинкетт Смит, Глория Фостер, Моника Беллуччи, Рэй Энтони, Кристин Ану, Энди Арнесс, Алима Эштон-Шейбу, Гельмут Бакаитис, Стив Бастони, Дон Бейти, Дэниэл Бернхард, Валери Берри, Йен Блисс, Лилиана Богатко, Майкл Бадд, Стоуни Бурк, Келли Батлер

Описаниe: Борцы за свободу Нео, Тринити и Морфеус продолжают руководить восстанием людей против Армии Машин. Для уничтожения системы репрессий и эксплуатации они вынуждены прибегнуть не только к арсеналу превосходного оружия, но и к своим выдающимся навыкам.
Участие в миссии по спасению человеческой расы от ее полного истребления приносит им более глубокое понимание конструкции Матрицы и осознание центральной роли Нео в судьбе человечества.



Продолжительнoсть: 02:18:17
Качество: HDDVDRip
Формат: MKV

Видео: MPEG-4 AVC/H.264, 1920x798(2,40:1), 23,976fps, 4822 Кbps, 0.131bit/pixel
Аудио 1: DUB Russian, AC3, 6ch, 48 kHz, 448 kbps, (Дубляж)
Аудио 2: DVO Russian, AC3, 6ch, 48 kHz, 448 kbps, (Двухголосый) - Отдельным файлом
Аудио 3: DVO Russian, AC3, 6ch, 48 kHz, 448 kbps, (Двухголосый - Гланц и Королёва поздний) - Отдельным файлом
Аудио 4: DVO Russian, AC3, 6ch, 48 kHz, 448 kbps, (Двухголосый - Гланц и Королёва ранний) - Отдельным файлом
Аудио 5: DVO Russian, AC3, 2ch, 48 kHz, 192 kbps, (Двухголосый - TV1000) - Отдельным файлом
Аудио 6: AVO Russian, AC3, 6ch, 48 kHz, 448 kbps, (Одноголосый - Гаврилов) - Отдельным файлом
Аудио 7: AVO Russian, AC3, 6ch, 48 kHz, 448 kbps, (Одноголосый - Живов) - Отдельным файлом
Аудио 8: AVO Russian, AC3, 6ch, 48 kHz, 448 kbps, (Одноголосый - Рудой) - Отдельным файлом
Аудио 9: AVO Russian, AC3, 6ch, 48 kHz, 384 kbps, (Одноголосый - Нурмухаметов) - Отдельным файлом
Аудио 10: MVO Ukranian, AC3, 6ch, 48 kHz, 384 kbps, (Многоголосый - 1+1) - Отдельным файлом
Аудио 11: MVO Ukranian, AC3, 6ch, 48 kHz, 384 kbps, (Многоголосый - ICTV) - Отдельным файлом
Аудио 12: English, AC3, 6ch, 48 kHz, 448 kbps, (Оригинал) - Отдельным файлом
Аудио 13: English, AC3, 2ch, 48 kHz, 128 kbps, (Commentary 1) - Отдельным файлом
Аудио 14: English, AC3, 2ch, 48 kHz, 128 kbps, (Commentary 2) - Отдельным файлом
Общее
Полное имя : Матрица 2 (2003) HDDVDRip-AVC 1080p.mkv
Формат : Matroska
Версия формата : Version 4 / Version 2
Размер файла : 9,77 Гбайт
Продолжительность : 2 ч. 18 м.
Общий поток : 10,1 Мбит/сек
Название фильма : Матрица: Перезагрузка / The Matrix Reloaded (2003) HDDVDRip-AVC 1080p (Sinteros)
Attachment : Yes

Видео
Идентификатор : 1
Формат : AVC
Формат/Информация : Advanced Video Codec
Профиль формата : High 10@L4.1
Параметр CABAC формата : Да
Параметр ReFrames формата : 11 кадров
Идентификатор кодека : V_MPEG4/ISO/AVC
Продолжительность : 2 ч. 18 м.
Битрейт : 4822 Кбит/сек
Ширина : 1920 пикселей
Высота : 798 пикселей
Соотношение сторон : 2,40:1
Режим частоты кадров : Постоянный
Частота кадров : 23,976 кадра/сек
Цветовое пространство : YUV
Субдискретизация насыщенности : 4:2:0
Битовая глубина : 10 бит
Тип развёртки : Прогрессивная
Бит/(Пиксели*Кадры) : 0.131
Размер потока : 4,57 Гбайт (47%)
Заголовок : MPEG-4 AVC/H.264, 1920x798(2,40:1), 23,976fps, 4822 Кbps, 0.131bit/pixel
Библиотека кодирования : x264 core 133 r2334 a3ac64b
Настройки программы : cabac=1 / ref=11 / deblock=1:-2:-1 / analyse=0x3:0x133 / me=tesa / subme=9 / psy=1 / psy_rd=1.00:0.00 / mixed_ref=1 / me_range=24 / chroma_me=1 / trellis=0 / 8x8dct=1 / cqm=0 / deadzone=21,11 / fast_pskip=1 / chroma_qp_offset=-2 / threads=4 / lookahead_threads=1 / sliced_threads=0 / nr=0 / decimate=1 / interlaced=0 / bluray_compat=0 / constrained_intra=0 / bframes=6 / b_pyramid=2 / b_adapt=2 / b_bias=0 / direct=1 / weightb=1 / open_gop=0 / weightp=2 / keyint=250 / keyint_min=50 / scenecut=40 / intra_refresh=0 / rc_lookahead=50 / rc=crf / mbtree=1 / crf=20.3 / qcomp=0.60 / qpmin=1 / qpmax=51 / qpstep=11 / ip_ratio=1.40 / aq=1:0.90
Язык : English
Default : Да
Forced : Нет

Аудио #1
Идентификатор : 2
Формат : AC-3
Формат/Информация : Audio Coding 3
Расширение режима : CM (complete main)
Параметр Endianness формата : Big
Идентификатор кодека : A_AC3
Продолжительность : 2 ч. 18 м.
Вид битрейта : Постоянный
Битрейт : 448 Кбит/сек
Каналы : 6 каналов
Расположение каналов : Front: L C R, Side: L R, LFE
Частота : 48,0 КГц
Битовая глубина : 16 бит
Метод сжатия : С потерями
Размер потока : 443 Мбайт (4%)
Заголовок : DUB Russian, AC3, 6ch, 48 kHz, 448 kbps, (Дубляж)
Язык : Russian
Default : Да
Forced : Нет

Аудио #2 - Отдельным файлом
Идентификатор : 3
Формат : AC-3
Формат/Информация : Audio Coding 3
Расширение режима : CM (complete main)
Параметр Endianness формата : Big
Идентификатор кодека : A_AC3
Продолжительность : 2 ч. 18 м.
Вид битрейта : Постоянный
Битрейт : 448 Кбит/сек
Каналы : 6 каналов
Расположение каналов : Front: L C R, Side: L R, LFE
Частота : 48,0 КГц
Битовая глубина : 16 бит
Метод сжатия : С потерями
Размер потока : 443 Мбайт (4%)
Заголовок : DVO Russian, AC3, 6ch, 48 kHz, 448 kbps, (Двухголосый) - Отдельным файлом
Язык : Russian
Default : Нет
Forced : Нет

Аудио #3 - Отдельным файлом
Идентификатор : 4
Формат : AC-3
Формат/Информация : Audio Coding 3
Расширение режима : CM (complete main)
Параметр Endianness формата : Big
Идентификатор кодека : A_AC3
Продолжительность : 2 ч. 18 м.
Вид битрейта : Постоянный
Битрейт : 448 Кбит/сек
Каналы : 6 каналов
Расположение каналов : Front: L C R, Side: L R, LFE
Частота : 48,0 КГц
Битовая глубина : 16 бит
Метод сжатия : С потерями
Размер потока : 443 Мбайт (4%)
Заголовок : DVO Russian, AC3, 6ch, 48 kHz, 448 kbps, (Двухголосый - Гланц и Королёва поздний) - Отдельным файлом
Язык : Russian
Default : Нет
Forced : Нет

Аудио #4 - Отдельным файлом
Идентификатор : 5
Формат : AC-3
Формат/Информация : Audio Coding 3
Расширение режима : CM (complete main)
Параметр Endianness формата : Big
Идентификатор кодека : A_AC3
Продолжительность : 2 ч. 18 м.
Вид битрейта : Постоянный
Битрейт : 448 Кбит/сек
Каналы : 6 каналов
Расположение каналов : Front: L C R, Side: L R, LFE
Частота : 48,0 КГц
Битовая глубина : 16 бит
Метод сжатия : С потерями
Размер потока : 443 Мбайт (4%)
Заголовок : DVO Russian, AC3, 6ch, 48 kHz, 448 kbps, (Двухголосый - Гланц и Королёва ранний) - Отдельным файлом
Язык : Russian
Default : Нет
Forced : Нет

Аудио #5 - Отдельным файлом
Идентификатор : 6
Формат : AC-3
Формат/Информация : Audio Coding 3
Расширение режима : CM (complete main)
Параметр Endianness формата : Big
Идентификатор кодека : A_AC3
Продолжительность : 2 ч. 18 м.
Вид битрейта : Постоянный
Битрейт : 192 Кбит/сек
Каналы : 2 канала
Расположение каналов : Front: L R
Частота : 48,0 КГц
Битовая глубина : 16 бит
Метод сжатия : С потерями
Размер потока : 190 Мбайт (2%)
Заголовок : DVO Russian, AC3, 2ch, 48 kHz, 192 kbps, (Двухголосый - TV1000) - Отдельным файлом
Язык : Russian
Default : Нет
Forced : Нет

Аудио #6 - Отдельным файлом
Идентификатор : 7
Формат : AC-3
Формат/Информация : Audio Coding 3
Расширение режима : CM (complete main)
Параметр Endianness формата : Big
Идентификатор кодека : A_AC3
Продолжительность : 2 ч. 18 м.
Вид битрейта : Постоянный
Битрейт : 448 Кбит/сек
Каналы : 6 каналов
Расположение каналов : Front: L C R, Side: L R, LFE
Частота : 48,0 КГц
Битовая глубина : 16 бит
Метод сжатия : С потерями
Размер потока : 443 Мбайт (4%)
Заголовок : AVO Russian, AC3, 6ch, 48 kHz, 448 kbps, (Одноголосый - Гаврилов) - Отдельным файлом
Язык : Russian
Default : Нет
Forced : Нет

Аудио #7 - Отдельным файлом
Идентификатор : 8
Формат : AC-3
Формат/Информация : Audio Coding 3
Расширение режима : CM (complete main)
Параметр Endianness формата : Big
Идентификатор кодека : A_AC3
Продолжительность : 2 ч. 18 м.
Вид битрейта : Постоянный
Битрейт : 448 Кбит/сек
Каналы : 6 каналов
Расположение каналов : Front: L C R, Side: L R, LFE
Частота : 48,0 КГц
Битовая глубина : 16 бит
Метод сжатия : С потерями
Размер потока : 443 Мбайт (4%)
Заголовок : AVO Russian, AC3, 6ch, 48 kHz, 448 kbps, (Одноголосый - Живов) - Отдельным файлом
Язык : Russian
Default : Нет
Forced : Нет

Аудио #8 - Отдельным файлом
Идентификатор : 9
Формат : AC-3
Формат/Информация : Audio Coding 3
Расширение режима : CM (complete main)
Параметр Endianness формата : Big
Идентификатор кодека : A_AC3
Продолжительность : 2 ч. 18 м.
Вид битрейта : Постоянный
Битрейт : 448 Кбит/сек
Каналы : 6 каналов
Расположение каналов : Front: L C R, Side: L R, LFE
Частота : 48,0 КГц
Битовая глубина : 16 бит
Метод сжатия : С потерями
Размер потока : 443 Мбайт (4%)
Заголовок : AVO Russian, AC3, 6ch, 48 kHz, 448 kbps, (Одноголосый - Рудой) - Отдельным файлом
Язык : Russian
Default : Нет
Forced : Нет

Аудио #9 - Отдельным файлом
Идентификатор : 10
Формат : AC-3
Формат/Информация : Audio Coding 3
Расширение режима : CM (complete main)
Параметр Endianness формата : Big
Идентификатор кодека : A_AC3
Продолжительность : 2 ч. 18 м.
Вид битрейта : Постоянный
Битрейт : 384 Кбит/сек
Каналы : 6 каналов
Расположение каналов : Front: L C R, Side: L R, LFE
Частота : 48,0 КГц
Битовая глубина : 16 бит
Метод сжатия : С потерями
Размер потока : 380 Мбайт (4%)
Заголовок : AVO Russian, AC3, 6ch, 48 kHz, 384 kbps, (Одноголосый - Нурмухаметов) - Отдельным файлом
Язык : Russian
Default : Нет
Forced : Нет

Аудио #10 - Отдельным файлом
Идентификатор : 11
Формат : AC-3
Формат/Информация : Audio Coding 3
Расширение режима : CM (complete main)
Параметр Endianness формата : Big
Идентификатор кодека : A_AC3
Продолжительность : 2 ч. 18 м.
Вид битрейта : Постоянный
Битрейт : 384 Кбит/сек
Каналы : 6 каналов
Расположение каналов : Front: L C R, Side: L R, LFE
Частота : 48,0 КГц
Битовая глубина : 16 бит
Метод сжатия : С потерями
Размер потока : 380 Мбайт (4%)
Заголовок : MVO Ukranian, AC3, 6ch, 48 kHz, 384 kbps, (Многоголосый - 1+1) - Отдельным файлом
Язык : Ukrainian
Default : Нет
Forced : Нет

Аудио #11 - Отдельным файлом
Идентификатор : 12
Формат : AC-3
Формат/Информация : Audio Coding 3
Расширение режима : CM (complete main)
Параметр Endianness формата : Big
Идентификатор кодека : A_AC3
Продолжительность : 2 ч. 18 м.
Вид битрейта : Постоянный
Битрейт : 384 Кбит/сек
Каналы : 6 каналов
Расположение каналов : Front: L C R, Side: L R, LFE
Частота : 48,0 КГц
Битовая глубина : 16 бит
Метод сжатия : С потерями
Размер потока : 380 Мбайт (4%)
Заголовок : MVO Ukranian, AC3, 6ch, 48 kHz, 384 kbps, (Многоголосый - ICTV) - Отдельным файлом
Язык : Ukrainian
Default : Нет
Forced : Нет

Аудио #12 - Отдельным файлом
Идентификатор : 13
Формат : AC-3
Формат/Информация : Audio Coding 3
Расширение режима : CM (complete main)
Параметр Endianness формата : Big
Идентификатор кодека : A_AC3
Продолжительность : 2 ч. 18 м.
Вид битрейта : Постоянный
Битрейт : 448 Кбит/сек
Каналы : 6 каналов
Расположение каналов : Front: L C R, Side: L R, LFE
Частота : 48,0 КГц
Битовая глубина : 16 бит
Метод сжатия : С потерями
Размер потока : 443 Мбайт (4%)
Заголовок : English, AC3, 6ch, 48 kHz, 448 kbps, (Оригинал) - Отдельным файлом
Язык : English
Default : Нет
Forced : Нет

Аудио #13 - Отдельным файлом
Идентификатор : 14
Формат : AC-3
Формат/Информация : Audio Coding 3
Расширение режима : CM (complete main)
Параметр Endianness формата : Big
Идентификатор кодека : A_AC3
Продолжительность : 2 ч. 18 м.
Вид битрейта : Постоянный
Битрейт : 128 Кбит/сек
Каналы : 2 канала
Расположение каналов : Front: L R
Частота : 48,0 КГц
Битовая глубина : 16 бит
Метод сжатия : С потерями
Размер потока : 127 Мбайт (1%)
Заголовок : English, AC3, 2ch, 48 kHz, 128 kbps, (Commentary 1) - Отдельным файлом
Язык : English
Default : Нет
Forced : Нет

Аудио #14 - Отдельным файлом
Идентификатор : 15
Формат : AC-3
Формат/Информация : Audio Coding 3
Расширение режима : CM (complete main)
Параметр Endianness формата : Big
Идентификатор кодека : A_AC3
Продолжительность : 2 ч. 18 м.
Вид битрейта : Постоянный
Битрейт : 128 Кбит/сек
Каналы : 2 канала
Расположение каналов : Front: L R
Частота : 48,0 КГц
Битовая глубина : 16 бит
Метод сжатия : С потерями
Размер потока : 127 Мбайт (1%)
Заголовок : English, AC3, 2ch, 48 kHz, 128 kbps, (Commentary 2) - Отдельным файлом
Язык : English
Default : Нет
Forced : Нет

Текст #1
Идентификатор : 16
Формат : UTF-8
Идентификатор кодека : S_TEXT/UTF8
Идентификатор кодека/Информация : UTF-8 Plain Text
Заголовок : HD-DVD
Язык : Russian
Default : Нет
Forced : Нет

Текст #2
Идентификатор : 17
Формат : UTF-8
Идентификатор кодека : S_TEXT/UTF8
Идентификатор кодека/Информация : UTF-8 Plain Text
Заголовок : Нурмухаметов (Поздний перевод)
Язык : Russian
Default : Нет
Forced : Нет

Текст #3
Идентификатор : 18
Формат : UTF-8
Идентификатор кодека : S_TEXT/UTF8
Идентификатор кодека/Информация : UTF-8 Plain Text
Язык : Ukrainian
Default : Нет
Forced : Нет

Текст #4
Идентификатор : 19
Формат : UTF-8
Идентификатор кодека : S_TEXT/UTF8
Идентификатор кодека/Информация : UTF-8 Plain Text
Заголовок : HD-DVD
Язык : English
Default : Нет
Forced : Нет

Текст #5
Идентификатор : 20
Формат : UTF-8
Идентификатор кодека : S_TEXT/UTF8
Идентификатор кодека/Информация : UTF-8 Plain Text
Заголовок : SDH
Язык : English
Default : Нет
Forced : Нет

Меню
00:00:00.000 : en:Trinity's In
00:03:50.229 : en:Trust Me
00:08:55.367 : en:Upgrades
00:12:16.903 : en:Zion
00:16:24.317 : en:Matter of Time
00:19:43.182 : en:Homecomings
00:23:29.407 : en:We Are Still Here
00:27:26.811 : en:Celebrating Humanity
00:32:01.252 : en:Smith Will Suffice
00:33:43.188 : en:What Is Control?
00:37:57.442 : en:Summoned
00:40:55.619 : en:Seraph
00:43:44.956 : en:The Oracle
00:50:42.706 : en:Swarm of Smiths
00:55:08.472 : en:Sticking It to Them
01:00:03.099 : en:The Volunteer
01:02:49.766 : en:Taste of Merovingian
01:08:52.295 : en:Persephone's Kiss
01:13:06.881 : en:Unlocking the Keymaker
01:16:21.408 : en:Blade Leapers
01:20:31.827 : en:Twin Trouble
01:22:47.128 : en:Freeway Entrance
01:26:12.501 : en:Cross-Vehicular Traffic
01:29:52.886 : en:Biker Girl
01:32:50.899 : en:Trucks Amuck
01:37:10.823 : en:The Reason We're Here
01:40:51.378 : en:Sacrifice and Sabotage
01:44:57.791 : en:So Many of Me
01:48:12.152 : en:The Architect
01:52:25.572 : en:The One's Function
01:55:42.935 : en:Neo's Choice
01:57:37.550 : en:Not Letting Go
02:01:51.470 : en:Bomb's Target
02:04:18.451 : en:Feeling the Enemy
02:07:04.115 : en:End Credits
02:16:29.680 : en:The Matrix Revolutions Trailer
Скриншоты:

Матрица: Революция / The Matrix Revolutions (2003) HDDVDRip [H.264/1080p-LQ] [Hi10P]
Год выпуска: 2003
Производство: США, Австралия
Жанр: Фантастика, Боевик, Приключения
Перевoд: Дублированный, Многоголосый, Двухголосый, Авторский x2
Оригинальная аудио дорожка: Английская + Коментарии x2
Язык субтитров: Русский x2, Украинский, Английский
Вид субтитров: Вшитые

Режиссeр: Энди Вачовски, Ларри Вачовски

В рoлях: Киану Ривз, Кэрри-Энн Мосс, Хьюго Уивинг, Лоуренс Фишборн, Моника Беллуччи, Мэри Элис, Танвир К. Атвал, Гельмут Бакаитис, Кейт Бихан, Френсин Белл, Рэйчел Блэкман, Генри Блейсингейм, Йен Блисс, Дэвид Бауэрс, Зик Кастелли, Колин Чоу, Эсси Дэвис, Нона М. Гайе, Дион Хорстман, Лейчи Халм, Кристофер Кирби

Описаниe: Пока армия Машин пытается уничтожить Зион, его жители из последних сил держат оборону. Но удастся ли им предотвратить полное вторжение в город кишащей орды беспощадных машин до того, как Нео соберет все свои силы и положит конец войне?



Продолжительнoсть: 02:09:15
Качество: HDDVDRip
Формат: MKV

Видео: MPEG-4 AVC/H.264, 1920x798(2,40:1), 23,976fps, 4997 Кbps, 0.136bit/pixel
Аудио 1: DUB Russian, AC3, 6ch, 48 kHz, 448 kbps, (Дубляж)
Аудио 2: MVO Russian, AC3, 6ch, 48 kHz, 448 kbps, (Многоголосый) - Отдельным файлом
Аудио 3: DVO Russian, AC3, 6ch, 48 kHz, 448 kbps, (Двухголосый - Гланц и Королёва) - Отдельным файлом
Аудио 4: AVO Russian, AC3, 6ch, 48 kHz, 448 kbps, (Одноголосый - Гаврилов) - Отдельным файлом
Аудио 5: AVO Russian, AC3, 6ch, 48 kHz, 448 kbps, (Одноголосый - Живов) - Отдельным файлом
Аудио 6: MVO Ukranian, AC3, 6ch, 48 kHz, 384 kbps, (Многоголосый - 1+1) - Отдельным файлом
Аудио 7: MVO Ukranian, AC3, 6ch, 48 kHz, 384 kbps, (Многоголосый - ICTV) - Отдельным файлом
Аудио 8: English, AC3, 6ch, 48 kHz, 448 kbps, (Оригинал) - Отдельным файлом
Аудио 9: English, AC3, 2ch, 48 kHz, 128 kbps, (Commentary 1) - Отдельным файлом
Аудио 10: English, AC3, 2ch, 48 kHz, 128 kbps, (Commentary 2) - Отдельным файлом
Общее
Полное имя : Матрица 3 (2003) HDDVDRip-AVC 1080p.mkv
Формат : Matroska
Версия формата : Version 4 / Version 2
Размер файла : 7,97 Гбайт
Продолжительность : 2 ч. 9 м.
Общий поток : 8822 Кбит/сек
Название фильма : Матрица 3: Революция / The Matrix Revolutions (2003) HDDVDRip-AVC 1080p (Sinteros)
Attachment : Yes

Видео
Идентификатор : 1
Формат : AVC
Формат/Информация : Advanced Video Codec
Профиль формата : High 10@L4.1
Параметр CABAC формата : Да
Параметр ReFrames формата : 11 кадров
Идентификатор кодека : V_MPEG4/ISO/AVC
Продолжительность : 2 ч. 9 м.
Битрейт : 4997 Кбит/сек
Ширина : 1920 пикселей
Высота : 798 пикселей
Соотношение сторон : 2,40:1
Режим частоты кадров : Постоянный
Частота кадров : 23,976 кадра/сек
Цветовое пространство : YUV
Субдискретизация насыщенности : 4:2:0
Битовая глубина : 10 бит
Тип развёртки : Прогрессивная
Бит/(Пиксели*Кадры) : 0.136
Размер потока : 4,46 Гбайт (56%)
Заголовок : MPEG-4 AVC/H.264, 1920x798(2,40:1), 23,976fps, 4997 Кbps, 0.136bit/pixel
Библиотека кодирования : x264 core 133 r2334 a3ac64b
Настройки программы : cabac=1 / ref=11 / deblock=1:-2:-1 / analyse=0x3:0x133 / me=tesa / subme=9 / psy=1 / psy_rd=1.00:0.00 / mixed_ref=1 / me_range=24 / chroma_me=1 / trellis=0 / 8x8dct=1 / cqm=0 / deadzone=21,11 / fast_pskip=1 / chroma_qp_offset=-2 / threads=4 / lookahead_threads=1 / sliced_threads=0 / nr=0 / decimate=1 / interlaced=0 / bluray_compat=0 / constrained_intra=0 / bframes=6 / b_pyramid=2 / b_adapt=2 / b_bias=0 / direct=1 / weightb=1 / open_gop=0 / weightp=2 / keyint=250 / keyint_min=50 / scenecut=40 / intra_refresh=0 / rc_lookahead=50 / rc=crf / mbtree=1 / crf=20.7 / qcomp=0.60 / qpmin=1 / qpmax=51 / qpstep=11 / ip_ratio=1.40 / aq=1:0.90
Язык : English
Default : Да
Forced : Нет

Аудио #1
Идентификатор : 2
Формат : AC-3
Формат/Информация : Audio Coding 3
Расширение режима : CM (complete main)
Параметр Endianness формата : Big
Идентификатор кодека : A_AC3
Продолжительность : 2 ч. 9 м.
Вид битрейта : Постоянный
Битрейт : 448 Кбит/сек
Каналы : 6 каналов
Расположение каналов : Front: L C R, Side: L R, LFE
Частота : 48,0 КГц
Битовая глубина : 16 бит
Метод сжатия : С потерями
Размер потока : 414 Мбайт (5%)
Заголовок : DUB Russian, AC3, 6ch, 48 kHz, 448 kbps, (Дубляж)
Язык : Russian
Default : Да
Forced : Нет

Аудио #2 - Отдельным файлом
Идентификатор : 3
Формат : AC-3
Формат/Информация : Audio Coding 3
Расширение режима : CM (complete main)
Параметр Endianness формата : Big
Идентификатор кодека : A_AC3
Продолжительность : 2 ч. 9 м.
Вид битрейта : Постоянный
Битрейт : 448 Кбит/сек
Каналы : 6 каналов
Расположение каналов : Front: L C R, Side: L R, LFE
Частота : 48,0 КГц
Битовая глубина : 16 бит
Метод сжатия : С потерями
Размер потока : 414 Мбайт (5%)
Заголовок : MVO Russian, AC3, 6ch, 48 kHz, 448 kbps, (Многоголосый) - Отдельным файлом
Язык : Russian
Default : Нет
Forced : Нет

Аудио #3 - Отдельным файлом
Идентификатор : 4
Формат : AC-3
Формат/Информация : Audio Coding 3
Расширение режима : CM (complete main)
Параметр Endianness формата : Big
Идентификатор кодека : A_AC3
Продолжительность : 2 ч. 9 м.
Вид битрейта : Постоянный
Битрейт : 448 Кбит/сек
Каналы : 6 каналов
Расположение каналов : Front: L C R, Side: L R, LFE
Частота : 48,0 КГц
Битовая глубина : 16 бит
Метод сжатия : С потерями
Размер потока : 414 Мбайт (5%)
Заголовок : DVO Russian, AC3, 6ch, 48 kHz, 448 kbps, (Двухголосый - Гланц и Королёва) - Отдельным файлом
Язык : Russian
Default : Нет
Forced : Нет

Аудио #4 - Отдельным файлом
Идентификатор : 5
Формат : AC-3
Формат/Информация : Audio Coding 3
Расширение режима : CM (complete main)
Параметр Endianness формата : Big
Идентификатор кодека : A_AC3
Продолжительность : 2 ч. 9 м.
Вид битрейта : Постоянный
Битрейт : 448 Кбит/сек
Каналы : 6 каналов
Расположение каналов : Front: L C R, Side: L R, LFE
Частота : 48,0 КГц
Битовая глубина : 16 бит
Метод сжатия : С потерями
Размер потока : 414 Мбайт (5%)
Заголовок : AVO Russian, AC3, 6ch, 48 kHz, 448 kbps, (Одноголосый - Гаврилов) - Отдельным файлом
Язык : Russian
Default : Нет
Forced : Нет

Аудио #5 - Отдельным файлом
Идентификатор : 6
Формат : AC-3
Формат/Информация : Audio Coding 3
Расширение режима : CM (complete main)
Параметр Endianness формата : Big
Идентификатор кодека : A_AC3
Продолжительность : 2 ч. 9 м.
Вид битрейта : Постоянный
Битрейт : 448 Кбит/сек
Каналы : 6 каналов
Расположение каналов : Front: L C R, Side: L R, LFE
Частота : 48,0 КГц
Битовая глубина : 16 бит
Метод сжатия : С потерями
Размер потока : 414 Мбайт (5%)
Заголовок : AVO Russian, AC3, 6ch, 48 kHz, 448 kbps, (Одноголосый - Живов) - Отдельным файлом
Язык : Russian
Default : Нет
Forced : Нет

Аудио #6 - Отдельным файлом
Идентификатор : 7
Формат : AC-3
Формат/Информация : Audio Coding 3
Расширение режима : CM (complete main)
Параметр Endianness формата : Big
Идентификатор кодека : A_AC3
Продолжительность : 2 ч. 9 м.
Вид битрейта : Постоянный
Битрейт : 384 Кбит/сек
Каналы : 6 каналов
Расположение каналов : Front: L C R, Side: L R, LFE
Частота : 48,0 КГц
Битовая глубина : 16 бит
Метод сжатия : С потерями
Размер потока : 355 Мбайт (4%)
Заголовок : MVO Ukranian, AC3, 6ch, 48 kHz, 384 kbps, (Многоголосый - 1+1) - Отдельным файлом
Язык : Ukrainian
Default : Нет
Forced : Нет

Аудио #7 - Отдельным файлом
Идентификатор : 8
Формат : AC-3
Формат/Информация : Audio Coding 3
Расширение режима : CM (complete main)
Параметр Endianness формата : Big
Идентификатор кодека : A_AC3
Продолжительность : 2 ч. 9 м.
Вид битрейта : Постоянный
Битрейт : 384 Кбит/сек
Каналы : 6 каналов
Расположение каналов : Front: L C R, Side: L R, LFE
Частота : 48,0 КГц
Битовая глубина : 16 бит
Метод сжатия : С потерями
Размер потока : 355 Мбайт (4%)
Заголовок : MVO Ukranian, AC3, 6ch, 48 kHz, 384 kbps, (Многоголосый - ICTV) - Отдельным файлом
Язык : Ukrainian
Default : Нет
Forced : Нет

Аудио #8 - Отдельным файлом
Идентификатор : 9
Формат : AC-3
Формат/Информация : Audio Coding 3
Расширение режима : CM (complete main)
Параметр Endianness формата : Big
Идентификатор кодека : A_AC3
Продолжительность : 2 ч. 9 м.
Вид битрейта : Постоянный
Битрейт : 448 Кбит/сек
Каналы : 6 каналов
Расположение каналов : Front: L C R, Side: L R, LFE
Частота : 48,0 КГц
Битовая глубина : 16 бит
Метод сжатия : С потерями
Размер потока : 414 Мбайт (5%)
Заголовок : English, AC3, 6ch, 48 kHz, 448 kbps, (Оригинал) - Отдельным файлом
Язык : Dutch
Default : Нет
Forced : Нет

Аудио #9 - Отдельным файлом
Идентификатор : 10
Формат : AC-3
Формат/Информация : Audio Coding 3
Расширение режима : CM (complete main)
Параметр Endianness формата : Big
Идентификатор кодека : A_AC3
Продолжительность : 2 ч. 9 м.
Вид битрейта : Постоянный
Битрейт : 128 Кбит/сек
Каналы : 2 канала
Расположение каналов : Front: L R
Частота : 48,0 КГц
Битовая глубина : 16 бит
Метод сжатия : С потерями
Размер потока : 118 Мбайт (1%)
Заголовок : English, AC3, 2ch, 48 kHz, 128 kbps, (Commentary 1) - Отдельным файлом
Язык : English
Default : Нет
Forced : Нет

Аудио #10 - Отдельным файлом
Идентификатор : 11
Формат : AC-3
Формат/Информация : Audio Coding 3
Расширение режима : CM (complete main)
Параметр Endianness формата : Big
Идентификатор кодека : A_AC3
Продолжительность : 2 ч. 9 м.
Вид битрейта : Постоянный
Битрейт : 128 Кбит/сек
Каналы : 2 канала
Расположение каналов : Front: L R
Частота : 48,0 КГц
Битовая глубина : 16 бит
Метод сжатия : С потерями
Размер потока : 118 Мбайт (1%)
Заголовок : English, AC3, 2ch, 48 kHz, 128 kbps, (Commentary 2) - Отдельным файлом
Язык : English
Default : Нет
Forced : Нет

Текст #1
Идентификатор : 12
Формат : UTF-8
Идентификатор кодека : S_TEXT/UTF8
Идентификатор кодека/Информация : UTF-8 Plain Text
Заголовок : HD-DVD
Язык : Russian
Default : Нет
Forced : Нет

Текст #2
Идентификатор : 13
Формат : UTF-8
Идентификатор кодека : S_TEXT/UTF8
Идентификатор кодека/Информация : UTF-8 Plain Text
Заголовок : Blu-Ray CEE
Язык : Russian
Default : Нет
Forced : Нет

Текст #3
Идентификатор : 14
Формат : UTF-8
Идентификатор кодека : S_TEXT/UTF8
Идентификатор кодека/Информация : UTF-8 Plain Text
Язык : Ukrainian
Default : Нет
Forced : Нет

Текст #4
Идентификатор : 15
Формат : UTF-8
Идентификатор кодека : S_TEXT/UTF8
Идентификатор кодека/Информация : UTF-8 Plain Text
Заголовок : HD-DVD
Язык : English
Default : Нет
Forced : Нет

Меню
00:00:00.000 : en:20 Hours to Go
00:03:54.984 : en:Trapped
00:07:32.034 : en:The Connection Matters
00:10:19.535 : en:Down Here I'm God
00:14:43.883 : en:Coat-Check Chaos
00:17:58.743 : en:Interesting Deal
00:23:33.244 : en:The End Is Coming
00:30:06.304 : en:We Meet at Last
00:35:35.632 : en:The Logos Found
00:39:34.205 : en:Volunteers
00:42:58.576 : en:I Believe in Him
00:46:42.549 : en:Nothing's Changed
00:49:01.688 : en:Stowaway
00:51:52.901 : en:See Your Enemy
00:58:00.476 : en:Give 'em Hell
01:00:18.448 : en:Detected
01:02:29.746 : en:Breaching the Dome
01:08:00.910 : en:Storming Sentinels
01:10:29.225 : en:Trying to Keep Up
01:14:33.218 : en:Unfinished Business
01:18:23.365 : en:Hell of a Pilot
01:23:08.984 : en:Report to the Council
01:25:54.816 : en:Believers
01:29:13.347 : en:Glimpse of the Sky
01:31:51.506 : en:Saying What Matters
01:36:50.638 : en:A Truce
01:41:55.067 : en:It Ends Tonight
01:44:53.120 : en:Urban Splash
01:48:06.396 : en:Neo's Choice
01:51:30.684 : en:Inevitable and Over
01:55:05.899 : en:Real Peace
01:57:30.710 : en:Freedom and Sunlight
02:00:11.787 : en:End Credits
Скриншоты:


Примечание: Рип в High 10 Profile, в настоящее время не поддерживается большинством аппаратных проигрывателей, поэтому предназначен исключительно для воспроизведения на ПК. Для корректного воспроизведения может потребоваться обновление ПО.

Скриншоты:



Матрица, Матрица: Перезагрузка, Матрица: Революция на NNM-club

Время раздачи: 24/7 (жду до 10-15 скачавших а дальше могу уйти с радачи)
[NNM-Club.me]_Matritsa - Trilogiya (1999-2003) HDDVDRip-AVC 1080p.torrent
 Торрент: Платиновая раздача  Зарегистрирован
 
Скачать


Примагнититься
 Зарегистрирован:   14 Сен 2014 20:04:08
 Размер:   29.6 GB  (
 Рейтинг:   4.8 (Голосов: 151)
 Поблагодарили:   397
 Проверка:   Оформление проверено модератором 15 Сен 2014 01:47:04
Как cкачать  ·  Как раздать  ·  Правильно оформить  ·  Поднять ратио!  
sinteros ®
Стаж: 15 лет 2 мес.
Сообщений: 562
Ratio: 65.893
Поблагодарили: 62257
100%
По сравнению с предыдущим релизом Матрица: Трилогия / The Matrix: Trilogy (1999-2003) HDDVDRip [H.264/720p-LQ] [Hi10P]
Добавлено еще несколько звуковых дорожек которые удалось отыскать на просторах интернета.
Некоторые дорожки имеют более лучшее качество.
И полностью пересмотрены настройки кодера.


P.S. релизы в формате 1080p буду делать крайне редко. Уж очень это долго.
Ayalich
Стаж: 10 лет 9 мес.
Сообщений: 51
Ratio: 5.681
100%
Блин вот какой фильм прям нуждается в конвертации в 3D, он бы ещё раз вынес мозг
sinteros ®
Стаж: 15 лет 2 мес.
Сообщений: 562
Ratio: 65.893
Поблагодарили: 62257
100%
Ayalich писал(а): Перейти к сообщению
Блин вот какой фильм прям нуждается в конвертации в 3D, он бы ещё раз вынес мозг

Не в коем случае не надо переводить не в какие 3D. Он и в 2D смотрится отлично.
В 3D фильмы смотрятся как мультики. И воспринимаются уже совсем не так как хотелось бы.
Последнее время в кинотеатры хожу крайне редко и именно по этой причине. На какой фильм не придешь в 3D есть а в 2D отсутствует.
То 3D которое есть сейчас это только начальная стадия которая требует серьезных доработок.
legol2s
Стаж: 12 лет 10 мес.
Сообщений: 68
Ratio: 6.514
22.44%
sinteros писал(а): Перейти к сообщению
Ayalich писал(а): Перейти к сообщению
Блин вот какой фильм прям нуждается в конвертации в 3D, он бы ещё раз вынес мозг

Не в коем случае не надо переводить не в какие 3D. Он и в 2D смотрится отлично.
В 3D фильмы смотрятся как мультики. И воспринимаются уже совсем не так как хотелось бы.
Последнее время в кинотеатры хожу крайне редко и именно по этой причине. На какой фильм не придешь в 3D есть а в 2D отсутствует.
То 3D которое есть сейчас это только начальная стадия которая требует серьезных доработок.


ходи в аймакс)
deeppurple1968
Стаж: 14 лет
Сообщений: 497
Ratio: 58.058
Раздал: 20.29 TB
Поблагодарили: 3627
100%
Откуда: Омикрон Персея 8
ukraine.gif
sinteros писал(а): Перейти к сообщению
Ayalich писал(а): Перейти к сообщению
Блин вот какой фильм прям нуждается в конвертации в 3D, он бы ещё раз вынес мозг

Не в коем случае не надо переводить не в какие 3D. Он и в 2D смотрится отлично.
В 3D фильмы смотрятся как мультики. И воспринимаются уже совсем не так как хотелось бы.
Последнее время в кинотеатры хожу крайне редко и именно по этой причине. На какой фильм не придешь в 3D есть а в 2D отсутствует.
То 3D которое есть сейчас это только начальная стадия которая требует серьезных доработок.

А я не против 3D. В таких фильмах ещё больше погружаешься в их атмосферу, словно сам находишься в центре событий, когда смотришь их в 3D. Дискомфорта при просмотре не испытываю. Видимо, тут дело любительское - кому что нравится. Лично я хочу чтобы больше снимали фильмы в 3D и 60fps.

Автору темы отдельное спасибо за то, что звуковые дорожки в отдельных файлах, не люблю когда встроят 20 штук, а из них тебе нужны 1-2 максимум.
Kiljen
Стаж: 13 лет 10 мес.
Сообщений: 151
Ratio: 18.502
Поблагодарили: 15
100%
Откуда: Таганий Рог
russia.gif
Спасибо за отличный релиз, в великолепном качестве!!!
sinteros ®
Стаж: 15 лет 2 мес.
Сообщений: 562
Ratio: 65.893
Поблагодарили: 62257
100%
Kiljen писал(а): Перейти к сообщению
Спасибо за отличный релиз, в великолепном качестве!!!


Пожалуйста!
dantedimon
Стаж: 12 лет 2 мес.
Сообщений: 16
Ratio: 6.83
6.94%
Ayalich писал(а): Перейти к сообщению
Блин вот какой фильм прям нуждается в конвертации в 3D, он бы ещё раз вынес мозг

Не понимаю таких людей.
deeppurple1968
Стаж: 14 лет
Сообщений: 497
Ratio: 58.058
Раздал: 20.29 TB
Поблагодарили: 3627
100%
Откуда: Омикрон Персея 8
ukraine.gif
dantedimon писал(а): Перейти к сообщению
Ayalich писал(а): Перейти к сообщению
Блин вот какой фильм прям нуждается в конвертации в 3D, он бы ещё раз вынес мозг

Не понимаю таких людей.

Каких? Которым нравится смотреть фильмы и в 3D формате?
albina63
Стаж: 14 лет 3 мес.
Сообщений: 178
Ratio: 2.62
Раздал: 4.895 TB
0.65%
ussr.gif
Аватар ( режиссёрскую версию)[Hi10P] Было-бы здорово !
remotespace
Стаж: 12 лет 10 мес.
Сообщений: 98
Ratio: 6.21
100%
russia.gif
хорошая раздача. Аниматрицы не хватает для комплекта. Ибо расширяет она сию мысль заключённую в фильме.
samatlor2
Стаж: 10 лет 6 мес.
Сообщений: 6
Ratio: 3.116
100%
russia.gif
Спасибо!!! :ура:
DaoDzen
 
Стаж: 17 лет 3 мес.
Сообщений: 590
Ratio: 10.403
Поблагодарили: 176
100%
russia.gif
В раздачу приглашаются сидеры.
Не могу больше слушать этот попсовый перевод в прокате, и вот нашел наконец те, старые гнусавые "нет никакой ложки", а скачать не у кого.

_________________
Очень хочется гидроусилитель мозга. Чтобы без труда думать сложные мысли.
Показать сообщения:   
Начать новую тему   Ответить на тему    Торрент-трекер NNM-Club -> Коллекции / *логии -> Зарубежное кино (коллекции / *логии) Часовой пояс: GMT + 3
Страница 1 из 1