Классический форум-трекер
canvas not supported
Нас вместе: 4 233 109

Starперцы / Last Vegas (2013) BDRip [H264/1080p] [MVO]


 
 
RSS
Начать новую тему   Ответить на тему    Торрент-трекер NNM-Club -> Зарубежное кино -> Зарубежные Фильмы (HD, FHD)
Автор Сообщение
batonchik ®
RG Releasers
Котоаплоадер 15 PB+
Почетный Куратор Видео
Стаж: 16 лет 2 мес.
Сообщений: 26119
Ratio: 58K
Раздал: 15.098 PB
Поблагодарили: 1440485
100%
Откуда: СССР
ussr.gif
Starперцы / Last Vegas (2013) BDRip
Производство: США, CBS Films, Gidden Media, Good Universe, Outlaw Sinema
Жанр: комедия, Драма

Режиссер: Джон Тёртелтауб
Продюсер: Эми Баэр, Джозеф Дрэйк, Лоуренс Марк
Актеры: Майкл Дуглас, Роберт Де Ниро, Морган Фриман, Кевин Клайн, Мэри Стинберген, Джерри Феррара, Романи Малко, Роджер Барт, Джоанна Глисон, Майкл Или, Бри Блэр, Эйприл Биллингсли, Стивен Скарпулла, Андреа Мур, Ной Харден, АрДжей Фаттори

Описание: Билли, Пэдди, Арчи и Сэм дружат больше полувека. И когда убежденный холостяк Билли наконец-то делает предложение своей юной подружке, великолепная четверка отправляется в Лас-Вегас, чтобы скинуть с себя груз прожитого и зажечь как в последний раз. Великовозрастные гуляки и не подозревают, как за десятилетия эволюционировал Город Грехов…

Дата мировой премьеры: 31 октября 2013
Дата российской премьеры: 14 ноября 2013, «Централ Партнершип»
Продолжительность: 01:44:59
Качество видео: BDRip
Перевод: Закадровый многоголосый [Baibako]
Субтитры: Английский

Видео: MPEG-4 AVC, 11.4 Мбит/с, 1920x800
Аудио1: Русский / DTS, 6 ch / 1510 kb/s
Аудио2: Английский / DTS, 6 ch / 1510 kb/s
Формат : Matroska
Версия формата : Version 2
Размер файла : 10,6 Гбайт
Продолжительность : 1 ч. 45 м.
Общий поток : 14,3 Мбит/сек
Название фильма : CMEGRoup
Дата кодирования : UTC 2014-01-16 20:33:03
Программа кодирования : mkvmerge v6.7.0 ('Back to the Ground') 64bit built on Jan 8 2014 15:10:52
Библиотека кодирования : libebml v1.3.0 + libmatroska v1.4.1

Видео
Идентификатор : 1
Формат : AVC
Формат/Информация : Advanced Video Codec
Профиль формата : High@L4.1
Параметр CABAC формата : Да
Параметр ReFrames формата : 5 кадров
Идентификатор кодека : V_MPEG4/ISO/AVC
Продолжительность : 1 ч. 45 м.
Битрейт : 11,4 Мбит/сек
Ширина : 1920 пикселей
Высота : 800 пикселей
Соотношение сторон : 2,40:1
Режим частоты кадров : Постоянный
Частота кадров : 23,976 кадра/сек
Цветовое пространство : YUV
Субдискретизация насыщенности : 4:2:0
Битовая глубина : 8 бит
Тип развёртки : Прогрессивная
Бит/(Пиксели*Кадры) : 0.310
Размер потока : 8,17 Гбайт (77%)
Заголовок : hahay0yo@CHD
Библиотека кодирования : x264 core 138 r2356 a1d3d17
Настройки программы : cabac=1 / ref=5 / deblock=1:-3:-3 / analyse=0x3:0x113 / me=umh / subme=10 / psy=1 / psy_rd=1.00:0.05 / mixed_ref=1 / me_range=32 / chroma_me=1 / trellis=2 / 8x8dct=1 / cqm=0 / deadzone=21,11 / fast_pskip=0 / chroma_qp_offset=-2 / threads=18 / lookahead_threads=1 / sliced_threads=0 / nr=0 / decimate=1 / interlaced=0 / bluray_compat=0 / constrained_intra=0 / bframes=6 / b_pyramid=2 / b_adapt=2 / b_bias=0 / direct=3 / weightb=1 / open_gop=0 / weightp=2 / keyint=250 / keyint_min=23 / scenecut=40 / intra_refresh=0 / rc=2pass / mbtree=0 / bitrate=11430 / ratetol=1.0 / qcomp=0.70 / qpmin=0 / qpmax=69 / qpstep=4 / cplxblur=20.0 / qblur=0.5 / ip_ratio=1.40 / pb_ratio=1.30 / aq=2:1.00
Язык : English
Default : Да
Forced : Нет

Аудио #1
Идентификатор : 2
Формат : DTS
Формат/Информация : Digital Theater Systems
Режим : 16
Параметр Endianness формата : Big
Идентификатор кодека : A_DTS
Продолжительность : 1 ч. 45 м.
Вид битрейта : Постоянный
Битрейт : 1509 Кбит/сек
Каналы : 6 каналов
Расположение каналов : Front: L C R, Side: L R, LFE
Частота : 48,0 КГц
Битовая глубина : 24 бит
Метод сжатия : С потерями
Размер потока : 1,12 Гбайт (11%)
Заголовок : MVO - Baibako
Язык : Russian
Default : Да
Forced : Нет

Аудио #2
Идентификатор : 3
Формат : DTS
Формат/Информация : Digital Theater Systems
Режим : 16
Параметр Endianness формата : Big
Идентификатор кодека : A_DTS
Продолжительность : 1 ч. 45 м.
Вид битрейта : Постоянный
Битрейт : 1509 Кбит/сек
Каналы : 6 каналов
Расположение каналов : Front: L C R, Side: L R, LFE
Частота : 48,0 КГц
Битовая глубина : 24 бит
Метод сжатия : С потерями
Размер потока : 1,12 Гбайт (11%)
Заголовок : English DTS 5.1 1509Kbps
Язык : English
Default : Нет
Forced : Нет

Текст #1
Идентификатор : 4
Формат : UTF-8
Идентификатор кодека : S_TEXT/UTF8
Идентификатор кодека/Информация : UTF-8 Plain Text
Заголовок : Full
Язык : English
Default : Нет
Forced : Нет

Текст #2
Идентификатор : 5
Формат : UTF-8
Идентификатор кодека : S_TEXT/UTF8
Идентификатор кодека/Информация : UTF-8 Plain Text
Заголовок : SDH
Язык : English
Default : Нет
Forced : Нет

Текст #3
Идентификатор : 6
Формат : UTF-8
Идентификатор кодека : S_TEXT/UTF8
Идентификатор кодека/Информация : UTF-8 Plain Text
Заголовок : SDH-Colored
Язык : English
Default : Нет
Forced : Нет

Текст #4
Идентификатор : 7
Формат : UTF-8
Идентификатор кодека : S_TEXT/UTF8
Идентификатор кодека/Информация : UTF-8 Plain Text
Заголовок : Comments
Язык : English
Default : Нет
Forced : Нет

Меню
00:00:00.000 : en01)00:00:00:000
00:03:03.391 : en02)00:03:03:391
00:10:25.458 : en03)00:10:25:458
00:20:38.862 : en04)00:20:38:862
00:29:31.102 : en05)00:29:31:102
00:41:30.154 : en06)00:41:30:154
00:49:40.060 : en07)00:49:40:060
00:57:18.977 : en08)00:57:18:977
01:05:28.633 : en09)01:05:28:633
01:10:08.078 : en10)01:10:08:078
01:14:33.302 : en11)01:14:33:302
01:18:06.682 : en12)01:18:06:682
01:21:23.378 : en13)01:21:23:378
01:27:03.134 : en14)01:27:03:134
01:34:43.386 : en15)01:34:43:386
01:40:51.045 : en16)01:40:51:045
Фильм поставлялся в кинотеатры под названием «Парни» (Fellas).
Первоначально фильм получил рейтинг «R» за «сексуальное содержание», но позже был изменен на «PG-13». По словам режиссера Джона Тёртелтауба, изначальный рейтинг «R» был присвоен фильму лишь из-за того, что в нем один раз было произнесено слово «минет».

Ошибки в фильме

Когда Сэм во время вечеринки запирается с девушкой в комнате номера отеля, то он вешает на ручку двери свой галстук. Через пару мгновений отчетливо видно, как подружка Сэма опять снимает галстук с него.
В сцене в бассейне палочка в коктейле Билли то появляется, то исчезает.
Во взятой напрокат машине положение замка на двери водителя меняется без согласования с движениями Сэма.
Когда Сэм роется в аптечке, его вторая пара очков в некоторых кадрах расположена сверху на его голове, а в некоторых исчезает.

Скриншоты:


Время раздачи: круглогодично
[NNM-Club.me]_Last.Vegas.2013.BDRip.1080p.mkv.torrent
 Торрент: Платиновая раздача  Зарегистрирован
 
Скачать


Примагнититься
 Зарегистрирован:   22 Фев 2024 14:43:43
 Размер:   10.6 GB  (
 Рейтинг:   4.6 (Голосов: 59)
 Поблагодарили:   227
 Проверка:   Оформление проверено модератором 22 Фев 2024 14:44:10
•••
ПОЖЕРТВОВАТЬ МНЕ НА ЛЕКАРСТВА И ЛЕЧЕНИЕ | Поддержка меня и моих релизов
Yoomoney ••• 41001324015940
Как cкачать  ·  Как раздать  ·  Правильно оформить  ·  Поднять ратио!  
Mousesports
Стаж: 12 лет 10 мес.
Сообщений: 1787
Ratio: 593.59
Поблагодарили: 34646
100%
Откуда: С берегов невы
russia.gif
Классный фильм!!

_________________
....
Mouse32
Стаж: 11 лет 2 мес.
Сообщений: 97
Ratio: 18.493
100%
confederate.gif
подожду дублежа))
vizzard
Стаж: 10 лет 4 мес.
Сообщений: 268
Ratio: 11.582
100%
nnm-club.gif
Отличный фильм,советую. :клево:
batonchik ®
RG Releasers
Котоаплоадер 15 PB+
Почетный Куратор Видео
Стаж: 16 лет 2 мес.
Сообщений: 26119
Ratio: 58K
Раздал: 15.098 PB
Поблагодарили: 1440485
100%
Откуда: СССР
ussr.gif
Раздача и оформление восстановлено.
Показать сообщения:   
Начать новую тему   Ответить на тему    Торрент-трекер NNM-Club -> Зарубежное кино -> Зарубежные Фильмы (HD, FHD) Часовой пояс: GMT + 3
Страница 1 из 1