Классический форум-трекер
canvas not supported
Нас вместе: 4 233 636

Киево Печерская Лавра (2013) DVDRip


 
 
RSS
Начать новую тему   Ответить на тему    Торрент-трекер NNM-Club -> Документалистика и Телепередачи -> Религии и культы (Док/TV)
Автор Сообщение
kitja6 ®
RG КПК и Мобилки
 
Стаж: 14 лет 1 мес.
Сообщений: 1798
Ratio: 46.451
Раздал: 129.2 TB
Поблагодарили: 38605
100%
Откуда: Санкт-Петербург
ussr.gif
Киево Печерская Лавра
Режиссер: С. Андрюшкин
Год выпуска: 2013
Жанр: Документальный

Описание:
Киево-Печерская Лавра является символом крепости православной веры. Во все времена эта обитель противостояла иноземным захватчикам, насаждению западной культуры и религии; была неоднократно разрушена почти до основания, но возрождалась вновь. В пещерах Киево-Печерской Лавры покоятся мощи сотен святых, таких как Антоний и Феодосий Киево-Печерские, Нестор Летописец, Илья Муромец и т.д.

Продолжительность: 00:35:50
Видеокодек: MPEG-4 AVC
Битрейт видео: ~1 939 Kbps
Размер кадра: 720x576
Аудиокодек: MP3
Битрейт аудио: 256 Kbps
General
Unique ID : 67202273851240923032344311173317243060 (0x328EAFE954C9C7EADB0C332F1925B0B4)
Complete name : M:\МОИ РАЗДАЧИ\КИЕВО_ПЕЧЕРСКАЯ_ЛАВРА.mkv
Format : Matroska
Format version : Version 2
File size : 574 MiB
Duration : 35mn 50s
Overall bit rate : 2 239 Kbps
Writing application : Lavf55.12.100
Writing library : Lavf55.12.100

Video
ID : 2
Format : AVC
Format/Info : Advanced Video Codec
Format profile : Main@L3.0
Format settings, CABAC : Yes
Format settings, ReFrames : 2 frames
Codec ID : V_MPEG4/ISO/AVC
Duration : 35mn 50s
Bit rate : 1 939 Kbps
Width : 720 pixels
Height : 576 pixels
Display aspect ratio : 4:3
Frame rate mode : Constant
Frame rate : 25.000 fps
Standard : PAL
Color space : YUV
Chroma subsampling : 4:2:0
Bit depth : 8 bits
Scan type : Progressive
Bits/(Pixel*Frame) : 0.187
Stream size : 497 MiB (87%)
Default : Yes
Forced : No

Audio
ID : 1
Format : MPEG Audio
Format version : Version 1
Format profile : Layer 3
Mode : Joint stereo
Mode extension : MS Stereo
Codec ID : A_MPEG/L3
Codec ID/Hint : MP3
Duration : 35mn 50s
Bit rate mode : Constant
Bit rate : 256 Kbps
Channel count : 2 channels
Sampling rate : 44.1 KHz
Compression mode : Lossy
Stream size : 65.6 MiB (11%)
Writing library : LAME3.98.4
Default : Yes
Forced : No
Скриншоты:

Киево Печерская Лавра на форуме

Время раздачи: с 14.00 до 22.00
[NNM-Club.me]_KIEVO_PECHERSKAYA_LAVRA.mkv.torrent
 Торрент: Платиновая раздача  Зарегистрирован
 
Скачать


Примагнититься
 Зарегистрирован:   10 Май 2014 11:08:52
 Размер:   574 MB  (
 Рейтинг:   4.4 (Голосов: 42)
 Поблагодарили:   97
 Проверка:   Оформление проверено модератором 13 Май 2014 15:01:41
Как cкачать  ·  Как раздать  ·  Правильно оформить  ·  Поднять ратио!  
bw81
Стаж: 12 лет 10 мес.
Сообщений: 701
Ratio: 2.132
100%
belarus.gif
Спаси Бог раздающего!
royalstag
Стаж: 8 лет 2 мес.
Сообщений: 372
Ratio: 9.572
Раздал: 291 GB
Поблагодарили: 902
100%
russia.gif
обрезанная версия что ли?
Киево Печерская Лавра (2013) DVD5
Показать сообщения:   
Начать новую тему   Ответить на тему    Торрент-трекер NNM-Club -> Документалистика и Телепередачи -> Религии и культы (Док/TV) Часовой пояс: GMT + 3
Страница 1 из 1