Классический форум-трекер
canvas not supported
Нас вместе: 4 172 561

Игорь Тальков - Призвание (1995) [ALAC|Tracks]<Авторская песня>


 
 
RSS
Начать новую тему   Ответить на тему    Торрент-трекер NNM-Club -> Аудио и Видео -> Музыка Lossless (ALAC)
Автор Сообщение
Cecidit ®
Стаж: 7 лет 10 мес.
Сообщений: 129
Ratio: 39.772
Поблагодарили: 8816
100%
Откуда: Москва, МО Щелково
russia.gif
Игорь Тальков - Призвание (1995)
В 1993 г. вдовой Игоря Талькова (1956 - 1991) Татьяной было составлено собрание его записей.
Пятый диск серии

Год: 1995
Жанр: Авторская песня
Продолжительность: 00:48:27

Кодек: ALAC
Битрейт: Lossless
Тип раздачи: Tracks
Обложки: Вшиты
Кодирование: Easy CD-DA Extractor + iTunes
Исходник: APE (Lossless)

Треклист:
01. В океане непонимания
02. Мой брат
03. Самый лучший день
04. Чудак
05. Призвание
06. Поздно
07. Гармония
08. Заискивание
09. Мистер ''X''
10. Этот путь
Код:

Общее
Полное имя                               : /Users/Denis/Library/Containers/net.mediaarea.mediainfo.mac/Data/Music/iTunes/iTunes Media/Music/Игорь Тальков/№5 Призвание/01 В океане непонимания.m4a
Формат                                   : MPEG-4
Профиль формата                          : Apple audio with iTunes info
Идентификатор кодека                     : M4A
Размер файла                             : 21,8 Мбайт
Продолжительность                        : 3 м. 48 с.
Режим общего битрейта                    : Переменный
Общий поток                              : 801 Кбит/сек
Альбом                                   : №5 Призвание
Альбом/Исполнитель                       : Игорь Тальков
Трек                                     : В океане непонимания
Трек/Положение                           : 1
Исполнитель                              : Игорь Тальков
Жанр                                     : Авторская песня
Дата записи                              : 1995
Дата кодирования                         : UTC 2014-05-21 17:26:03
Дата пометки                             : UTC 2014-05-21 21:51:54
Программа кодирования                    : Easy CD-DA Extractor (http://www.poikosoft.com)
Обложка                                  : Yes

Аудио
Идентификатор                            : 1
Формат                                   : ALAC
Идентификатор кодека                     : alac
Идентификатор кодека/Информация          : Apple Lossless Audio Codec
Продолжительность                        : 3 м. 48 с.
Duration_LastFrame                       : -32 мс.
Вид битрейта                             : Переменный
Битрейт                                  : 786 Кбит/сек
Каналы                                   : 2 канала
Частота                                  : 44,1 КГц
Битовая глубина                          : 16 бит
Размер потока                            : 21,4 Мбайт (98%)
Язык                                     : English
Дата кодирования                         : UTC 2014-05-21 17:26:03
Дата пометки                             : UTC 2014-05-21 21:51:54

Общее
Полное имя                               : /Users/Denis/Library/Containers/net.mediaarea.mediainfo.mac/Data/Music/iTunes/iTunes Media/Music/Игорь Тальков/№5 Призвание/02 Мой брат.m4a
Формат                                   : MPEG-4
Профиль формата                          : Apple audio with iTunes info
Идентификатор кодека                     : M4A
Размер файла                             : 28,9 Мбайт
Продолжительность                        : 5 м. 6 с.
Режим общего битрейта                    : Переменный
Общий поток                              : 791 Кбит/сек
Альбом                                   : №5 Призвание
Альбом/Исполнитель                       : Игорь Тальков
Трек                                     : Мой брат
Трек/Положение                           : 2
Исполнитель                              : Игорь Тальков
Жанр                                     : Авторская песня
Дата записи                              : 1995
Дата кодирования                         : UTC 2014-05-21 17:26:03
Дата пометки                             : UTC 2014-05-21 21:51:56
Программа кодирования                    : Easy CD-DA Extractor (http://www.poikosoft.com)
Обложка                                  : Yes

Аудио
Идентификатор                            : 1
Формат                                   : ALAC
Идентификатор кодека                     : alac
Идентификатор кодека/Информация          : Apple Lossless Audio Codec
Продолжительность                        : 5 м. 6 с.
Duration_LastFrame                       : -63 мс.
Вид битрейта                             : Переменный
Битрейт                                  : 779 Кбит/сек
Каналы                                   : 2 канала
Частота                                  : 44,1 КГц
Битовая глубина                          : 16 бит
Размер потока                            : 28,5 Мбайт (99%)
Язык                                     : English
Дата кодирования                         : UTC 2014-05-21 17:26:03
Дата пометки                             : UTC 2014-05-21 21:51:56

Общее
Полное имя                               : /Users/Denis/Library/Containers/net.mediaarea.mediainfo.mac/Data/Music/iTunes/iTunes Media/Music/Игорь Тальков/№5 Призвание/03 Самый лучший день.m4a
Формат                                   : MPEG-4
Профиль формата                          : Apple audio with iTunes info
Идентификатор кодека                     : M4A
Размер файла                             : 25,4 Мбайт
Продолжительность                        : 4 м. 13 с.
Режим общего битрейта                    : Переменный
Общий поток                              : 838 Кбит/сек
Альбом                                   : №5 Призвание
Альбом/Исполнитель                       : Игорь Тальков
Трек                                     : Самый лучший день
Трек/Положение                           : 3
Исполнитель                              : Игорь Тальков
Жанр                                     : Авторская песня
Дата записи                              : 1995
Дата кодирования                         : UTC 2014-05-21 17:27:10
Дата пометки                             : UTC 2014-05-21 21:51:58
Программа кодирования                    : Easy CD-DA Extractor (http://www.poikosoft.com)
Обложка                                  : Yes

Аудио
Идентификатор                            : 1
Формат                                   : ALAC
Идентификатор кодека                     : alac
Идентификатор кодека/Информация          : Apple Lossless Audio Codec
Продолжительность                        : 4 м. 13 с.
Duration_LastFrame                       : -67 мс.
Вид битрейта                             : Переменный
Битрейт                                  : 824 Кбит/сек
Каналы                                   : 2 канала
Частота                                  : 44,1 КГц
Битовая глубина                          : 16 бит
Размер потока                            : 24,9 Мбайт (98%)
Язык                                     : English
Дата кодирования                         : UTC 2014-05-21 17:27:10
Дата пометки                             : UTC 2014-05-21 21:51:58

Общее
Полное имя                               : /Users/Denis/Library/Containers/net.mediaarea.mediainfo.mac/Data/Music/iTunes/iTunes Media/Music/Игорь Тальков/№5 Призвание/04 Чудак.m4a
Формат                                   : MPEG-4
Профиль формата                          : Apple audio with iTunes info
Идентификатор кодека                     : M4A
Размер файла                             : 35,4 Мбайт
Продолжительность                        : 5 м. 31 с.
Режим общего битрейта                    : Переменный
Общий поток                              : 895 Кбит/сек
Альбом                                   : №5 Призвание
Альбом/Исполнитель                       : Игорь Тальков
Трек                                     : Чудак
Трек/Положение                           : 4
Исполнитель                              : Игорь Тальков
Жанр                                     : Авторская песня
Дата записи                              : 1995
Дата кодирования                         : UTC 2014-05-21 17:27:38
Дата пометки                             : UTC 2014-05-21 21:52:00
Программа кодирования                    : Easy CD-DA Extractor (http://www.poikosoft.com)
Обложка                                  : Yes

Аудио
Идентификатор                            : 1
Формат                                   : ALAC
Идентификатор кодека                     : alac
Идентификатор кодека/Информация          : Apple Lossless Audio Codec
Продолжительность                        : 5 м. 31 с.
Duration_LastFrame                       : -73 мс.
Вид битрейта                             : Переменный
Битрейт                                  : 884 Кбит/сек
Каналы                                   : 2 канала
Частота                                  : 44,1 КГц
Битовая глубина                          : 16 бит
Размер потока                            : 35,0 Мбайт (99%)
Язык                                     : English
Дата кодирования                         : UTC 2014-05-21 17:27:38
Дата пометки                             : UTC 2014-05-21 21:52:00

Общее
Полное имя                               : /Users/Denis/Library/Containers/net.mediaarea.mediainfo.mac/Data/Music/iTunes/iTunes Media/Music/Игорь Тальков/№5 Призвание/05 Призвание.m4a
Формат                                   : MPEG-4
Профиль формата                          : Apple audio with iTunes info
Идентификатор кодека                     : M4A
Размер файла                             : 40,4 Мбайт
Продолжительность                        : 6 м. 50 с.
Режим общего битрейта                    : Переменный
Общий поток                              : 826 Кбит/сек
Альбом                                   : №5 Призвание
Альбом/Исполнитель                       : Игорь Тальков
Трек                                     : Призвание
Трек/Положение                           : 5
Исполнитель                              : Игорь Тальков
Жанр                                     : Авторская песня
Дата записи                              : 1995
Дата кодирования                         : UTC 2014-05-21 17:28:59
Дата пометки                             : UTC 2014-05-21 21:52:03
Программа кодирования                    : Easy CD-DA Extractor (http://www.poikosoft.com)
Обложка                                  : Yes

Аудио
Идентификатор                            : 1
Формат                                   : ALAC
Идентификатор кодека                     : alac
Идентификатор кодека/Информация          : Apple Lossless Audio Codec
Продолжительность                        : 6 м. 50 с.
Duration_LastFrame                       : -74 мс.
Вид битрейта                             : Переменный
Битрейт                                  : 817 Кбит/сек
Каналы                                   : 2 канала
Частота                                  : 44,1 КГц
Битовая глубина                          : 16 бит
Размер потока                            : 40,0 Мбайт (99%)
Язык                                     : English
Дата кодирования                         : UTC 2014-05-21 17:28:59
Дата пометки                             : UTC 2014-05-21 21:52:03

Общее
Полное имя                               : /Users/Denis/Library/Containers/net.mediaarea.mediainfo.mac/Data/Music/iTunes/iTunes Media/Music/Игорь Тальков/№5 Призвание/06 Поздно.m4a
Формат                                   : MPEG-4
Профиль формата                          : Apple audio with iTunes info
Идентификатор кодека                     : M4A
Размер файла                             : 27,0 Мбайт
Продолжительность                        : 4 м. 7 с.
Режим общего битрейта                    : Переменный
Общий поток                              : 912 Кбит/сек
Альбом                                   : №5 Призвание
Альбом/Исполнитель                       : Игорь Тальков
Трек                                     : Поздно
Трек/Положение                           : 6
Исполнитель                              : Игорь Тальков
Жанр                                     : Авторская песня
Дата записи                              : 1995
Дата кодирования                         : UTC 2014-05-21 17:30:23
Дата пометки                             : UTC 2014-05-21 21:52:05
Программа кодирования                    : Easy CD-DA Extractor (http://www.poikosoft.com)
Обложка                                  : Yes

Аудио
Идентификатор                            : 1
Формат                                   : ALAC
Идентификатор кодека                     : alac
Идентификатор кодека/Информация          : Apple Lossless Audio Codec
Продолжительность                        : 4 м. 7 с.
Duration_LastFrame                       : -56 мс.
Вид битрейта                             : Переменный
Битрейт                                  : 898 Кбит/сек
Каналы                                   : 2 канала
Частота                                  : 44,1 КГц
Битовая глубина                          : 16 бит
Размер потока                            : 26,5 Мбайт (98%)
Язык                                     : English
Дата кодирования                         : UTC 2014-05-21 17:30:23
Дата пометки                             : UTC 2014-05-21 21:52:05

Общее
Полное имя                               : /Users/Denis/Library/Containers/net.mediaarea.mediainfo.mac/Data/Music/iTunes/iTunes Media/Music/Игорь Тальков/№5 Призвание/07 Гармония.m4a
Формат                                   : MPEG-4
Профиль формата                          : Apple audio with iTunes info
Идентификатор кодека                     : M4A
Размер файла                             : 27,2 Мбайт
Продолжительность                        : 4 м. 33 с.
Режим общего битрейта                    : Переменный
Общий поток                              : 834 Кбит/сек
Альбом                                   : №5 Призвание
Альбом/Исполнитель                       : Игорь Тальков
Трек                                     : Гармония
Трек/Положение                           : 7
Исполнитель                              : Игорь Тальков
Жанр                                     : Авторская песня
Дата записи                              : 1995
Дата кодирования                         : UTC 2014-05-21 17:32:33
Дата пометки                             : UTC 2014-05-21 21:52:07
Программа кодирования                    : Easy CD-DA Extractor (http://www.poikosoft.com)
Обложка                                  : Yes

Аудио
Идентификатор                            : 1
Формат                                   : ALAC
Идентификатор кодека                     : alac
Идентификатор кодека/Информация          : Apple Lossless Audio Codec
Продолжительность                        : 4 м. 33 с.
Duration_LastFrame                       : -22 мс.
Вид битрейта                             : Переменный
Битрейт                                  : 821 Кбит/сек
Каналы                                   : 2 канала
Частота                                  : 44,1 КГц
Битовая глубина                          : 16 бит
Размер потока                            : 26,8 Мбайт (98%)
Язык                                     : English
Дата кодирования                         : UTC 2014-05-21 17:32:33
Дата пометки                             : UTC 2014-05-21 21:52:07

Общее
Полное имя                               : /Users/Denis/Library/Containers/net.mediaarea.mediainfo.mac/Data/Music/iTunes/iTunes Media/Music/Игорь Тальков/№5 Призвание/08 Заискивание.m4a
Формат                                   : MPEG-4
Профиль формата                          : Apple audio with iTunes info
Идентификатор кодека                     : M4A
Размер файла                             : 27,3 Мбайт
Продолжительность                        : 4 м. 27 с.
Режим общего битрейта                    : Переменный
Общий поток                              : 858 Кбит/сек
Альбом                                   : №5 Призвание
Альбом/Исполнитель                       : Игорь Тальков
Трек                                     : Заискивание
Трек/Положение                           : 8
Исполнитель                              : Игорь Тальков
Жанр                                     : Авторская песня
Дата записи                              : 1995
Дата кодирования                         : UTC 2014-05-21 17:34:26
Дата пометки                             : UTC 2014-05-21 21:52:09
Программа кодирования                    : Easy CD-DA Extractor (http://www.poikosoft.com)
Обложка                                  : Yes

Аудио
Идентификатор                            : 1
Формат                                   : ALAC
Идентификатор кодека                     : alac
Идентификатор кодека/Информация          : Apple Lossless Audio Codec
Продолжительность                        : 4 м. 27 с.
Duration_LastFrame                       : -41 мс.
Вид битрейта                             : Переменный
Битрейт                                  : 845 Кбит/сек
Каналы                                   : 2 канала
Частота                                  : 44,1 КГц
Битовая глубина                          : 16 бит
Размер потока                            : 26,9 Мбайт (98%)
Язык                                     : English
Дата кодирования                         : UTC 2014-05-21 17:34:26
Дата пометки                             : UTC 2014-05-21 21:52:09

Общее
Полное имя                               : /Users/Denis/Library/Containers/net.mediaarea.mediainfo.mac/Data/Music/iTunes/iTunes Media/Music/Игорь Тальков/№5 Призвание/09 Мистер ''X''.m4a
Формат                                   : MPEG-4
Профиль формата                          : Apple audio with iTunes info
Идентификатор кодека                     : M4A
Размер файла                             : 27,9 Мбайт
Продолжительность                        : 4 м. 36 с.
Режим общего битрейта                    : Переменный
Общий поток                              : 846 Кбит/сек
Альбом                                   : №5 Призвание
Альбом/Исполнитель                       : Игорь Тальков
Трек                                     : Мистер ''X''
Трек/Положение                           : 9
Исполнитель                              : Игорь Тальков
Жанр                                     : Авторская песня
Дата записи                              : 1995
Дата кодирования                         : UTC 2014-05-21 17:37:34
Дата пометки                             : UTC 2014-05-21 21:52:11
Программа кодирования                    : Easy CD-DA Extractor (http://www.poikosoft.com)
Обложка                                  : Yes

Аудио
Идентификатор                            : 1
Формат                                   : ALAC
Идентификатор кодека                     : alac
Идентификатор кодека/Информация          : Apple Lossless Audio Codec
Продолжительность                        : 4 м. 36 с.
Duration_LastFrame                       : -89 мс.
Вид битрейта                             : Переменный
Битрейт                                  : 833 Кбит/сек
Каналы                                   : 2 канала
Частота                                  : 44,1 КГц
Битовая глубина                          : 16 бит
Размер потока                            : 27,5 Мбайт (98%)
Язык                                     : English
Дата кодирования                         : UTC 2014-05-21 17:37:34
Дата пометки                             : UTC 2014-05-21 21:52:11

Общее
Полное имя                               : /Users/Denis/Library/Containers/net.mediaarea.mediainfo.mac/Data/Music/iTunes/iTunes Media/Music/Игорь Тальков/№5 Призвание/10 Этот путь.m4a
Формат                                   : MPEG-4
Профиль формата                          : Apple audio with iTunes info
Идентификатор кодека                     : M4A
Размер файла                             : 31,6 Мбайт
Продолжительность                        : 5 м. 10 с.
Режим общего битрейта                    : Переменный
Общий поток                              : 854 Кбит/сек
Альбом                                   : №5 Призвание
Альбом/Исполнитель                       : Игорь Тальков
Трек                                     : Этот путь
Трек/Положение                           : 10
Исполнитель                              : Игорь Тальков
Жанр                                     : Авторская песня
Дата записи                              : 1995
Дата кодирования                         : UTC 2014-05-21 17:39:41
Дата пометки                             : UTC 2014-05-21 21:52:16
Программа кодирования                    : Easy CD-DA Extractor (http://www.poikosoft.com)
Обложка                                  : Yes

Аудио
Идентификатор                            : 1
Формат                                   : ALAC
Идентификатор кодека                     : alac
Идентификатор кодека/Информация          : Apple Lossless Audio Codec
Продолжительность                        : 5 м. 10 с.
Duration_LastFrame                       : -43 мс.
Вид битрейта                             : Переменный
Битрейт                                  : 843 Кбит/сек
Каналы                                   : 2 канала
Частота                                  : 44,1 КГц
Битовая глубина                          : 16 бит
Размер потока                            : 31,2 Мбайт (99%)
Язык                                     : English
Дата кодирования                         : UTC 2014-05-21 17:39:41
Дата пометки                             : UTC 2014-05-21 21:52:16
Код:

-----------------------

DON'T MODIFY THIS FILE

-----------------------

PERFORMER: auCDtect Task Manager, ver. 1.6.0 RC1 build 1.6.0.1
Copyright (c) 2008-2010 y-soft. All rights reserved
http://y-soft.org

ANALYZER: auCDtect: CD records authenticity detector, version 0.8.2
Copyright (c) 2004 Oleg Berngardt. All rights reserved.
Copyright (c) 2004 Alexander Djourik. All rights reserved.

FILE: 10 Этот путь.m4a
  Size: 33186954 Hash: 455DE7944FBBCF7C007DFF9CACDEABDC Accuracy: -m8
  Conclusion: CDDA 100%
  Signature: 8772D6F7C33A861EFC79E79D7D1E45DC0E1D5CAF
FILE: 09 Мистер ''X''.m4a
  Size: 29264629 Hash: 78C516EDF6B8C63C8CEA8505BB3F5863 Accuracy: -m8
  Conclusion: CDDA 100%
  Signature: 287167E357C97B2E8133BCD368BF13B4AEFF5B86
FILE: 08 Заискивание.m4a
  Size: 28676429 Hash: 67248E4E5230C125628B830DFDE0B8AD Accuracy: -m8
  Conclusion: CDDA 99%
  Signature: B66EF7380DA092FCAC42F25CD6F7804F6E42B1CF
FILE: 07 Гармония.m4a
  Size: 28562788 Hash: B6FB6DFE0C34D797A3BF907DE48AB157 Accuracy: -m8
  Conclusion: CDDA 100%
  Signature: 2931973089FEB19AA162C453556EEA8DA7DF7B46
FILE: 06 Поздно.m4a
  Size: 28262691 Hash: 52FF0BAD371B4824D50C782DA5F4D687 Accuracy: -m8
  Conclusion: CDDA 100%
  Signature: 2BD357694D58364F87A80180D93B791ED8AE73FF
FILE: 05 Призвание.m4a
  Size: 42412049 Hash: 63BC5543B328906E5A73458CE275A8FA Accuracy: -m8
  Conclusion: CDDA 100%
  Signature: 8878368F74BF85D925BDC21EFCCE573F33B3FE1B
FILE: 04 Чудак.m4a
  Size: 37117178 Hash: E5FFAFCDA21EFF042D9B62AA0A1DFBA8 Accuracy: -m8
  Conclusion: CDDA 100%
  Signature: FE2D01E2161CBDD9F7A833F1CAC8E52FE2E15AA9
FILE: 03 Самый лучший день.m4a
  Size: 26589626 Hash: DEAA645FF9C24C7B9C511686459AE7F3 Accuracy: -m8
  Conclusion: CDDA 100%
  Signature: CDDEBE26A86ADF7A96F4290C0F79494A95F70B1B
FILE: 02 Мой брат.m4a
  Size: 30311997 Hash: E02F2CF1F63036178566DDDB7287DAA8 Accuracy: -m8
  Conclusion: CDDA 100%
  Signature: 1E755D911FB8D770A588B7A0103BF76E239598B0
FILE: 01 В океане непонимания.m4a
  Size: 22868479 Hash: 4C612C9FA3593F226AD6E3A6B9FF01BB Accuracy: -m8
  Conclusion: CDDA 100%
  Signature: 16E9F7945039B6CC4394E8330994F145811FA53F
Этот мир - первый диск
Ностальгия - второй диск
Я вернусь - третий диск
Моя любовь - четвертый диск
Последний концерт - шестой диск

Время раздачи: с 20:00 до 03:00 постоянно / часто 24/7 - До первых 5 скачавших
[NNM-Club.me]_Igor' Tal'kov (1995) №5 Prizvanie.torrent
 Торрент: Платиновая раздача  Зарегистрирован
 
Скачать


Примагнититься
 Зарегистрирован:   22 Май 2014 04:35:44
 Размер:   293 MB  (
 Рейтинг:   4.1 (Голосов: 41)
 Поблагодарили:   84
 Проверка:   Оформление проверено модератором 22 Май 2014 22:27:16
Как cкачать  ·  Как раздать  ·  Правильно оформить  ·  Поднять ратио!  
mechtirina
Стаж: 9 лет 11 мес.
Сообщений: 44
Ratio: 7.505
100%
russia.gif
порадовали спасибо большое
Cecidit ®
Стаж: 7 лет 10 мес.
Сообщений: 129
Ratio: 39.772
Поблагодарили: 8816
100%
Откуда: Москва, МО Щелково
russia.gif
mechtirina писал(а): Перейти к сообщению
порадовали спасибо большое

Не за что.
Показать сообщения:   
Начать новую тему   Ответить на тему    Торрент-трекер NNM-Club -> Аудио и Видео -> Музыка Lossless (ALAC) Часовой пояс: GMT + 3
Страница 1 из 1