Классический форум-трекер
canvas not supported
Нас вместе: 4 172 091

Игорь Тальков - Лирика (Часть первая) (2003) [ALAC|Tracks]<Авторская песня>


 
 
RSS
Начать новую тему   Ответить на тему    Торрент-трекер NNM-Club -> Аудио и Видео -> Музыка Lossless (ALAC)
Автор Сообщение
Cecidit ®
Стаж: 7 лет 10 мес.
Сообщений: 129
Ratio: 39.772
Поблагодарили: 8816
100%
Откуда: Москва, МО Щелково
russia.gif
Игорь Тальков - Лирика (Часть первая) (2003)
Год: 2003
Жанр: Авторская песня
Продолжительность: 00:59:18

Кодек: ALAC
Битрейт: Lossless
Тип раздачи: Tracks
Обложки: Вшиты
Тексты: Вшиты
Кодирование: XLD + iTunes

Треклист:
01. Разговоры ни о чем
02. Моя любовь
03. Звезда
04. Ты опоздала
05. Летний дождь
06. Маленькая планета
07. Память
08. Love you (я тебя люблю)
09. Праздник
10. Саквояж
11. Три дома
Код:

Общее
Полное имя                               : /Users/Denis/Library/Containers/net.mediaarea.mediainfo.mac/Data/Music/iTunes/iTunes Media/Music/Игорь Тальков/Лирика (Часть 1) (Remastering)/01 Разговоры ни о чем.m4a
Формат                                   : MPEG-4
Профиль формата                          : Apple audio with iTunes info
Идентификатор кодека                     : M4A
Размер файла                             : 27,3 Мбайт
Продолжительность                        : 5 м. 18 с.
Режим общего битрейта                    : Переменный
Общий поток                              : 719 Кбит/сек
Альбом                                   : Лирика (Часть 1) (Remastering)
Альбом/Исполнитель                       : Игорь Тальков
Трек                                     : Разговоры ни о чем
Трек/Положение                           : 1
Трек/Всего                               : 11
Исполнитель                              : Игорь Тальков
Жанр                                     : Авторская песня
Дата записи                              : 2003
Дата кодирования                         : UTC 2009-04-11 02:47:04
Дата пометки                             : UTC 2014-05-21 11:42:26
Программа кодирования                    : iTunes 8.1.0.52
Обложка                                  : Yes
Текст песен                              : Разговоры ни о чём /  / Слова: И. Тальков  / Исп.: Игорь Тальков  / Разговоры ни о чём / Пресным бьют в тебе ключом / И беспомощно пытаются пробиться / В мои мысли. / Ну а мысли за окном / Тихо шепчутся с дождём / И купаются в слезинках мокрых листьев, / Мои мысли... /  / Я беседу поддержу / И с тобою посижу, / Понимающе кивая головою. / Здесь есть ты, / Меня - нет, / Между нами сотни лет, / Этот сказочный рассвет / И дождь с листвою. /  / Разговоры ни о чём... / Ну а как назвать ещё / Эти скучные вопросы и ответы / О погоде и цветах, / И несбывшихся мечтах, / И о том, какое пасмурное лето. / Вопросы и ответы... /  / Но я беседу поддержу / И с тобою посижу, / Понимающе кивая головою. / Здесь есть ты, / Меня - нет, / Между нами сотни лет, / Этот сказочный рассвет / И дождь с листвою. /  / Разговоры ни о чём... / Только я здесь ни при чём, / Я давно ушёл в глубокое молчанье, / За собой захлопнул дверь, / И никто меня теперь, / Никто / Не обременит больным воспоминаньем. /  / Я беседу поддержу / И с тобою посижу, / Понимающе кивая головою. / Здесь есть ты, / Меня - нет, / Между нами сотни лет, / Этот сказочный рассвет / И дождь с листвою. /  / И отрадно сознавать, / Как беспомощна кровать / В возбуждении живого интереса / К разговору ни о чём, / И на голое плечо / Я смотрю, как на прочитанную прессу... / Никакого интереса. /  / Я беседу поддержу / И с тобою посижу, / Понимающе кивая головою. / Здесь есть ты, / Меня - нет, / Между нами сотни лет, / Этот сказочный рассвет / И дождь с листвою. /  / И свободно так дышать, / И не хочется бежать / От тебя и от себя, как было прежде. / Отгораживает дверь / От бесчисленных потерь / И от страха потерять / Свою надежду. /  / 1981
Encoding Params                          : (Binary)

Аудио
Идентификатор                            : 1
Формат                                   : ALAC
Идентификатор кодека                     : alac
Идентификатор кодека/Информация          : Apple Lossless Audio Codec
Продолжительность                        : 5 м. 18 с.
Duration_LastFrame                       : -43 мс.
Вид битрейта                             : Переменный
Битрейт                                  : 709 Кбит/сек
Каналы                                   : 2 канала
Частота                                  : 44,1 КГц
Битовая глубина                          : 16 бит
Размер потока                            : 26,9 Мбайт (99%)
Дата кодирования                         : UTC 2009-04-11 02:47:04
Дата пометки                             : UTC 2014-05-21 11:42:26

Общее
Полное имя                               : /Users/Denis/Library/Containers/net.mediaarea.mediainfo.mac/Data/Music/iTunes/iTunes Media/Music/Игорь Тальков/Лирика (Часть 1) (Remastering)/02 Моя любовь.m4a
Формат                                   : MPEG-4
Профиль формата                          : Apple audio with iTunes info
Идентификатор кодека                     : M4A
Размер файла                             : 27,8 Мбайт
Продолжительность                        : 4 м. 55 с.
Режим общего битрейта                    : Переменный
Общий поток                              : 791 Кбит/сек
Альбом                                   : Лирика (Часть 1) (Remastering)
Альбом/Исполнитель                       : Игорь Тальков
Трек                                     : Моя любовь
Трек/Положение                           : 2
Трек/Всего                               : 11
Исполнитель                              : Игорь Тальков
Жанр                                     : Авторская песня
Дата записи                              : 2003
Дата кодирования                         : UTC 2009-04-11 02:47:18
Дата пометки                             : UTC 2014-05-21 11:42:28
Программа кодирования                    : iTunes 8.1.0.52
Обложка                                  : Yes
Текст песен                              : Моя любовь  /  / Все как будто шло своим путем,  / Медленно и верно:  / Успех в делах, семья и дом  / Лечили раненые нервы,  / Не будили звездные дожди  / Моего воображенья,  / И превратились виражи  / В плавное скольженье.  /  / Скажи, откуда ты взялась,  / Моя нечаянная радость,  / Несвоевременная страсть,  / Горькая, а сладость?  / Нарушив мой земной покой,  / Ты от какой отбилась стаи,  / И, что мне делать с тобой такой,  / Я не знаю.  /  / Вздрогнул, как от выстрела, мой дом,  / Стены закачало,  / Когда в окно твоим крылом  / Счастье постучало.  / Понимал ли дом, что он теперь  / Для меня стал тесен,  / Оставив незакрытой дверь  / И окон не завесив.  /  / Скажи, откуда ты взялась  / И опоздать не испугалась,  / Моя неведомая страсть,  / Моя нечаянная радость,  / Нарушив мой земной покой,  / Ты от какой отбилась стаи,  / И, что мне делать с тобой такой,  / Я не знаю.  /  / Мой уютный замок из песка  / Стал как будто ниже,  / И заменили облака  / Рухнувшую крышу.  / Ты смотрела, как под крышей той  / Разгорались страсти,  / Сказав, что на беде чужой  / Мы не построим счастья.  /  / Да я бы мог, конечно, отпустить  / Тебя, но это не поможет  / Чужому горю, ведь простить  / Меня мой дом уже не сможет;  / Расстаться можно и любя,  / Боль рассосется понемногу,  / Но только, обманув себя,  / Мы обмануть не сможем Бога.  /  / Скажи, откуда ты взялась?!!  / Нарушив мой земной покой,  / Ты от какой отбилась стаи,  / И, что мне делать с тобой такой?  / Не знаю!
Encoding Params                          : (Binary)

Аудио
Идентификатор                            : 1
Формат                                   : ALAC
Идентификатор кодека                     : alac
Идентификатор кодека/Информация          : Apple Lossless Audio Codec
Продолжительность                        : 4 м. 55 с.
Duration_LastFrame                       : -13 мс.
Вид битрейта                             : Переменный
Битрейт                                  : 780 Кбит/сек
Каналы                                   : 2 канала
Частота                                  : 44,1 КГц
Битовая глубина                          : 16 бит
Размер потока                            : 27,4 Мбайт (99%)
Дата кодирования                         : UTC 2009-04-11 02:47:18
Дата пометки                             : UTC 2014-05-21 11:42:28

Общее
Полное имя                               : /Users/Denis/Library/Containers/net.mediaarea.mediainfo.mac/Data/Music/iTunes/iTunes Media/Music/Игорь Тальков/Лирика (Часть 1) (Remastering)/03 Звезда.m4a
Формат                                   : MPEG-4
Профиль формата                          : Apple audio with iTunes info
Идентификатор кодека                     : M4A
Размер файла                             : 42,1 Мбайт
Продолжительность                        : 6 м. 7 с.
Режим общего битрейта                    : Переменный
Общий поток                              : 960 Кбит/сек
Альбом                                   : Лирика (Часть 1) (Remastering)
Альбом/Исполнитель                       : Игорь Тальков
Трек                                     : Звезда
Трек/Положение                           : 3
Трек/Всего                               : 11
Исполнитель                              : Игорь Тальков
Жанр                                     : Авторская песня
Дата записи                              : 2003
Дата кодирования                         : UTC 2009-04-11 02:47:36
Дата пометки                             : UTC 2014-05-21 11:42:31
Программа кодирования                    : iTunes 8.1.0.52
Обложка                                  : Yes
Текст песен                              : ЗВЕЗДА /  / Ты восходила в небе унылом, / Грустившим осенним дождём, / И ночь удивилась, когда озарилась / Твоим необычным огнём, / И всё ожило, и всё заиграло, / Как будто настала весна / И небо свой цвет, прежний цвет обретало, / Очнувшись от долгого сна. / Светила тогда ты всем заблудшим, / Теплом согревая остывшие души, /                               Звезда. / Звёздочки те, что не проснулись, / Даже во сне к тебе тянулись, /                             Звезда. / Но вот пролетели быстрые годы, / Успевшие всё изменить. / И ты так внезапно ушла с небосвода, / Как будто устала светить. / Чем дальше, тем меньше твой свет проникает / В сердца полюбивших тебя: / Они понимают - не понимая / И любят тебя - нне любя. /  / Ты светишь себе, себе - и только, / Холодный твой свет не греет нисколько, /                                        Звезда. / А свет новых звёзд куда вернее, / Всё ярче они, а ты бледнее, /                            Звезда. /                                   Звезда...Звезда...
Encoding Params                          : (Binary)

Аудио
Идентификатор                            : 1
Формат                                   : ALAC
Идентификатор кодека                     : alac
Идентификатор кодека/Информация          : Apple Lossless Audio Codec
Продолжительность                        : 6 м. 7 с.
Duration_LastFrame                       : -6 мс.
Вид битрейта                             : Переменный
Битрейт                                  : 951 Кбит/сек
Каналы                                   : 2 канала
Частота                                  : 44,1 КГц
Битовая глубина                          : 16 бит
Размер потока                            : 41,7 Мбайт (99%)
Дата кодирования                         : UTC 2009-04-11 02:47:36
Дата пометки                             : UTC 2014-05-21 11:42:31

Общее
Полное имя                               : /Users/Denis/Library/Containers/net.mediaarea.mediainfo.mac/Data/Music/iTunes/iTunes Media/Music/Игорь Тальков/Лирика (Часть 1) (Remastering)/04 Ты опоздала.m4a
Формат                                   : MPEG-4
Профиль формата                          : Apple audio with iTunes info
Идентификатор кодека                     : M4A
Размер файла                             : 31,9 Мбайт
Продолжительность                        : 5 м. 9 с.
Режим общего битрейта                    : Переменный
Общий поток                              : 866 Кбит/сек
Альбом                                   : Лирика (Часть 1) (Remastering)
Альбом/Исполнитель                       : Игорь Тальков
Трек                                     : Ты опоздала
Трек/Положение                           : 4
Трек/Всего                               : 11
Исполнитель                              : Игорь Тальков
Жанр                                     : Авторская песня
Дата записи                              : 2003
Дата кодирования                         : UTC 2009-04-11 02:47:53
Дата пометки                             : UTC 2014-05-21 11:42:33
Программа кодирования                    : iTunes 8.1.0.52
Обложка                                  : Yes
Текст песен                              : Ты опоздала /  / Исп.: Игорь Тальков  /    Не смотри на меня с грустью, все пройдет - пустяки  /    Просто нас занесло в устье фатальной реки  /    Опьяненные нашей встречей, мы забыли с тобой  /    Что день караулил вечер, а отливы - прибой  /      /    Все, все происходит в мире не так  /    По чьей-то неведомой нам воле  /    А так, как должно быть, только в мечтах  /    В наших мечтах - но не боле  /      /    Не смотри на меня с печалью. Час прощанья пробит  /    Мы же знали про все вначале, только делали вид  /    Что не чувствуем чужой боли и что бог нас простит  /    За классический теугольник и за слезы обид  /      /    Но ты опоздала, а не она  /    Та, что пришла до тебя  /    А жизнь нам осталась что-то должна  /    Коль мы расстаемся любя  /      /    Все, все происходит в мире не так  /    По чьей-то неведомой нам воле  /    А так, как должно быть, только в мечтах  /    В наших мечтах - но не боле  /    Но ты опоздала, а не она  /    Та, что пришла до тебя  /    А жизнь нам осталась что-то должна  /    Коль мы расстаемся любя
Encoding Params                          : (Binary)

Аудио
Идентификатор                            : 1
Формат                                   : ALAC
Идентификатор кодека                     : alac
Идентификатор кодека/Информация          : Apple Lossless Audio Codec
Продолжительность                        : 5 м. 9 с.
Duration_LastFrame                       : -10 мс.
Вид битрейта                             : Переменный
Битрейт                                  : 855 Кбит/сек
Каналы                                   : 2 канала
Частота                                  : 44,1 КГц
Битовая глубина                          : 16 бит
Размер потока                            : 31,5 Мбайт (99%)
Дата кодирования                         : UTC 2009-04-11 02:47:53
Дата пометки                             : UTC 2014-05-21 11:42:33

Общее
Полное имя                               : /Users/Denis/Library/Containers/net.mediaarea.mediainfo.mac/Data/Music/iTunes/iTunes Media/Music/Игорь Тальков/Лирика (Часть 1) (Remastering)/05 Летний дождь.m4a
Формат                                   : MPEG-4
Профиль формата                          : Apple audio with iTunes info
Идентификатор кодека                     : M4A
Размер файла                             : 54,9 Мбайт
Продолжительность                        : 8 м. 38 с.
Режим общего битрейта                    : Переменный
Общий поток                              : 888 Кбит/сек
Альбом                                   : Лирика (Часть 1) (Remastering)
Альбом/Исполнитель                       : Игорь Тальков
Трек                                     : Летний дождь
Трек/Положение                           : 5
Трек/Всего                               : 11
Исполнитель                              : Игорь Тальков
Жанр                                     : Авторская песня
Дата записи                              : 2003
Дата кодирования                         : UTC 2009-04-11 02:48:07
Дата пометки                             : UTC 2014-05-21 11:42:36
Программа кодирования                    : iTunes 8.1.0.52
Обложка                                  : Yes
Текст песен                              : Летний дождь /  / Слова: И. Тальков  / Музыка: И. Тальков  / Исп.: Игорь Тальков  / Память уже не жалит, / Мысли не бьют по рукам, / Я тебя провожаю / К другим берегам. / Ты – перелётная птица, / Счастье ищешь в пути, / Приходишь, чтобы проститься / И снова уйти. / Лети. /  / Летний дождь, летний дождь / Начался сегодня рано. / Летний дождь, летний дождь / Моей души омоет рану. / Мы погрустим с ним вдвоём / У слепого окна. / Летний дождь, летний дождь / Шепчет мне легко и просто, / Что придёшь, ты придёшь, / Ты придёшь, но будет поздно, / Несвоевременность – вечная драма, / Где есть ОН и ОНА. /  / Ты перестанешь мне сниться / Скоро совсем, а потом / Новой мечтой загорится остывший мой дом. / Что от любви любви не ищут, / Ты с годами поймёшь, / Ну, а сейчас ты не слышишь и тебя не вернёшь. /  / Летний дождь, летний дождь / Начался сегодня рано. / Летний дождь, летний дождь / Моей души омоет рану. / Мы погрустим с ним вдвоём / У слепого окна. / Летний дождь, летний дождь / Шепчет мне легко и просто, / Что придёшь, ты придёшь, / Ты придёшь, но будет поздно, / Несвоевременность – вечная драма, / Где есть ОН и ОНА. / 2. -7. 1990
Encoding Params                          : (Binary)

Аудио
Идентификатор                            : 1
Формат                                   : ALAC
Идентификатор кодека                     : alac
Идентификатор кодека/Информация          : Apple Lossless Audio Codec
Продолжительность                        : 8 м. 38 с.
Duration_LastFrame                       : -69 мс.
Вид битрейта                             : Переменный
Битрейт                                  : 882 Кбит/сек
Каналы                                   : 2 канала
Частота                                  : 44,1 КГц
Битовая глубина                          : 16 бит
Размер потока                            : 54,5 Мбайт (99%)
Дата кодирования                         : UTC 2009-04-11 02:48:07
Дата пометки                             : UTC 2014-05-21 11:42:36

Общее
Полное имя                               : /Users/Denis/Library/Containers/net.mediaarea.mediainfo.mac/Data/Music/iTunes/iTunes Media/Music/Игорь Тальков/Лирика (Часть 1) (Remastering)/06 Маленькая планета.m4a
Формат                                   : MPEG-4
Профиль формата                          : Apple audio with iTunes info
Идентификатор кодека                     : M4A
Размер файла                             : 31,8 Мбайт
Продолжительность                        : 4 м. 48 с.
Режим общего битрейта                    : Переменный
Общий поток                              : 922 Кбит/сек
Альбом                                   : Лирика (Часть 1) (Remastering)
Альбом/Исполнитель                       : Игорь Тальков
Трек                                     : Маленькая планета
Трек/Положение                           : 6
Трек/Всего                               : 11
Исполнитель                              : Игорь Тальков
Жанр                                     : Авторская песня
Дата записи                              : 2003
Дата кодирования                         : UTC 2009-04-11 02:48:34
Дата пометки                             : UTC 2014-05-21 11:42:38
Программа кодирования                    : iTunes 8.1.0.52
Обложка                                  : Yes
Текст песен                              : Маленькая планета /  / Исп.: Игорь Тальков  /    Черная бездна, звездная пыль  /    Холодом дышит вечность  /    Переплетая сказку и быль  /    Миг и бесконечность  /      /    Кто-то когда-то задал маршрут  /    Не объяснив секрета  /    И совершает неведомый путь  /    Маленькая планета  /      /    Крутится, вертится шар голубой  /    Нас на груди качая  /    Крутится, вертится не для того  /    Чтоб все начинать сначала  /      /    В окруженье стаи вездесущих ракет  /    Так нелегко вращаться  /    Все-таки пять миллионов лет  /    Отдано цивилизации  /      /    Мелкою дрожью на полюсах  /    Дает себя знать усталость  /    И застывает вопрос на устах  /    "А сколько еще осталось ?"  /      /    Крутится, вертится шар голубой  /    Нас на груди качая  /    Крутится, вертится не для того  /    Чтоб все начинать сначала  /      /    Кто-то когда-то задал маршрут  /    Не объяснив секрета  /    И совершает неведомый путь  /    Маленькая планета  /      /    На полюсах все сильнее дрожит  /    Движется по зигзагу  /    Словно пытаясь нас удержать  /    От рокового шага  /      /    Крутится, вертится шар голубой  /    Нас на груди качая  /    Крутится, вертится не для того  /    Чтоб все начинать сначала
Encoding Params                          : (Binary)

Аудио
Идентификатор                            : 1
Формат                                   : ALAC
Идентификатор кодека                     : alac
Идентификатор кодека/Информация          : Apple Lossless Audio Codec
Продолжительность                        : 4 м. 48 с.
Duration_LastFrame                       : -42 мс.
Вид битрейта                             : Переменный
Битрейт                                  : 911 Кбит/сек
Каналы                                   : 2 канала
Частота                                  : 44,1 КГц
Битовая глубина                          : 16 бит
Размер потока                            : 31,4 Мбайт (99%)
Дата кодирования                         : UTC 2009-04-11 02:48:34
Дата пометки                             : UTC 2014-05-21 11:42:38

Общее
Полное имя                               : /Users/Denis/Library/Containers/net.mediaarea.mediainfo.mac/Data/Music/iTunes/iTunes Media/Music/Игорь Тальков/Лирика (Часть 1) (Remastering)/07 Память.m4a
Формат                                   : MPEG-4
Профиль формата                          : Apple audio with iTunes info
Идентификатор кодека                     : M4A
Размер файла                             : 22,2 Мбайт
Продолжительность                        : 4 м. 9 с.
Режим общего битрейта                    : Переменный
Общий поток                              : 748 Кбит/сек
Альбом                                   : Лирика (Часть 1) (Remastering)
Альбом/Исполнитель                       : Игорь Тальков
Трек                                     : Память
Трек/Положение                           : 7
Трек/Всего                               : 11
Исполнитель                              : Игорь Тальков
Жанр                                     : Авторская песня
Дата записи                              : 2003
Дата кодирования                         : UTC 2009-04-11 02:48:45
Дата пометки                             : UTC 2014-05-21 11:42:40
Программа кодирования                    : iTunes 8.1.0.52
Обложка                                  : Yes
Текст песен                              : Память  /  / Когда зажигаются звезды в небе ночном,  / Память непрошенным гостем входит в мой дом:  / Тихо войдет, свечи зажжет, музыку включит  / И беседу начнет.  /  / В эту минуту твои оживают глаза,  / В них, как и прежде, невольно таится слеза,  / Смотрят с надеждой, смотрят любя:  / Вот и опять я с тобою и - без тебя.  /  / Вот и опять я с тобою и - без тебя.  /  / Я приглашу на танец Память,  / И мы закружимся вдвоем,  / И вместе с нами, вместе с нами  / Помолодеет старый дом,  / Ну а когда погаснут свечи  / И за окном рассвет вздохнет,  / Произнесет: "До скорой встречи", -  / Мне тихо Память и уйдет.  /  / Когда зажигаются звезды в небе ночном,  / Память непрошенным гостем входит в мой дом:  / Кружатся даты, свечи горят,  / В рамке багетной опять оживает твой взгляд.  /  / Так продолжается каждую, каждую ночь,  / Ты далеко от меня и не можешь помочь,  / Ты так стремишься найти свое счастье с другим,  / Ты далека от меня и несчастлива с ним.  /  / Ты далека от меня и несчастлива с ним.  /  / Я приглашу на танец Память,  / И мы закружимся вдвоем,  / И вместе с нами, вместе с нами  / Помолодеет старый дом,  / Ну а когда погаснут свечи  / И за окном рассвет вздохнет,  / Произнесет: "До скорой встречи", -  / Мне тихо Память и уйдет.  /  / Я приглашу на танец Память...
Encoding Params                          : (Binary)

Аудио
Идентификатор                            : 1
Формат                                   : ALAC
Идентификатор кодека                     : alac
Идентификатор кодека/Информация          : Apple Lossless Audio Codec
Продолжительность                        : 4 м. 9 с.
Duration_LastFrame                       : -35 мс.
Вид битрейта                             : Переменный
Битрейт                                  : 735 Кбит/сек
Каналы                                   : 2 канала
Частота                                  : 44,1 КГц
Битовая глубина                          : 16 бит
Размер потока                            : 21,8 Мбайт (98%)
Дата кодирования                         : UTC 2009-04-11 02:48:45
Дата пометки                             : UTC 2014-05-21 11:42:40

Общее
Полное имя                               : /Users/Denis/Library/Containers/net.mediaarea.mediainfo.mac/Data/Music/iTunes/iTunes Media/Music/Игорь Тальков/Лирика (Часть 1) (Remastering)/09 Праздник.m4a
Формат                                   : MPEG-4
Профиль формата                          : Apple audio with iTunes info
Идентификатор кодека                     : M4A
Размер файла                             : 35,1 Мбайт
Продолжительность                        : 5 м. 45 с.
Режим общего битрейта                    : Переменный
Общий поток                              : 851 Кбит/сек
Альбом                                   : Лирика (Часть 1) (Remastering)
Альбом/Исполнитель                       : Игорь Тальков
Трек                                     : Праздник
Трек/Положение                           : 9
Трек/Всего                               : 11
Исполнитель                              : Игорь Тальков
Жанр                                     : Авторская песня
Дата записи                              : 2003
Дата кодирования                         : UTC 2009-04-11 02:49:10
Дата пометки                             : UTC 2014-05-21 11:42:45
Программа кодирования                    : iTunes 8.1.0.52
Обложка                                  : Yes
Текст песен                              : Праздник /  / Исп.: Игорь Тальков  /    Милая, сегодня праздник  /    День открытых дверей  /    День открытых дверей  /    В забытом доме  /    Милая, невероятно  /    То, что мне так повезло  /    И я ощущаю тепло  /    Твоей ладони  /      /    День  /    День и ночь, ночь и день  /    Ожидал, я всегда ожидал  /    Эту встречу  /    Тихо скользили года  /    Угасая вдали без следа  /    А я ждал этот вечер  /    Пусть между нами стена  /    У тебя я один, у меня ты одна  /    Даже пусть за стеною  /    И не наша вина в том, что жизнь так сложна  /    И что я не с тобой  /    И ты не со мною  /      /    Милая, но мы не будем  /    Дом возводить из песка  /    И летать в облака  /    С тобой не будем  /    Милая, но сегодня праздник  /    Завтра закружат тебя  /    Нежность твою губя  /    Скупые будни, будни  /      /    День  /    День и ночь, ночь и день  /    Ожидал, я всегда ожидал  /    Эту встречу  /    Тихо скользили года  /    Угасая вдали без следа  /    А я ждал этот вечер  /    Пусть между нами стена  /    У тебя я один, у меня ты одна  /    Даже пусть за стеною  /    И не наша вина в том, что жизнь так сложна  /    И что я не с тобой  /    И ты не со мною
Encoding Params                          : (Binary)

Аудио
Идентификатор                            : 1
Формат                                   : ALAC
Идентификатор кодека                     : alac
Идентификатор кодека/Информация          : Apple Lossless Audio Codec
Продолжительность                        : 5 м. 45 с.
Duration_LastFrame                       : -60 мс.
Вид битрейта                             : Переменный
Битрейт                                  : 842 Кбит/сек
Каналы                                   : 2 канала
Частота                                  : 44,1 КГц
Битовая глубина                          : 16 бит
Размер потока                            : 34,7 Мбайт (99%)
Дата кодирования                         : UTC 2009-04-11 02:49:10
Дата пометки                             : UTC 2014-05-21 11:42:45

Общее
Полное имя                               : /Users/Denis/Library/Containers/net.mediaarea.mediainfo.mac/Data/Music/iTunes/iTunes Media/Music/Игорь Тальков/Лирика (Часть 1) (Remastering)/10 Саквояж.m4a
Формат                                   : MPEG-4
Профиль формата                          : Apple audio with iTunes info
Идентификатор кодека                     : M4A
Размер файла                             : 26,6 Мбайт
Продолжительность                        : 3 м. 57 с.
Режим общего битрейта                    : Переменный
Общий поток                              : 940 Кбит/сек
Альбом                                   : Лирика (Часть 1) (Remastering)
Альбом/Исполнитель                       : Игорь Тальков
Трек                                     : Саквояж
Трек/Положение                           : 10
Трек/Всего                               : 11
Исполнитель                              : Игорь Тальков
Жанр                                     : Авторская песня
Дата записи                              : 2003
Дата кодирования                         : UTC 2009-04-11 02:49:25
Дата пометки                             : UTC 2014-05-21 11:42:47
Программа кодирования                    : iTunes 8.1.0.52
Обложка                                  : Yes
Текст песен                              : Саквояж /  / Исп.: Игорь Тальков  /    Я рояль закрою, свечи погашу  /    Прежде чем присяду у порога  /    Году уходящему рукою помашу  /    И шагну на новую дорогу  /      /    А возьму я с собою в дорогу  /    Незатейливый багаж  /    Года старого уроки  /    Упакую в саквояж  /    Неудачи и удачи  /    Радость, грусть, печаль и смех  /    В потайной кармашек спрячу  /    Я надежду на успех  /      /    Вы не огорчайтесь, если старый год  /    Скуп был в исполнении желаний  /    Новая дорога ждет вас у порога  /    И не обманет ваших ожиданий  /      /    Вы возьмите с собой в дорогу  /    Незатейливый багаж  /    Года старого уроки  /    Упакуйте в саквояж  /    Неудачи и удачи  /    Радость, грусть, печаль и смех  /    В потайной кармашек спрячьте  /    Вы надежду на успех
Encoding Params                          : (Binary)

Аудио
Идентификатор                            : 1
Формат                                   : ALAC
Идентификатор кодека                     : alac
Идентификатор кодека/Информация          : Apple Lossless Audio Codec
Продолжительность                        : 3 м. 57 с.
Duration_LastFrame                       : -93 мс.
Вид битрейта                             : Переменный
Битрейт                                  : 926 Кбит/сек
Каналы                                   : 2 канала
Частота                                  : 44,1 КГц
Битовая глубина                          : 16 бит
Размер потока                            : 26,2 Мбайт (99%)
Дата кодирования                         : UTC 2009-04-11 02:49:25
Дата пометки                             : UTC 2014-05-21 11:42:47

Общее
Полное имя                               : /Users/Denis/Library/Containers/net.mediaarea.mediainfo.mac/Data/Music/iTunes/iTunes Media/Music/Игорь Тальков/Лирика (Часть 1) (Remastering)/11 Три дома.m4a
Формат                                   : MPEG-4
Профиль формата                          : Apple audio with iTunes info
Идентификатор кодека                     : M4A
Размер файла                             : 24,2 Мбайт
Продолжительность                        : 4 м. 18 с.
Режим общего битрейта                    : Переменный
Общий поток                              : 787 Кбит/сек
Альбом                                   : Лирика (Часть 1) (Remastering)
Альбом/Исполнитель                       : Игорь Тальков
Трек                                     : Три дома
Трек/Положение                           : 11
Трек/Всего                               : 11
Исполнитель                              : Игорь Тальков
Жанр                                     : Авторская песня
Дата записи                              : 2003
Дата кодирования                         : UTC 2009-04-11 02:49:36
Дата пометки                             : UTC 2014-05-21 11:42:48
Программа кодирования                    : iTunes 8.1.0.52
Обложка                                  : Yes
Текст песен                              : Три дома /  / Слова: И. Тальков  / Исп.: Игорь Тальков  / Я в одиночестве бездонном / У безымянного окна / Стою и слышу, как крадется тишина. / Тяжелой ношею на плечи / Ложиться хмурый летний вечер, / С немым укором в то окно глядит луна. /  / И как назло воображенье / Выводит без предупрежденья / Три разных дома, / Где живут мои друзья / Я в те дома вхожу без стука, / Там мне протягивают руку / И приглашают обогреться у огня. /  / Первый дом - родной мой дом - / Окутан светом и теплом, / В нем живет моё детство. / Дом второй, тоже мой, / До боли милый и родной, / В нем живет мое сердце. / Третий дом - дом родной, / Родной до боли, но не мой, / В этот дом вхожу я не дыша... / В нем живет моя душа. /  / В каком-то странном исступленье, / Меняя краски без труда, / Воображение творит как никогда: / Я вижу маму в доме первом, / Она надеется, наверно, / Что я вернусь к ней и останусь навсегда. /  / Но вот сместилось расстоянье / И воплощенным ожиданьем / В притихшей комнате ребенок сладко спит. / И наконец, тот домик третий: / Словно сошедшая с портрета / В нем тихо женщина прекрасная грустит. /  / Первый дом - родной мой дом - / Окутан светом и теплом, / В нем живет моё детство. / Дом второй, тоже мой, / До боли милый и родной, / В нем живет мое сердце. / Третий дом - дом родной, / Родной до боли, но не мой, / В этот дом вхожу я не дыша... / В нем живет моя душа. /  / Я в одиночестве бездонном / Стою один на всей земле, / Слежу, как тают все три дома / На нарисованном стекле... /  / Май 1985
Encoding Params                          : (Binary)

Аудио
Идентификатор                            : 1
Формат                                   : ALAC
Идентификатор кодека                     : alac
Идентификатор кодека/Информация          : Apple Lossless Audio Codec
Продолжительность                        : 4 м. 18 с.
Duration_LastFrame                       : -73 мс.
Вид битрейта                             : Переменный
Битрейт                                  : 775 Кбит/сек
Каналы                                   : 2 канала
Частота                                  : 44,1 КГц
Битовая глубина                          : 16 бит
Размер потока                            : 23,8 Мбайт (98%)
Дата кодирования                         : UTC 2009-04-11 02:49:36
Дата пометки                             : UTC 2014-05-21 11:42:48
Код:

-----------------------

DON'T MODIFY THIS FILE

-----------------------

PERFORMER: auCDtect Task Manager, ver. 1.6.0 RC1 build 1.6.0.1
Copyright (c) 2008-2010 y-soft. All rights reserved
http://y-soft.org

ANALYZER: auCDtect: CD records authenticity detector, version 0.8.2
Copyright (c) 2004 Oleg Berngardt. All rights reserved.
Copyright (c) 2004 Alexander Djourik. All rights reserved.

FILE: 11 Три дома.m4a
  Size: 25404083 Hash: 98F8ACB052C7A937C4CD03039D97D433 Accuracy: -m40
  Conclusion: CDDA 100%
  Signature: 3F4D2FE31E229EA75A228A0C2F1D53263AF14690
FILE: 10 Саквояж.m4a
  Size: 27918169 Hash: 7986DCBF9BF9BC6F8BCE9BCD5BF2D38D Accuracy: -m40
  Conclusion: CDDA 100%
  Signature: F70FB743B7AF8DD5F3F0E2BA0F5E6AF156E18F49
FILE: 09 Праздник.m4a
  Size: 36753475 Hash: 2DAF328F740F958221956A8ADCD9EC31 Accuracy: -m40
  Conclusion: CDDA 100%
  Signature: 60E43FA54A08D6EA79367577B4E0FB8CFE62A214
FILE: 08 Love you (я тебя люблю).m4a
  Size: 45156154 Hash: F3259E67922B42D46975BFDA669B8CFF Accuracy: -m40
  Conclusion: CDDA 100%
  Signature: 0D9D48C6B84766B66D2342365E09C90FE8776064
FILE: 07 Память.m4a
  Size: 23314366 Hash: E49BB45AA8F9D645244DD13D88402594 Accuracy: -m40
  Conclusion: CDDA 43%
  Signature: FC9AFD4463AE59A42425204BFCDEE1E7B75E049E
FILE: 06 Маленькая планета.m4a
  Size: 33301860 Hash: 8590F874C87398DA6F104359CE4C08D9 Accuracy: -m40
  Conclusion: CDDA 100%
  Signature: 125FBB4FC082F6865417694864FFB3D3F6049633
FILE: 05 Летний дождь.m4a
  Size: 57552787 Hash: 7D01E064F82DBDF8D6881D3D13544C2B Accuracy: -m40
  Conclusion: CDDA 100%
  Signature: 1C4CCFF1C34C1B4BF891E9DFBC6664EFB3EF25D0
FILE: 04 Ты опоздала.m4a
  Size: 33474356 Hash: 50B04C35BDB501BC937279A6F9998183 Accuracy: -m40
  Conclusion: CDDA 100%
  Signature: 8F4C59657D01F0C55B8531570743721273FBC755
FILE: 03 Звезда.m4a
  Size: 44103163 Hash: D4A9371F3664248EFC7AE90BDB5168D2 Accuracy: -m40
  Conclusion: CDDA 100%
  Signature: 13BFDD4C1A22E20F72AB07728CF22684352BA160
FILE: 02 Моя любовь.m4a
  Size: 29163008 Hash: 723812B2038E186FC80DFE5BFBAA1C61 Accuracy: -m8
  Conclusion: CDDA 43%
  Signature: C50B1DBC034F2690CB645B06E59E0BC72094D7DA
FILE: 01 Разговоры ни о чем.m4a
  Size: 28651805 Hash: 39DD894C83A4112A8DBA81E7B0B5E735 Accuracy: -m40
  Conclusion: CDDA 43%
  Signature: 0B305DF37676ED9A0169967F60D045A16CDE5119
Время раздачи: с 20:00 до 03:00 постоянно / часто 24/7 - До первых 5 скачавших
[NNM-Club.me]_Igor' Tal'kov (2003) Lirika (CHast' 1).torrent
 Торрент: Платиновая раздача  Зарегистрирован
 
Скачать


Примагнититься
 Зарегистрирован:   23 Май 2014 14:07:53
 Размер:   367 MB  (
 Рейтинг:   4.3 (Голосов: 46)
 Поблагодарили:   129
 Проверка:   Оформление проверено модератором 23 Май 2014 16:46:57
Как cкачать  ·  Как раздать  ·  Правильно оформить  ·  Поднять ратио!  
Показать сообщения:   
Начать новую тему   Ответить на тему    Торрент-трекер NNM-Club -> Аудио и Видео -> Музыка Lossless (ALAC) Часовой пояс: GMT + 3
Страница 1 из 1