Классический форум-трекер
canvas not supported
Нас вместе: 4 235 058

Злоключения Альфреда / Malheurs d'Alfred, Les (1972) BDRip [H.264/720p]


 
 
RSS
Начать новую тему   Ответить на тему    Торрент-трекер NNM-Club -> Классика кино и Старые фильмы до 90-х -> Зарубежная Классика (HD, FHD, UHD, 3D)
Автор Сообщение
sinteros ®
Стаж: 15 лет 5 мес.
Сообщений: 562
Ratio: 65.353
Поблагодарили: 62356
100%
Злоключения Альфреда / Malheurs d'Alfred, Les (1972)
BDRip [H.264/720p-LQ] [Hi10P]

Год выпуска: 1972
Страна: Франция
Жанр: комедия
Перевод: Многоголосый x2
Оригинальная аудио дорожка: Французская
Язык субтитров: Французский
Вид субтитров: Вшитые (отключаемые)

Описание фильма: Альфреду Дюмонтье с рождения катастрофически не везло: в семь лет он чуть было не попал в плен к фашистам, отец и мать умерли рано, девушка бросила его и ушла в монастырь. Пресытившись несчастьями, Альфред решил утопиться. И надо же было такому случиться, что именно на том самом мосту, с которого бросился в воду Альфред, в ту самую ночь, и в тот же час, туда пришла такая же невезучая бедолага - Агата Бодар, которую бросил известный телеведущий. Знай они, что сулит им эта случайная встреча... то они, наверное, всё равно бы пошли на тот мост, чтобы встретиться, и никогда не расставаться.

Режиссер: Пьер Ришар

Актеры: Пьер Ришар, Анни Дюпре, Жан Карме, Поль Пребуа, Поль Ле Персон, Марио Давид, Френсис Лакс, Ив Робер, Робер Дальбан, Даниэль Лалу

Качество видео: BDRip
Продолжительность: 01:33:29


< МОИ РЕЛИЗЫ >

Основной файл весит2,57гб с одной звуковой дорожкой!

Видео: MPEG-4 AVC/H.264, 1280x772(1,658), 24,000fps, 3675 Кbps, 0.155bit/pixel
Аудио 1: MVO Russian, AC3, 2ch, 48 kHz, 192 kbps, (Многоголосый - РенТВ)
Аудио 2: MVO Russian, AC3, 2ch, 48 kHz, 192 kbps, (Многоголосый - Кипарис) - Отдельным файлом
Аудио 3: French, AC3, 2ch, 48 kHz, 192 kbps, (Оригинал) - Отдельным файлом
Общее
Полное имя : Злоключения Альфреда (1972) BDRip-AVC.mkv
Формат : Matroska
Версия формата : Version 4 / Version 2
Размер файла : 2,83 Гбайт
Продолжительность : 1 ч. 33 м.
Общий поток : 4330 Кбит/сек
Название фильма : Злоключения Альфреда / Malheurs d'Alfred, Les (1972) BDRip-AVC (Sinteros)
Attachment : Yes

Видео
Идентификатор : 1
Формат : AVC
Формат/Информация : Advanced Video Codec
Профиль формата : High 10@L4.1
Параметр CABAC формата : Да
Параметр ReFrames формата : 11 кадров
Идентификатор кодека : V_MPEG4/ISO/AVC
Продолжительность : 1 ч. 33 м.
Битрейт : 3675 Кбит/сек
Ширина : 1280 пикселей
Высота : 772 пикселя
Соотношение сторон : 1,658
Режим частоты кадров : Постоянный
Частота кадров : 24,000 кадра/сек
Цветовое пространство : YUV
Субдискретизация насыщенности : 4:2:0
Битовая глубина : 10 бит
Тип развёртки : Прогрессивная
Бит/(Пиксели*Кадры) : 0.155
Размер потока : 2,40 Гбайт (85%)
Заголовок : MPEG-4 AVC/H.264, 1280x772(1,658), 24,000fps, 3675 Кbps, 0.155bit/pixel
Библиотека кодирования : x264 core 133 r2334 a3ac64b
Настройки программы : cabac=1 / ref=11 / deblock=1:-1:-1 / analyse=0x3:0x133 / me=tesa / subme=10 / psy=1 / psy_rd=1.00:0.15 / mixed_ref=1 / me_range=24 / chroma_me=1 / trellis=2 / 8x8dct=1 / cqm=0 / deadzone=21,11 / fast_pskip=1 / chroma_qp_offset=-3 / threads=12 / lookahead_threads=1 / sliced_threads=0 / nr=0 / decimate=1 / interlaced=0 / bluray_compat=0 / constrained_intra=0 / bframes=6 / b_pyramid=2 / b_adapt=2 / b_bias=0 / direct=1 / weightb=1 / open_gop=0 / weightp=2 / keyint=250 / keyint_min=23 / scenecut=40 / intra_refresh=0 / rc_lookahead=60 / rc=crf / mbtree=1 / crf=23.0 / qcomp=0.60 / qpmin=0 / qpmax=81 / qpstep=4 / ip_ratio=1.40 / aq=1:1.00
Язык : French
Default : Да
Forced : Нет

Аудио #1
Идентификатор : 2
Формат : AC-3
Формат/Информация : Audio Coding 3
Расширение режима : CM (complete main)
Параметр Endianness формата : Big
Идентификатор кодека : A_AC3
Продолжительность : 1 ч. 33 м.
Вид битрейта : Постоянный
Битрейт : 192 Кбит/сек
Каналы : 2 канала
Расположение каналов : Front: L R
Частота : 48,0 КГц
Битовая глубина : 16 бит
Метод сжатия : С потерями
Размер потока : 128 Мбайт (4%)
Заголовок : MVO Russian, AC3, 2ch, 48 kHz, 192 kbps, (Многоголосый - РенТВ)
Язык : Russian
Default : Да
Forced : Нет

Аудио #2 - Отдельным файлом
Идентификатор : 3
Формат : AC-3
Формат/Информация : Audio Coding 3
Расширение режима : CM (complete main)
Параметр Endianness формата : Big
Идентификатор кодека : A_AC3
Продолжительность : 1 ч. 33 м.
Вид битрейта : Постоянный
Битрейт : 192 Кбит/сек
Каналы : 2 канала
Расположение каналов : Front: L R
Частота : 48,0 КГц
Битовая глубина : 16 бит
Метод сжатия : С потерями
Размер потока : 128 Мбайт (4%)
Заголовок : MVO Russian, AC3, 2ch, 48 kHz, 192 kbps, (Многоголосый - Кипарис) - Отдельным файлом
Язык : Russian
Default : Нет
Forced : Нет

Аудио #3 - Отдельным файлом
Идентификатор : 4
Формат : AC-3
Формат/Информация : Audio Coding 3
Расширение режима : CM (complete main)
Параметр Endianness формата : Big
Идентификатор кодека : A_AC3
Продолжительность : 1 ч. 33 м.
Вид битрейта : Постоянный
Битрейт : 192 Кбит/сек
Каналы : 2 канала
Расположение каналов : Front: L R
Частота : 48,0 КГц
Битовая глубина : 16 бит
Метод сжатия : С потерями
Размер потока : 128 Мбайт (4%)
Заголовок : French, AC3, 2ch, 48 kHz, 192 kbps, (Оригинал) - Отдельным файлом
Язык : French
Default : Нет
Forced : Нет

Текст
Идентификатор : 5
Формат : UTF-8
Идентификатор кодека : S_TEXT/UTF8
Идентификатор кодека/Информация : UTF-8 Plain Text
Язык : French
Default : Нет
Forced : Нет

Меню
00:00:00.000 : en:
00:07:10.958 : en:
00:14:29.082 : en:
00:21:45.665 : en:
00:29:30.040 : en:
00:37:20.416 : en:
00:44:31.375 : en:
00:51:34.207 : en:
00:58:54.125 : en:
01:06:03.916 : en:
01:12:56.832 : en:
01:20:28.000 : en:
01:33:28.750 : en:
Примечание: Рип в High 10 Profile, в настоящее время не поддерживается большинством аппаратных проигрывателей, поэтому предназначен исключительно для воспроизведения на ПК. Для корректного воспроизведения может потребоваться обновление ПО.

Скриншоты:


Злоключения Альфреда на NNM-club

Время раздачи: 24/7 (жду до 10-15 скачавших а дальше могу уйти с радачи)
[NNM-Club.me]_Zloklyucheniya Al'freda (1972) BDRip-AVC.torrent
 Торрент: Платиновая раздача  Зарегистрирован
 
Скачать


Примагнититься
 Зарегистрирован:   06 Дек 2014 21:03:30
 Размер:   2.83 GB  (
 Рейтинг:   4.8 (Голосов: 64)
 Поблагодарили:   276
 Проверка:   Оформление проверено модератором 11 Дек 2014 04:40:08
Как cкачать  ·  Как раздать  ·  Правильно оформить  ·  Поднять ратио!  
Показать сообщения:   
Начать новую тему   Ответить на тему    Торрент-трекер NNM-Club -> Классика кино и Старые фильмы до 90-х -> Зарубежная Классика (HD, FHD, UHD, 3D) Часовой пояс: GMT + 3
Страница 1 из 1